osu file format v9

[General]
AudioFilename: 1. Hadise - Dum tek tek (radio rip).mp3
AudioLeadIn: 0
PreviewTime: 43991
Countdown: 1
SampleSet: Normal
StackLeniency: 0.7
Mode: 0
LetterboxInBreaks: 1

[Editor]
DistanceSpacing: 1.3
BeatDivisor: 2
GridSize: 8

[Metadata]
Title:Dum Tek Tek
Artist:Hadise
Creator:Tonoicutzu
Version:Easy
Source:Eurovision Song Contest 2009
Tags:Turkey Oriental Pop

[Difficulty]
HPDrainRate:2
CircleSize:3
OverallDifficulty:3
ApproachRate:1
SliderMultiplier:0.8
SliderTickRate:1

[Events]
//Background and Video events
0,0,"Hadise-Sexy-Hot-Nude-Photo-Picture.JPG"
//Break Periods
2,60711,67387
2,121241,127909
//Storyboard Layer 0 (Background)
//Storyboard Layer 1 (Fail)
//Storyboard Layer 2 (Pass)
//Storyboard Layer 3 (Foreground)
//Storyboard Sound Samples
//Background Colour Transformations
3,100,163,162,255

[TimingPoints]
198,521.739130434783,4,1,0,60,1,0
44020,-100,4,1,0,60,0,1
46889,-100,4,1,0,60,0,0
47150,-100,4,1,0,60,0,1
55237,-100,4,1,0,60,0,0
55498,-100,4,1,0,60,0,1
60715,-100,4,1,0,60,0,0
76367,-100,4,1,0,60,0,1
76889,-100,4,1,0,60,0,0
104541,-100,4,1,0,60,0,1
107411,-100,4,1,0,60,0,0
107672,-100,4,1,0,60,0,1
115759,-100,4,1,0,60,0,0
116020,-100,4,1,0,60,0,1
121237,-100,4,1,0,60,0,0
136889,-100,4,1,0,60,0,1
137411,-100,4,1,0,60,0,0
137672,-100,4,1,0,40,0,0
146020,-100,4,1,0,60,0,0
154628,-100,4,1,0,60,0,1
157498,-100,4,1,0,60,0,0
157759,-100,4,1,0,60,0,1
165846,-100,4,1,0,60,0,0
166107,-100,4,1,0,60,0,1
178367,-100,4,1,0,60,0,0
178628,-100,4,1,0,60,0,1
179150,-100,4,1,0,60,0,0

[Colours]
Combo1 : 255,150,0
Combo2 : 192,192,192
Combo3 : 255,128,64
Combo4 : 185,100,36

[HitObjects]
72,96,8545,1,12
176,96,9067,2,0,B|216:72|272:112,1,80,8|0
256,200,10111,2,0,B|296:224|352:184,1,80,8|0
360,96,11154,2,0,B|400:72|456:112,2,80,8|0|8
360,200,12719,5,0
256,200,13241,2,0,B|160:200,1,80,8|0
96,280,14284,2,0,B|200:280,1,80,8|0
280,280,15328,1,8
384,280,15850,1,0
384,176,16371,1,8
280,176,16893,5,0
216,96,17415,1,10
112,96,17937,1,0
176,176,18458,1,10
240,264,18980,1,0
344,264,19502,2,0,B|384:240|440:280,2,80,10|0|2
344,160,21067,5,0
448,160,21589,1,10
448,56,22111,2,0,B|352:56,1,80,0|10
256,56,23154,2,0,B|256:144,2,80
432,168,25241,6,0,B|456:208|416:264,1,80,8|2
328,248,26284,1,8
264,168,26806,1,2
160,168,27328,2,0,B|56:168,1,80,8|2
80,272,28371,1,8
152,344,28893,1,2
256,344,29415,6,0,B|256:248,1,80,8|2
256,160,30458,1,8
256,56,30980,1,2
360,56,31502,2,0,B|360:156,2,80,8|0|8
160,88,33589,6,2,B|160:32|44:32|44:96,1,160
48,296,35676,2,2,B|48:352|164:352|164:296,1,160
376,296,37763,2,8,B|376:216,2,80
256,192,39850,12,4,42980
64,152,44024,2,0,B|104:128|160:168,1,80,12|8
248,160,45067,2,8,B|248:256,1,80
352,240,46111,2,0,B|392:264|448:224,1,80,8|8
432,136,47154,2,12,B|432:80,2,40
328,136,48198,5,8
240,192,48719,1,10
152,136,49241,1,8
64,192,49763,2,8,B|64:288,1,80,10|8
168,272,50806,1,10
272,272,51328,2,12,B|312:272,2,40
272,168,52371,6,0,B|312:144|368:184,1,80,8|2
272,168,53415,2,0,B|235:195|195:171,1,80,8|2
96,168,54458,1,8
96,64,54980,1,10
200,64,55502,2,12,B|256:64,2,40
200,176,56545,6,8,B|104:176,1,80,8|10
120,280,57589,1,8
224,280,58111,1,10
328,280,58632,2,8,B|428:280,1,80,8|10
408,176,59676,2,12,B|408:112,2,40
64,72,69067,5,8
160,104,69589,1,2
248,152,70111,1,8
160,200,70632,1,2
64,240,71154,1,8
160,200,71676,1,10
248,152,72198,1,8
248,48,72719,1,2
144,48,73241,6,8,B|48:48,1,80,8|2
64,152,74284,2,8,B|64:256,1,80,8|2
168,232,75328,2,8,B|272:232,1,80,8|2
352,232,76371,2,12,B|352:184,2,40
456,232,77415,6,0,B|480:192|440:136,2,80,8|2|8
352,232,78980,1,10
248,232,79502,2,0,B|224:272|264:328,2,80,8|2|8
248,128,81067,5,10
144,128,81589,2,0,B|48:128,2,80,8|10|8
248,128,83154,1,2
352,128,83676,2,12,B|352:232,2,80,8|8|8
248,128,85241,5,2
248,24,85763,1,8
352,24,86284,1,2
352,128,86806,1,8
352,24,87328,1,2
248,24,87850,6,0,B|224:64|264:120,1,80,8|2
152,120,88893,2,0,B|128:160|168:216,1,80,8|2
256,200,89937,2,0,B|344:200,1,80,8|2
440,200,90980,2,0,B|464:240|424:296,1,80,8|2
328,272,92024,5,8
328,168,92545,1,8
328,64,93067,1,8
168,192,94111,6,8,B|168:136|52:136|52:204,1,160,8|10
264,192,96198,2,8,B|264:130|380:130|380:186,1,160,8|10
272,360,98284,2,8,B|364:360,2,80,10|8|10
256,192,100371,12,0,103502
432,80,104545,5,8
368,152,105067,1,2
304,80,105589,1,8
240,152,106111,1,2
176,80,106632,1,8
112,152,107154,1,2
112,248,107676,2,12,B|112:304,2,40,12|12|12
112,152,108719,5,8
216,152,109241,1,2
320,152,109763,1,8
424,152,110284,2,8,B|424:248,1,80,2|8
320,232,111328,1,2
216,232,111850,2,12,B|216:168,2,40
320,232,112893,6,8,B|252:299,1,80,8|2
320,232,113937,2,8,B|382:294,1,80,8|2
480,288,114980,1,8
480,184,115502,1,2
480,80,116024,2,12,B|424:80,2,40
480,184,117067,6,0,B|504:224|464:280,1,80,8|2
376,264,118111,1,8
272,264,118632,1,2
168,264,119154,2,0,B|131:291|91:267,1,80,8|2
88,168,120198,2,12,B|88:96,2,40
432,64,129589,5,8
384,152,130111,1,2
320,240,130632,1,8
216,240,131154,1,2
152,152,131676,1,0
96,64,132198,1,2
40,152,132719,2,12,B|40:200,2,40
152,152,133763,6,8,B|248:152,1,80,8|2
336,152,134806,2,8,B|336:48,1,80,8|2
232,72,135850,2,8,B|128:72,1,80,8|2
152,176,136893,2,12,B|152:224,2,40
40,176,137937,6,8,B|-12:176|-12:256|44:256,2,120,10|10|10
144,176,140024,2,8,B|196:176|196:256|140:256,2,120,10|10|10
64,112,142111,6,8,B|12:112|12:192|68:192,2,120,10|10|10
144,176,144197,2,8,B|196:176|196:256|140:256,2,120,10|10|10
40,176,146284,5,8
40,72,146806,1,0
144,72,147328,2,12,B|200:72,2,40
144,176,148371,6,0,B|144:288,1,80,8|0
248,256,149415,1,12
248,200,149676,1,12
248,144,149937,1,12
344,176,150458,6,0,B|367:214|339:250,1,80,8|2
328,352,151502,2,12,B|276:352,2,40,4|4|4
432,352,152545,5,8
432,248,153067,1,0
432,144,153589,2,12,B|432:72,2,40
328,144,154632,5,8
328,248,155154,1,2
328,352,155676,1,8
328,248,156197,1,2
328,144,156719,1,0
224,144,157241,1,2
224,40,157763,2,4,B|268:40,2,40,12|4|4
224,144,158806,5,8
224,248,159328,1,2
120,248,159850,1,8
120,144,160371,2,0,B|160:120|216:160,1,80,2|8
304,144,161415,1,2
304,248,161937,2,12,B|368:248,2,40
200,248,162980,6,8,B|200:336,1,80,8|2
304,328,164024,2,8,B|400:328,1,80,8|2
384,224,165067,2,0,B|384:128,1,80,0|2
280,144,166111,2,4,B|236:144,2,40
280,248,167154,5,8
384,248,167676,1,2
384,144,168197,1,8
280,144,168719,2,0,B|240:120|184:160,1,80,2|8
200,248,169763,1,2
96,248,170284,2,12,B|96:320,2,40
96,144,171328,6,0,B|72:104|112:48,1,80,8|2
208,144,172371,2,0,B|184:104|224:48,1,80,8|2
312,72,173415,1,8
416,72,173937,1,2
416,176,174458,1,4
416,232,174719,1,4
416,288,174980,1,4
312,288,175502,5,8
232,224,176024,1,2
160,152,176545,1,8
232,72,177067,1,2
336,72,177589,1,8
336,176,178111,1,2
336,280,178632,5,4
280,280,178893,1,4
224,280,179154,1,4
