osu file format v5

[General]
AudioFilename: Hadise - Deli Oğlan.mp3
AudioLeadIn: 0
PreviewTime: -1
Countdown: 1
SampleSet: None
StackLeniency: 0.7
Mode: 0
LetterboxInBreaks: 1

[Metadata]
Title:Deli Oglan
Artist:Hadise
Creator:aryuautku
Version:Easy
Source:
Tags:hadise deli oglan crazy boy

[Difficulty]
HPDrainRate:5
CircleSize:5
OverallDifficulty:5
SliderMultiplier:1.4
SliderTickRate:1

[Events]
//Background and Video events
0,0,"Hadise_Cover.jpg"
//Break Periods
//Storyboard Layer 0 (Background)
//Storyboard Layer 1 (Failing)
//Storyboard Layer 2 (Passing)
//Storyboard Layer 3 (Foreground)
//Storyboard Sound Samples
//Background Colour Transformations
3,100,255,0,0

[TimingPoints]
7,400,4,0,0,100,1
5962,669,4,0,0,100,1

[HitObjects]
32,192,1225,2,0,B|128:96|-32:96,1,160
96,128,8346,1,0
160,256,12605,1,0
100,100,18012,1,0
96,192,20650,1,0
96,192,21182,1,0
96,160,21726,1,0
96,128,22888,1,0
128,128,23889,1,0
128,160,24962,1,0
128,160,25496,1,0
160,160,26109,1,0
160,160,26636,1,0
96,96,29346,1,0
128,96,30064,1,0
96,96,30611,1,0
96,96,31134,1,0
192,96,33893,1,0
160,96,34483,1,0
160,128,35079,1,0
160,128,35563,1,0
128,192,37609,1,0
128,192,37760,1,0
128,192,38058,1,0
128,192,38212,1,0
128,192,38380,1,0
128,192,38527,1,0
128,160,39905,1,0
128,160,40072,1,0
128,160,40233,1,0
128,160,40389,1,0
128,160,40565,1,0
128,160,40726,1,0
160,128,42347,1,0
96,96,44276,2,0,B|256:160|64:224|-32:128,1,280
224,96,51286,1,0
160,96,53293,1,0
104,166,55819,1,0
150,207,58300,1,0
96,64,63021,1,0
96,128,65503,5,12
160,192,67234,1,0
256,320,71973,1,0
256,288,72589,1,0
224,256,73342,1,0
224,224,74636,1,0
224,224,75022,1,0
224,192,75794,1,0
224,160,76975,1,0
192,160,77775,1,0
192,192,78724,1,0
160,192,79295,1,0
160,160,79965,1,0
128,96,82545,1,0
192,96,84630,1,0
96,256,85573,2,0,L|384:128,1,280
192,160,87052,1,0
96,160,90368,1,0
96,224,92297,1,0
224,256,96782,1,0
224,320,98637,1,0
224,224,101295,1,0
224,160,103734,5,0
256,192,105796,12,0,108308
72,265,110959,5,8
119,138,112956,1,8
173,256,113620,1,8
81,260,114128,5,8
160,175,114738,1,8
76,120,114975,1,8
204,51,115544,1,8
200,302,116106,1,8
74,236,117380,1,8
163,179,117785,1,8
64,133,118294,1,8
199,302,118755,1,8
28,320,119289,1,8
156,221,119788,1,8
171,109,120365,1,8
25,136,120882,1,8
96,229,123963,5,8
199,170,124852,1,8
82,142,125409,1,8
181,95,125936,1,8
98,240,126468,1,8
208,249,127133,1,8
113,162,127618,1,8
105,220,130162,5,10
180,300,130948,1,10
55,299,131802,1,10
184,222,132628,1,10
42,236,133389,1,10
82,143,137232,5,8
172,148,139425,1,8
6,216,141593,1,8
133,115,143509,1,8
214,220,145369,1,8
49,92,147648,1,8
64,160,147790,2,0,L|256:160,1,140
118,128,150109,1,0
100,65,152160,1,0
109,150,154847,1,0
131,226,157333,1,8
152,177,158988,1,8
94,176,161327,1,8
148,255,163265,1,8
93,176,165302,1,8
192,124,167635,1,8
48,254,170160,1,8
139,155,173057,1,8
325,288,175415,1,8
328,237,177538,1,8
128,64,177895,2,0,L|128:224,1,140
216,352,179769,1,8
486,359,181082,1,8
182,363,182103,1,8
479,358,183148,1,8
189,360,184203,1,8
479,348,185394,1,8
178,355,186501,1,8
96,160,186592,1,0
160,128,187261,1,0
464,355,187767,1,8
192,224,187930,1,0
