osu file format v5

[General]
AudioFilename: Hacken Lee - Red Sun.mp3
AudioLeadIn: 0
PreviewTime: 111858
Countdown: 1
SampleSet: Normal
StackLeniency: 0.7
Mode: 0
LetterboxInBreaks: 1
EditorBookmarks: 20393,52388,60380,92351,112339,144352,192318

[Metadata]
Title:Red Sun
Artist:Hacken Lee
Creator:Echo49
Version:Hard
Source:
Tags:

[Difficulty]
HPDrainRate:6
CircleSize:4
OverallDifficulty:6
SliderMultiplier:2
SliderTickRate:2

[Events]
//Background and Video events
0,0,"bg.png"
//Break Periods
2,52612,59358
2,90667,98916
//Storyboard Layer 0 (Background)
4,0,1,"bottom.png",314,290 F,0,136000,140000,1,1
4,0,1,"top.png",314,290 F,0,138900,140000,1,1
4,0,1,"full.png",314,290 F,0,139990,142400,1,1 S,2,141000,142400,1,0 R,2,141000,142400,0,20
//Storyboard Layer 1 (Failing)
//Storyboard Layer 2 (Passing)
//Storyboard Layer 3 (Foreground)
//Storyboard Sound Samples
//Background Colour Transformations
3,100,163,162,255

[TimingPoints]
8460,499.916624937531,4,1,0,100
112390,499.983224937531,4,1,0,100

[HitObjects]
72,88,20457,6,0,B|85:139|152:168,1,100
200,184,20957,1,0
272,280,21457,1,0
384,280,21957,1,0
440,88,22457,6,0,B|427:139|360:168,1,100
312,184,22957,1,0
240,280,23457,1,0
128,280,23957,1,0
128,152,24457,6,0,B|128:96|200:64,1,100
256,56,24957,1,0
330,73,25207,2,0,B|384:96|384:152,1,100
256,320,25957,5,0
216,216,26456,2,0,B|216:112,1,100
288,216,26956,2,0,B|288:104,1,100
256,56,27456,1,0
176,136,27956,5,0
128,184,28206,1,0
80,232,28456,1,0
336,136,28956,5,0
384,184,29206,1,0
432,232,29456,1,0
112,320,29956,5,0
184,320,30206,1,0
256,320,30456,1,0
256,192,30956,1,0
256,64,31456,1,0
384,128,31956,5,0
320,160,32206,1,0
256,192,32455,1,0
128,128,32955,5,0
192,160,33205,1,0
256,192,33455,1,0
256,264,33705,1,0
328,336,33955,1,0
256,336,34205,1,0
184,336,34455,1,0
424,136,36455,6,0,B|407:80|336:64,3,100
280,72,37455,1,0
160,72,37955,1,0
88,248,38454,6,0,B|105:304|176:320,3,100
232,312,39454,1,0
352,312,39954,1,0
408,144,40454,5,0
408,244,40954,1,0
104,144,41454,1,0
104,244,41954,1,0
208,120,42454,5,0
304,120,42704,1,0
256,192,42954,1,0
208,264,43204,1,0
304,264,43454,1,0
408,144,43954,6,0,B|408:256,2,100
104,144,44953,2,0,B|104:256,2,100
208,48,45953,1,0
304,48,46203,1,0
256,120,46453,1,0
256,232,46953,1,0
256,344,47453,1,0
256,192,47953,12,0,52453
80,96,60451,5,0
192,96,60951,1,0
192,208,61451,2,0,B|248:208|280:152,1,100
304,96,61951,2,0,B|360:96|392:152,1,100
432,200,62450,5,0
432,272,62700,1,0
360,272,62950,1,0
360,344,63200,1,0
288,344,63450,1,0
216,344,63700,5,0
216,272,63950,1,0
144,272,64200,1,0
136,56,64450,5,0
256,56,64950,1,0
376,56,65450,1,0
256,144,65950,2,0,B|256:256,2,100
136,328,66950,5,0
256,328,67450,1,0
376,328,67950,1,0
256,240,68449,1,0
64,200,68949,6,0,B|85:96|216:56,1,200
448,200,69949,2,0,B|427:96|296:56,1,200
256,336,70949,1,0
256,264,71199,1,0
256,192,71449,1,0
256,48,71949,1,0
136,224,72449,5,0
64,152,72699,1,0
64,224,72949,1,0
136,152,73199,1,0
216,152,73449,5,0
296,152,73699,1,0
376,152,73949,5,0
448,224,74199,1,0
448,152,74448,1,0
376,224,74698,1,0
256,336,75198,1,0
432,96,76448,5,0
320,96,76948,1,0
320,208,77448,2,0,B|264:208|232:152,1,100
208,96,77948,2,0,B|152:96|120:152,1,100
80,200,78448,5,0
80,272,78698,1,0
152,272,78948,1,0
152,344,79198,1,0
224,344,79448,1,0
296,344,79698,5,0
296,272,79948,1,0
368,272,80198,1,0
376,56,80447,5,0
256,56,80947,1,0
136,56,81447,1,0
256,144,81947,2,0,B|256:256,2,100
184,336,82947,1,0
256,336,83197,1,0
328,336,83447,1,0
136,112,83947,6,0,B|170:70|232:64,1,100
296,64,84447,1,0
376,200,84947,6,0,B|342:158|280:152,1,100
216,152,85447,1,0
136,288,85947,6,0,B|170:246|232:240,1,100
296,240,86446,1,0
296,104,86946,1,0
160,104,87446,1,0
256,192,87946,12,0,90446
184,80,99944,5,0
328,80,100444,2,0,C|421:105|328:144|423:173|328:208,1,400
328,304,101944,5,0
184,304,102444,2,0,C|91:279|184:240|89:211|184:176,1,400
320,200,103944,1,0
384,96,104443,5,0
304,96,104693,2,0,C|200:96,1,100
128,96,105193,1,0
160,176,105443,2,0,C|264:176,1,100
344,176,105943,1,0
128,288,106443,5,0
208,288,106693,2,0,C|312:288,1,100
384,288,107193,1,0
352,208,107443,2,0,C|248:208,1,100
168,208,107943,1,0
416,72,108443,5,0
320,192,108943,1,0
192,64,109443,1,0
64,192,109943,1,0
64,320,110442,5,0
192,192,110942,1,0
320,320,111380,1,0
448,192,111880,1,0
120,240,112390,6,0,B|120:344,1,100
192,304,112889,1,0
256,272,113139,1,0
392,240,113389,6,0,B|392:344,1,100
320,304,113889,1,0
256,272,114139,1,0
120,144,114389,6,0,B|120:40,1,100
192,80,114889,1,0
256,112,115139,1,0
392,144,115389,6,0,B|392:40,1,100
320,80,115889,1,0
256,112,116139,1,0
112,192,116389,5,0
112,192,116639,1,0
208,192,116889,5,0
208,192,117139,1,0
304,192,117389,5,0
304,192,117639,1,0
400,192,117889,5,0
400,192,118139,1,0
448,272,118389,6,0,B|259:352|40:272,1,400
80,144,119889,6,0,B|156:70|272:64,1,200
291,136,120889,2,0,B|188:142|112:216,1,200
144,288,121889,2,0,B|220:214|336:208,1,200
448,208,122889,1,0
448,328,123389,1,0
184,64,123889,5,0
256,64,124139,1,0
328,64,124389,1,0
184,320,124889,5,0
256,320,125139,1,0
328,320,125389,1,0
112,192,125889,5,0
184,192,126139,1,0
256,192,126389,2,0,B|464:192,2,200
256,192,127889,1,0
112,48,128389,5,0
112,120,128639,1,0
112,192,128889,1,0
112,264,129139,1,0
112,336,129389,5,0
184,336,129639,1,0
256,336,129889,1,0
328,336,130139,1,0
400,336,130389,5,0
400,264,130639,1,0
400,192,130889,1,0
400,120,131139,1,0
400,48,131389,5,0
328,48,131639,1,0
256,48,131889,1,0
184,48,132139,1,0
184,120,132389,5,0
184,192,132639,1,0
184,264,132889,1,0
256,264,133139,5,0
328,264,133389,1,0
328,192,133639,1,0
328,120,133889,5,0
256,120,134139,1,0
256,192,134389,5,0
184,336,134889,1,0
256,336,135139,1,0
328,336,135389,1,0
120,216,136389,6,0,B|120:336|256:363|394:338|391:207,2,400
184,120,138889,1,0
328,120,139389,1,0
256,208,139889,5,0
256,192,142388,12,0,144387
