osu file format v12

[General]
AudioFilename: Happy Rainy Day.mp3
AudioLeadIn: 0
PreviewTime: 7858
Countdown: 0
SampleSet: Soft
StackLeniency: 0.7
Mode: 0
LetterboxInBreaks: 1
EpilepsyWarning: 1
WidescreenStoryboard: 1

[Editor]
DistanceSpacing: 1.6
BeatDivisor: 4
GridSize: 4

[Metadata]
Title:Happy Rainy Day
TitleUnicode:Happy Rainy Day
Artist:Hachiouji-P
ArtistUnicode:八王子P
Creator:fuji97
Version:Rainy Day
Source:Miku Hatsune V3
Tags:Vocaloid japanese
BeatmapID:311139
BeatmapSetID:120086

[Difficulty]
HPDrainRate:6
CircleSize:4
OverallDifficulty:7
ApproachRate:8
SliderMultiplier:1.6
SliderTickRate:2

[Events]
//Background and Video events
0,0,"bg.jpg",0,0
//Break Periods
//Storyboard Layer 0 (Background)
//Storyboard Layer 1 (Fail)
//Storyboard Layer 2 (Pass)
//Storyboard Layer 3 (Foreground)
//Storyboard Sound Samples
//Background Colour Transformations
3,100,163,162,255

[TimingPoints]
935,461.538461538462,4,2,1,60,1,0
28165,-100,4,2,1,75,0,0
29896,-100,4,2,1,60,0,0
36011,-100,4,2,1,75,0,0
37973,-100,4,2,1,60,0,0
42473,-100,4,2,1,75,0,0
43396,-100,4,2,1,90,0,0
45242,-100,4,2,1,70,0,0
73858,-100,4,2,1,80,0,0
76627,-100,4,2,1,80,0,1
91396,-100,4,2,1,5,0,0

[Colours]
Combo1 : 120,170,245
Combo2 : 16,83,194
Combo3 : 17,238,177

[HitObjects]
256,192,13858,12,0,15242,0:0:0:0:
188,88,15704,5,12,0:0:0:0:
188,88,16165,1,0,0:0:0:0:
76,132,16396,2,0,P|100:192|124:204,1,80,0|0,0:0|0:0,0:0:0:0:
224,168,16858,2,0,P|208:220|172:240,1,80,0|0,0:0|0:0,0:0:0:0:
104,312,17319,2,0,P|176:332|268:320,1,160
388,324,18011,1,0,0:0:0:0:
392,196,18242,2,0,P|408:128|392:24,1,160
308,128,18935,2,0,P|296:68|300:44,1,80,0|0,0:0|0:0,0:0:0:0:
196,124,19396,6,0,P|208:184|208:248,2,120,8|0|0,0:0|0:0|0:0,0:0:0:0:
68,124,20319,2,0,P|48:188|48:252,1,120,8|0,0:0|0:0,0:0:0:0:
112,232,20781,2,0,P|128:292|144:312,2,80,0|0|8,0:0|0:0|0:0,0:0:0:0:
240,236,21473,2,0,B|256:180|256:148|264:124,1,80
376,112,21935,2,0,P|360:52|344:32,2,80,0|8|0,0:0|0:0|0:0,0:0:0:0:
440,120,22511,2,0,P|436:172|408:232,1,120
280,236,23088,2,0,P|260:168|268:120,2,120,8|0|0,0:0|0:0|0:0,0:0:0:0:
160,280,24011,5,8,0:0:0:0:
160,280,24242,2,0,P|216:252|320:244,1,160,0|0,0:0|0:0,0:0:0:0:
432,192,24935,1,8,0:0:0:0:
316,140,25165,2,0,P|236:135|164:102,2,160
364,260,26319,1,8,0:0:0:0:
256,328,26550,1,0,0:0:0:0:
144,264,26781,2,0,P|140:200|96:168,2,120,0|0|0,0:0|0:0|0:0,0:0:0:0:
228,200,27704,6,0,P|304:144|332:80,1,160,8|8,0:0|0:0,0:0:0:0:
404,64,28396,2,8,P|428:132|408:224,1,160
340,288,29088,1,8,0:0:0:0:
264,216,29319,2,8,P|247:138|272:63,1,160
120,48,30473,5,8,0:0:0:0:
120,48,30704,1,8,0:0:0:0:
120,48,30935,2,0,P|116:128|92:148,1,80,2|0,0:0|0:0,0:0:0:0:
116,228,31396,2,0,P|127:265|117:303,1,80,2|0,0:0|0:0,0:0:0:0:
216,272,31858,1,10,0:0:0:0:
312,308,32088,2,0,P|301:269|313:232,1,80,0|2,0:0|0:0,0:0:0:0:
310,128,32549,2,0,P|298:90|308:52,1,80,0|10,0:0|0:0,0:0:0:0:
208,76,33011,1,0,0:0:0:0:
116,124,33242,2,8,P|168:192|196:208,2,120
60,212,34165,5,10,0:0:0:0:
132,288,34396,1,8,0:0:0:0:
232,252,34627,2,0,P|224:291|225:331,2,80,10|0|2,0:0|0:0|0:0,0:0:0:0:
336,236,35319,1,0,0:0:0:0:
336,236,35550,2,0,P|352:172|352:144,1,80,10|0,0:0|0:0,0:0:0:0:
268,96,36011,2,8,P|240:176|236:216,2,120
160,212,37050,2,8,P|150:152|128:97,1,120
40,152,37627,1,8,0:0:0:0:
84,252,37858,6,0,P|128:296|220:276,1,160,8|0,0:0|0:0,0:0:0:0:
320,260,38550,1,0,0:0:0:0:
384,176,38781,2,0,P|405:102|357:42,1,160,8|0,0:0|0:0,0:0:0:0:
252,56,39473,1,0,0:0:0:0:
252,56,39704,2,0,P|220:132|128:144,1,160,8|0,0:0|0:0,0:0:0:0:
148,256,40396,1,0,0:0:0:0:
148,256,40627,2,0,P|232:256|288:328,1,160,8|0,0:0|0:0,0:0:0:0:
324,212,41319,2,0,P|324:156|336:116,1,80,0|8,0:0|0:0,0:0:0:0:
256,56,41781,5,0,0:0:0:0:
160,96,42011,1,8,0:0:0:0:
112,188,42242,1,0,0:0:0:0:
160,280,42473,2,8,P|220:308|248:308,1,80
336,296,42935,2,8,P|380:268|400:224,1,80
412,144,43396,2,8,P|392:88|356:68,1,80
272,64,43858,2,8,P|284:124|312:152,1,80
300,240,44319,2,8,P|280:260|264:316,2,80
256,192,45242,12,0,46627,0:0:0:0:
140,56,47088,6,0,P|144:120|136:144,1,80,12|0,0:0|0:0,0:0:0:0:
192,252,47550,2,0,P|220:188|220:152,1,80
300,76,48011,2,0,P|316:172|304:240,1,160,8|0,0:0|0:0,0:0:0:0:
224,132,48704,1,0,0:0:0:0:
224,132,48819,1,0,0:0:0:0:
224,132,48935,2,0,P|196:200|200:288,1,160,8|0,0:0|0:0,0:0:0:0:
100,204,49627,5,0,0:0:0:0:
120,76,49858,2,0,P|176:104|184:136,1,80,8|0,0:0|0:0,0:0:0:0:
304,76,50319,2,0,P|248:104|240:136,1,80
368,148,50781,2,0,P|344:179|306:188,1,80,8|0,0:0|0:0,0:0:0:0:
188,136,51242,1,0,0:0:0:0:
72,80,51473,1,0,0:0:0:0:
72,80,51704,2,0,P|80:172|108:244,1,160,8|8,0:0|0:0,0:0:0:0:
232,236,52396,2,8,P|258:160|263:81,1,160,8|8,0:0|0:0,0:0:0:0:
388,116,53088,1,8,0:0:0:0:
472,212,53319,1,8,0:0:0:0:
388,308,53550,6,0,P|296:276|224:268,1,160,8|0,0:0|0:0,0:0:0:0:
124,76,54473,2,0,P|216:108|288:116,1,160,8|0,0:0|0:0,0:0:0:0:
396,68,55165,2,0,P|372:148|292:184,2,160
272,40,56319,2,0,P|200:80|164:128,2,120,8|0|0,0:0|0:0|0:0,0:0:0:0:
252,168,57242,1,8,0:0:0:0:
252,168,57358,2,0,L|192:232,1,80
156,276,57704,2,0,P|112:204|112:176,2,80,0|0|8,0:0|0:0|0:0,0:0:0:0:
284,280,58396,1,0,0:0:0:0:
412,276,58627,2,0,P|456:204|456:176,1,80
256,192,59088,12,0,61396,0:0:0:0:
372,328,61858,6,0,P|368:264|376:240,1,80,12|0,0:0|0:0,0:0:0:0:
320,132,62320,2,0,P|292:196|292:232,1,80
212,308,62781,2,0,P|196:212|208:144,1,160,8|0,0:0|0:0,0:0:0:0:
288,252,63474,1,0,0:0:0:0:
288,252,63589,1,0,0:0:0:0:
288,252,63705,2,0,P|316:184|312:96,1,160,8|0,0:0|0:0,0:0:0:0:
412,180,64397,5,0,0:0:0:0:
392,308,64628,2,0,P|336:280|328:248,1,80,8|0,0:0|0:0,0:0:0:0:
208,308,65089,2,0,P|264:280|272:248,1,80
144,236,65551,2,0,P|168:205|206:196,1,80,8|0,0:0|0:0,0:0:0:0:
324,248,66012,1,0,0:0:0:0:
440,304,66243,1,0,0:0:0:0:
440,304,66474,2,8,P|432:212|404:140,1,160
280,148,67166,2,8,P|254:224|249:303,1,160
124,268,67858,1,8,0:0:0:0:
40,172,68089,1,8,0:0:0:0:
124,76,68320,6,0,P|216:108|288:116,1,160,8|0,0:0|0:0,0:0:0:0:
56,244,69242,2,0,P|160:284|228:292,1,160,8|0,0:0|0:0,0:0:0:0:
260,176,69935,2,0,P|300:232|328:252,1,80,0|8,0:0|0:0,0:0:0:0:
372,236,70281,1,0,0:0:0:0:
372,236,70396,2,0,P|404:204|424:160,1,80
360,60,70858,5,0,0:0:0:0:
360,60,71088,2,0,P|280:48|240:112,1,160,8|8,0:0|0:0,0:0:0:0:
116,80,71781,1,8,0:0:0:0:
140,180,72011,1,8,0:0:0:0:
232,228,72242,1,8,0:0:0:0:
324,180,72473,1,8,0:0:0:0:
360,84,72703,1,8,0:0:0:0:
256,192,72935,12,0,74781,0:0:0:0:
88,108,75242,6,8,P|116:148|128:204,1,80,12|8,0:0|0:0,0:0:0:0:
36,268,75704,2,8,P|124:332|140:336,2,120
36,140,76627,2,0,P|124:76|140:72,2,120,8|0|0,0:0|0:0|0:0,0:0:0:0:
152,192,77550,1,8,0:0:0:0:
152,192,77665,2,0,P|216:192|300:176,1,120
308,312,78242,5,0,0:0:0:0:
420,252,78473,2,0,P|420:196|380:100,1,160,8|0,0:0|0:0,0:0:0:0:
256,72,79165,1,0,0:0:0:0:
132,100,79396,2,0,P|96:188|80:272,1,160,8|0,0:0|0:0,0:0:0:0:
188,320,80088,1,0,0:0:0:0:
188,320,80319,2,0,P|248:288|260:208,2,120,8|0|0,0:0|0:0|0:0,0:0:0:0:
152,196,81242,1,8,0:0:0:0:
152,196,81358,2,0,P|92:164|80:84,1,120
176,40,81935,1,0,0:0:0:0:
276,120,82165,6,0,P|344:136|376:184,2,120,8|8|8,0:0|0:0|0:0,0:0:0:0:
148,124,83088,1,8,0:0:0:0:
148,124,83204,2,0,P|80:140|48:188,1,120,8|8,0:0|0:0,0:0:0:0:
72,240,83665,2,0,P|88:272|128:300,1,80,8|8,0:0|0:0,0:0:0:0:
188,292,84011,6,0,P|288:304|336:320,2,120,8|0|0,0:0|0:0|0:0,0:0:0:0:
188,164,84935,1,8,0:0:0:0:
188,164,85050,2,0,P|288:152|336:136,1,120
364,116,85511,2,0,L|416:116,2,40
308,80,85858,2,0,P|248:68|176:64,2,120,8|0|0,0:0|0:0|0:0,0:0:0:0:
356,200,86781,1,8,0:0:0:0:
356,200,86896,2,0,P|356:248|288:288,1,120
236,292,87358,2,0,L|200:332,2,40
240,228,87704,6,0,P|248:176|304:148,2,120,8|0|0,0:0|0:0|0:0,0:0:0:0:
176,48,88627,1,8,0:0:0:0:
176,48,88742,2,0,P|136:72|116:152,1,120
220,208,89319,1,0,0:0:0:0:
220,208,89550,2,8,P|260:176|272:104,1,120
136,244,90242,2,8,P|180:292|260:312,1,120
336,152,90935,1,8,0:0:0:0:
256,192,91396,12,0,92319,0:0:0:0:
