osu file format v13

[General]
AudioFilename: Happy Rainy Day.mp3
AudioLeadIn: 0
PreviewTime: 7858
Countdown: 0
SampleSet: Soft
StackLeniency: 0.7
Mode: 3
LetterboxInBreaks: 1
EpilepsyWarning: 1
SpecialStyle: 0
WidescreenStoryboard: 1

[Editor]
DistanceSpacing: 1.3
BeatDivisor: 4
GridSize: 8
TimelineZoom: 1

[Metadata]
Title:Happy Rainy Day
TitleUnicode:Happy Rainy Day
Artist:Hachiouji-P
ArtistUnicode:八王子P
Creator:fuji97
Version:Happy Day
Source:Miku Hatsune V3
Tags:Vocaloid japanese
BeatmapID:308349
BeatmapSetID:120086

[Difficulty]
HPDrainRate:5
CircleSize:4
OverallDifficulty:4
ApproachRate:2
SliderMultiplier:1.00000000596046
SliderTickRate:2

[Events]
//Background and Video events
0,0,"bg.jpg",0,0
//Break Periods
//Storyboard Layer 0 (Background)
//Storyboard Layer 1 (Fail)
//Storyboard Layer 2 (Pass)
//Storyboard Layer 3 (Foreground)
//Storyboard Sound Samples
//Background Colour Transformations
3,100,163,162,255

[TimingPoints]
935,461.538461538462,4,2,1,60,1,0
28165,-100,4,2,1,75,0,0
29896,-100,4,2,1,60,0,0
36011,-100,4,2,1,75,0,0
37973,-100,4,2,1,60,0,0
42473,-100,4,2,1,75,0,0
43396,-100,4,2,1,90,0,0
45242,-100,4,2,1,70,0,0
73858,-100,4,2,1,80,0,0
76627,-100,4,2,1,80,0,1
91396,-100,4,2,1,5,0,0

[Colours]
Combo1 : 120,170,245
Combo2 : 16,83,194
Combo3 : 17,238,177

[HitObjects]
192,192,7858,128,0,8319:0:0:0:0:
320,192,8319,1,4,0:0:0:0:
192,192,8665,1,0,0:0:0:0:
320,192,9011,1,0,0:0:0:0:
192,192,9358,1,0,0:0:0:0:
448,192,9704,128,0,10165:0:0:0:0:
320,192,10165,1,4,0:0:0:0:
192,192,10511,1,0,0:0:0:0:
320,192,10858,1,0,0:0:0:0:
192,192,11204,1,0,0:0:0:0:
320,192,11550,128,0,12011:0:0:0:0:
448,192,12011,1,4,0:0:0:0:
192,192,12358,1,0,0:0:0:0:
320,192,12704,1,0,0:0:0:0:
192,192,13050,1,0,0:0:0:0:
64,192,13396,1,2,0:0:0:0:
448,192,13396,1,4,0:0:0:0:
64,192,13858,128,0,15242:0:0:0:0:
448,192,13858,128,0,15242:0:0:0:0:
192,192,15704,5,8,0:0:0:0:
320,192,15704,5,8,0:0:0:0:
64,192,16627,1,0,0:0:0:0:
192,192,17088,1,0,0:0:0:0:
320,192,17550,1,2,0:0:0:0:
448,192,18011,1,0,0:0:0:0:
64,192,18473,1,0,0:0:0:0:
448,192,18935,1,0,0:0:0:0:
64,192,19396,128,2,20319:0:0:0:0:
448,192,20781,128,0,21358:0:0:0:0:
64,192,21935,128,0,22627:0:0:0:0:
448,192,23088,1,2,0:0:0:0:
320,192,23550,1,0,0:0:0:0:
192,192,24011,1,0,0:0:0:0:
320,192,24473,1,0,0:0:0:0:
192,192,24935,1,2,0:0:0:0:
64,192,25396,1,0,0:0:0:0:
192,192,25858,1,0,0:0:0:0:
320,192,26319,1,0,0:0:0:0:
448,192,26781,128,2,27704:0:0:0:0:
64,192,26781,128,2,27704:0:0:0:0:
448,192,28165,1,8,0:0:0:0:
64,192,28396,1,8,0:0:0:0:
192,192,28858,1,8,0:0:0:0:
320,192,29088,1,8,0:0:0:0:
64,192,29319,1,8,0:0:0:0:
320,192,29781,1,8,0:0:0:0:
64,192,30473,1,8,0:0:0:0:
448,192,30704,1,8,0:0:0:0:
320,192,30935,1,4,0:0:0:0:
320,192,31396,1,0,0:0:0:0:
192,192,31858,1,0,0:0:0:0:
64,192,32319,1,8,0:0:0:0:
320,192,32781,1,0,0:0:0:0:
64,192,33242,1,8,0:0:0:0:
192,192,33588,1,8,0:0:0:0:
192,192,33935,1,8,0:0:0:0:
320,192,33935,1,8,0:0:0:0:
64,192,34165,1,8,0:0:0:0:
448,192,34165,1,8,0:0:0:0:
320,192,34396,128,8,35088:0:0:0:0:
192,192,34396,128,8,35088:0:0:0:0:
64,192,35550,1,0,0:0:0:0:
448,192,35550,1,0,0:0:0:0:
64,192,36011,1,8,0:0:0:0:
192,192,36358,1,8,0:0:0:0:
320,192,36704,1,8,0:0:0:0:
448,192,37050,1,8,0:0:0:0:
192,192,37396,1,8,0:0:0:0:
320,192,37627,1,8,0:0:0:0:
64,192,37858,128,8,38781:0:0:0:0:
448,192,37858,128,8,38781:0:0:0:0:
192,192,39242,1,0,0:0:0:0:
320,192,39242,1,0,0:0:0:0:
64,192,39704,128,8,40165:0:0:0:0:
192,192,40627,128,0,41088:0:0:0:0:
192,192,41550,128,8,42011:0:0:0:0:
320,192,41550,128,8,42011:0:0:0:0:
64,192,42473,128,0,42935:0:0:0:0:
448,192,43396,128,8,43858:0:0:0:0:
320,192,43858,1,8,0:0:0:0:
192,192,44319,1,8,0:0:0:0:
320,192,44319,1,8,0:0:0:0:
64,192,44781,1,8,0:0:0:0:
448,192,44781,1,8,0:0:0:0:
64,192,45242,128,2,46165:0:0:0:0:
448,192,45704,128,2,46165:0:0:0:0:
320,192,46627,5,8,0:0:0:0:
192,192,46858,1,8,0:0:0:0:
320,192,47088,1,12,0:0:0:0:
320,192,47550,1,0,0:0:0:0:
192,192,48011,1,8,0:0:0:0:
64,192,48473,1,0,0:0:0:0:
320,192,48704,1,0,0:0:0:0:
192,192,48935,1,8,0:0:0:0:
320,192,49396,1,0,0:0:0:0:
448,192,49858,1,8,0:0:0:0:
64,192,50319,1,0,0:0:0:0:
448,192,50781,1,8,0:0:0:0:
192,192,51242,1,0,0:0:0:0:
320,192,51704,1,8,0:0:0:0:
192,192,52165,1,0,0:0:0:0:
448,192,52627,1,8,0:0:0:0:
320,192,53088,1,0,0:0:0:0:
192,192,53550,5,8,0:0:0:0:
64,192,54011,1,0,0:0:0:0:
448,192,54011,1,0,0:0:0:0:
192,192,54473,1,8,0:0:0:0:
320,192,54473,1,0,0:0:0:0:
192,192,54935,1,0,0:0:0:0:
320,192,55165,1,0,0:0:0:0:
192,192,55396,1,8,0:0:0:0:
320,192,55858,1,0,0:0:0:0:
192,192,56088,1,0,0:0:0:0:
320,192,56319,1,8,0:0:0:0:
64,192,56781,128,0,57242:0:0:0:0:
320,192,57242,1,8,0:0:0:0:
192,192,57704,1,0,0:0:0:0:
320,192,58165,1,8,0:0:0:0:
192,192,58627,128,0,60011:0:0:0:0:
320,192,58858,128,0,60011:0:0:0:0:
64,192,60242,1,8,0:0:0:0:
192,192,60473,1,8,0:0:0:0:
320,192,60704,1,8,0:0:0:0:
448,192,60935,1,8,0:0:0:0:
192,192,61396,1,0,0:0:0:0:
192,192,61858,5,8,0:0:0:0:
320,192,61858,5,4,0:0:0:0:
64,192,62319,1,0,0:0:0:0:
448,192,62319,1,0,0:0:0:0:
192,192,62781,1,8,0:0:0:0:
320,192,63242,1,0,0:0:0:0:
448,192,63704,1,8,0:0:0:0:
192,192,64165,1,0,0:0:0:0:
64,192,64627,1,8,0:0:0:0:
192,192,65088,1,0,0:0:0:0:
320,192,65550,1,8,0:0:0:0:
192,192,66011,1,0,0:0:0:0:
64,192,66473,1,8,0:0:0:0:
192,192,66935,1,0,0:0:0:0:
320,192,67396,1,8,0:0:0:0:
64,192,67858,1,0,0:0:0:0:
192,192,68319,5,8,0:0:0:0:
448,192,68781,1,0,0:0:0:0:
320,192,69242,1,8,0:0:0:0:
64,192,69704,1,0,0:0:0:0:
192,192,69935,1,0,0:0:0:0:
320,192,70165,128,8,70627:0:0:0:0:
64,192,70627,1,8,0:0:0:0:
192,192,70858,1,8,0:0:0:0:
320,192,71088,1,8,0:0:0:0:
448,192,71550,1,8,0:0:0:0:
192,192,72011,1,8,0:0:0:0:
64,192,72473,1,8,0:0:0:0:
192,192,72935,128,8,74319:0:0:0:0:
320,192,72935,128,8,74319:0:0:0:0:
64,192,74781,128,8,75242:0:0:0:0:
448,192,74781,128,8,75242:0:0:0:0:
192,192,75704,5,8,0:0:0:0:
320,192,75704,5,8,0:0:0:0:
64,192,76165,1,8,0:0:0:0:
448,192,76165,1,8,0:0:0:0:
192,192,76627,128,8,78011:0:0:0:0:
320,192,76627,128,4,78011:0:0:0:0:
64,192,78473,1,8,0:0:0:0:
448,192,78473,1,0,0:0:0:0:
192,192,78935,1,0,0:0:0:0:
320,192,79396,1,8,0:0:0:0:
192,192,79858,1,0,0:0:0:0:
64,192,80319,128,8,81242:0:0:0:0:
320,192,80781,1,0,0:0:0:0:
448,192,81242,1,8,0:0:0:0:
192,192,81704,1,8,0:0:0:0:
448,192,81935,1,8,0:0:0:0:
320,192,82165,1,8,0:0:0:0:
192,192,82511,1,8,0:0:0:0:
320,192,82858,1,8,0:0:0:0:
64,192,83204,1,8,0:0:0:0:
192,192,83550,128,8,84011:0:0:0:0:
320,192,84011,5,8,0:0:0:0:
192,192,84358,1,8,0:0:0:0:
320,192,84704,1,8,0:0:0:0:
64,192,85050,1,8,0:0:0:0:
320,192,85396,1,8,0:0:0:0:
192,192,85627,1,8,0:0:0:0:
448,192,85858,1,8,0:0:0:0:
192,192,86204,1,8,0:0:0:0:
320,192,86550,1,8,0:0:0:0:
64,192,86896,1,8,0:0:0:0:
192,192,87242,1,8,0:0:0:0:
448,192,87473,1,8,0:0:0:0:
320,192,87704,1,8,0:0:0:0:
192,192,88050,1,8,0:0:0:0:
320,192,88396,1,8,0:0:0:0:
64,192,88742,1,8,0:0:0:0:
448,192,89088,1,8,0:0:0:0:
192,192,89319,1,8,0:0:0:0:
320,192,89550,1,8,0:0:0:0:
192,192,89896,1,8,0:0:0:0:
64,192,90242,1,8,0:0:0:0:
192,192,90588,1,8,0:0:0:0:
320,192,90588,1,8,0:0:0:0:
64,192,90935,1,8,0:0:0:0:
448,192,90935,1,8,0:0:0:0:
192,192,91396,128,8,93242:0:0:0:0:
320,192,91396,128,4,93242:0:0:0:0:
