osu file format v12

[General]
AudioFilename: Happy Rainy Day.mp3
AudioLeadIn: 0
PreviewTime: 7858
Countdown: 0
SampleSet: Soft
StackLeniency: 0.7
Mode: 0
LetterboxInBreaks: 1
EpilepsyWarning: 1
WidescreenStoryboard: 1

[Editor]
DistanceSpacing: 1
BeatDivisor: 4
GridSize: 4

[Metadata]
Title:Happy Rainy Day
TitleUnicode:Happy Rainy Day
Artist:Hachiouji-P
ArtistUnicode:八王子P
Creator:fuji97
Version:Cloudy Day
Source:Miku Hatsune V3
Tags:Vocaloid japanese
BeatmapID:310089
BeatmapSetID:120086

[Difficulty]
HPDrainRate:4
CircleSize:4
OverallDifficulty:3
ApproachRate:4
SliderMultiplier:1
SliderTickRate:2

[Events]
//Background and Video events
0,0,"bg.jpg",0,0
//Break Periods
//Storyboard Layer 0 (Background)
//Storyboard Layer 1 (Fail)
//Storyboard Layer 2 (Pass)
//Storyboard Layer 3 (Foreground)
//Storyboard Sound Samples
//Background Colour Transformations
3,100,163,162,255

[TimingPoints]
935,461.538461538462,4,2,1,60,1,0
28165,-100,4,2,1,75,0,0
29896,-100,4,2,1,60,0,0
36011,-100,4,2,1,75,0,0
37973,-100,4,2,1,60,0,0
42473,-100,4,2,1,75,0,0
43396,-100,4,2,1,90,0,0
45242,-100,4,2,1,70,0,0
73858,-100,4,2,1,80,0,0
76627,-100,4,2,1,80,0,1
91396,-100,4,2,1,5,0,0

[Colours]
Combo1 : 120,170,245
Combo2 : 16,83,194
Combo3 : 17,238,177

[HitObjects]
256,192,5550,12,0,7396,0:0:0:0:
168,56,7858,6,0,B|192:64|208:76|208:76|228:64|260:56,1,100,6|10,0:0|0:0,0:0:0:0:
360,52,8781,2,2,P|360:108|376:156,1,100,0|2,0:0|0:0,0:0:0:0:
340,244,9704,2,0,P|380:240|404:240,2,50,0|0|2,0:0|0:0|0:0,0:0:0:0:
248,284,10627,1,0,0:0:0:0:
156,248,11088,2,0,B|112:256|92:264|72:240|52:216,1,100,2|0,0:0|0:0,0:0:0:0:
60,180,11781,1,0,0:0:0:0:
60,132,12011,2,0,B|67:122|87:98|107:106|151:114,1,100,2|0,0:0|0:0,0:0:0:0:
216,192,12935,1,2,0:0:0:0:
276,112,13396,2,0,P|316:108|344:116,1,50
364,144,13858,2,2,P|408:92|428:80,2,75
360,220,14896,2,2,P|404:272|424:284,1,75
320,320,15704,5,4,0:0:0:0:
264,236,16165,2,0,B|272:208|288:196|288:196|272:184|264:148,1,100
200,76,17088,1,0,0:0:0:0:
200,76,17319,2,0,P|136:116|96:112,2,100
204,176,18704,2,0,P|248:192|264:204,2,50
176,220,19396,2,0,B|128:196|104:148|104:96|184:52,1,200
268,60,20781,6,0,P|320:104|348:148,1,100,2|0,0:0|0:0,0:0:0:0:
304,224,21704,2,0,P|252:200|208:152,1,100,2|0,0:0|0:0,0:0:0:0:
140,112,22627,1,0,0:0:0:0:
140,112,22858,1,0,0:0:0:0:
140,112,23088,2,0,P|124:176|128:228,1,100,2|0,0:0|0:0,0:0:0:0:
144,256,23781,5,0,0:0:0:0:
144,256,24011,2,0,P|224:264|236:264,2,75,2|0|0,0:0|0:0|0:0,0:0:0:0:
220,320,25165,2,0,P|280:328|336:320,1,100,2|0,0:0|0:0,0:0:0:0:
360,232,26088,2,0,P|344:196|344:168,1,50
380,152,26550,2,0,P|376:108|368:88,1,50,0|2,0:0|0:0,0:0:0:0:
288,52,27242,1,0,0:0:0:0:
200,100,27704,1,0,0:0:0:0:
124,164,28165,5,8,0:0:0:0:
124,164,28396,2,8,P|128:240|120:264,1,100
156,296,29088,1,8,0:0:0:0:
196,264,29319,2,8,P|188:214|199:166,1,100
340,116,30473,5,8,0:0:0:0:
340,116,30704,2,8,P|296:100|276:104,1,50
208,152,31396,2,0,P|264:184|320:184,1,100,8|0,0:0|0:0,0:0:0:0:
396,200,32319,2,0,P|372:248|332:288,1,100,8|0,0:0|0:0,0:0:0:0:
268,212,33242,2,8,P|288:168|316:148,2,75
220,216,34165,6,8,P|196:176|180:164,2,50
124,244,35088,2,0,P|168:268|224:284,1,100,0|8,0:0|0:0,0:0:0:0:
312,304,36011,2,8,P|312:266|320:229,2,75
388,304,37050,2,8,P|387:266|379:229,1,75
408,188,37627,1,8,0:0:0:0:
408,188,37858,2,0,P|348:180|308:136,1,100,8|0,0:0|0:0,0:0:0:0:
220,156,38781,6,0,P|180:185|131:188,1,100,8|0,0:0|0:0,0:0:0:0:
140,88,39704,1,8,0:0:0:0:
232,48,40165,1,0,0:0:0:0:
232,48,40396,2,0,P|280:72|332:80,2,100
232,100,41550,2,0,L|232:208,1,100,12|0,0:0|0:0,0:0:0:0:
140,164,42473,5,8,0:0:0:0:
156,264,42935,1,2,0:0:0:0:
232,328,43396,1,8,0:0:0:0:
312,268,43858,1,2,0:0:0:0:
348,176,44320,1,8,0:0:0:0:
256,192,44781,12,0,46627,0:0:0:0:
216,272,47088,6,0,P|168:244|152:192,1,100,12|0,0:0|0:0,0:0:0:0:
228,140,48011,2,0,P|271:162|291:207,2,100,0|0|0,0:0|0:0|0:0,0:0:0:0:
308,76,49396,1,0,0:0:0:0:
400,36,49858,2,0,P|412:104|412:152,1,100,0|0,0:0|0:0,0:0:0:0:
412,236,50781,2,0,P|409:285|399:334,1,100,0|0,0:0|0:0,0:0:0:0:
352,324,51473,1,0,0:0:0:0:
304,308,51704,2,0,P|260:288|192:284,1,100
184,184,52627,2,0,P|240:180|296:184,1,100
376,224,53550,6,0,P|400:176|372:132,1,100,8|0,0:0|0:0,0:0:0:0:
288,96,54473,1,0,0:0:0:0:
196,136,54935,1,0,0:0:0:0:
196,136,55165,2,0,P|140:128|92:136,1,100
68,176,55858,1,0,0:0:0:0:
68,176,56088,1,0,0:0:0:0:
96,220,56319,2,0,P|148:220|192:212,2,75
212,316,57704,6,0,P|264:284|288:248,1,100
380,216,58627,1,0,0:0:0:0:
256,192,59088,12,0,61396,0:0:0:0:
212,140,61858,6,0,P|172:100|128:72,1,100,12|0,0:0|0:0,0:0:0:0:
64,148,62781,2,0,P|108:216|224:268,1,200
308,240,64165,1,0,0:0:0:0:
308,240,64627,2,0,P|292:180|296:124,1,100,8|0,0:0|0:0,0:0:0:0:
192,144,65550,2,0,P|191:193|176:241,1,100
108,172,66473,2,0,P|60:124|40:76,1,100,8|0,0:0|0:0,0:0:0:0:
128,36,67396,2,0,P|176:84|196:132,1,100
272,168,68319,5,8,0:0:0:0:
296,264,68781,1,2,0:0:0:0:
272,360,69242,1,8,0:0:0:0:
184,312,69704,2,0,P|176:236|184:192,1,100,0|8,0:0|0:0,0:0:0:0:
92,264,70627,2,0,L|40:264,2,50
144,180,71550,2,0,B|160:152|160:128|160:128|188:124|216:100,1,100,8|0,0:0|0:0,0:0:0:0:
296,80,72473,1,2,0:0:0:0:
296,80,72704,1,2,0:0:0:0:
256,192,72935,12,0,74781,0:0:0:0:
308,108,75242,5,2,0:0:0:0:
348,200,75704,1,2,0:0:0:0:
308,292,76165,1,2,0:0:0:0:
208,280,76627,2,0,P|160:244|156:192,1,100,12|0,0:0|0:0,0:0:0:0:
204,120,77550,2,0,P|284:128|324:124,1,100,8|0,0:0|0:0,0:0:0:0:
252,40,78473,2,0,P|188:32|148:36,1,100,8|0,0:0|0:0,0:0:0:0:
80,104,79396,5,8,0:0:0:0:
32,192,79858,1,0,0:0:0:0:
80,280,80319,2,0,P|60:332|36:360,2,75,8|8|8,0:0|0:0|0:0,0:0:0:0:
156,280,81358,2,8,P|176:332|200:360,1,75
236,344,81935,1,8,0:0:0:0:
284,344,82165,2,8,P|308:292|320:260,2,75,8|8|8,0:0|0:0|0:0,0:0:0:0:
272,268,83204,2,8,P|248:208|244:184,1,75
192,116,84011,6,0,P|244:92|272:88,2,75,8|8|8,0:0|0:0|0:0,0:0:0:0:
116,116,85050,6,8,P|64:92|36:88,1,75
44,140,85627,1,8,0:0:0:0:
44,192,85858,2,8,P|92:232|120:240,1,75
164,192,86550,2,8,P|197:174|222:147,2,75
164,244,87473,1,8,0:0:0:0:
164,296,87704,2,8,P|197:313|222:340,2,75
164,220,88742,2,8,P|197:202|222:175,1,75
264,148,89319,1,8,0:0:0:0:
308,124,89550,2,8,P|360:84|360:64,4,75
256,192,91396,12,0,93242,0:0:0:0:
