osu file format v9

[General]
AudioFilename: Arrange.mp3
AudioLeadIn: 2000
PreviewTime: 165883
Countdown: 0
SampleSet: Normal
StackLeniency: 0.7
Mode: 0
LetterboxInBreaks: 1

[Editor]
Bookmarks: 12654
DistanceSpacing: 1
BeatDivisor: 4
GridSize: 8

[Metadata]
Title:Spring Lane~Fleur Rouge Mix
Artist:Hachimitsu-Lemon
Creator:bakabaka
Version:Insane
Source:Touhou
Tags:karenying colorful path rika hisui reimu hakurei

[Difficulty]
HPDrainRate:7
CircleSize:4
OverallDifficulty:7
ApproachRate:8
SliderMultiplier:1.9
SliderTickRate:1

[Events]
//Background and Video events
0,0,"p125644032733.jpg"
//Break Periods
2,39776,43769
2,114264,120133
//Storyboard Layer 0 (Background)
//Storyboard Layer 1 (Fail)
//Storyboard Layer 2 (Pass)
//Storyboard Layer 3 (Foreground)
//Storyboard Sound Samples
//Background Colour Transformations
3,100,163,162,255

[TimingPoints]
883,340.909090909091,4,1,0,60,1,0
1479,-133.333333333333,4,2,1,69,0,0
5911,-133.333333333333,4,2,1,51,0,0
6593,-133.333333333333,4,2,1,65,0,0
10343,-133.333333333333,4,2,1,34,0,0
12218,-100,4,1,1,48,0,0
12388,-100,4,1,1,66,0,0
34036,-133.333333333333,4,1,1,66,0,0
34888,-100,4,1,1,66,0,0
45201,-133.333333333333,4,1,0,64,0,0
45456,-133.333333333333,4,2,0,58,0,0
56025,-133.333333333333,4,2,0,71,0,0
67019,-100,4,1,1,66,0,0
89434,-100,4,1,1,59,0,1
111337,-100,4,1,0,57,0,0
114064,-100,4,2,0,11,0,0
122246,-133.333333333333,4,2,0,73,0,0
143297,-133.333333333333,4,1,1,40,0,0
144064,-100,4,1,1,66,0,0
166394,-100,4,1,1,66,0,1
188127,-100,4,1,1,66,0,0

[Colours]
Combo1 : 255,189,89
Combo2 : 186,254,186
Combo3 : 95,95,252
Combo4 : 252,122,122

[HitObjects]
80,192,883,1,0
344,96,1564,2,0,B|352:160|416:144|416:240,1,142.499995753169,2|0
344,96,2246,5,0
280,120,2417,1,0
312,184,2587,2,0,B|352:264|272:312,1,142.499995753169,0|2
279,307,3098,1,0
96,192,3439,6,0,B|128:168|176:200,1,71.2499978765846,0|0
360,192,3951,1,0
192,296,4292,1,2
256,104,4632,1,0
320,296,4973,5,0
392,296,5144,1,0
392,296,5314,2,0,B|448:296|448:200|400:184,1,142.499995753169,2|0
336,168,5826,5,0
280,216,5996,2,2,B|216:224,2,47.4999985843897
280,216,6337,5,0
120,104,6678,2,0,B|192:152|288:104,2,142.499995753169,0|2|0
192,256,7701,6,0,B|264:232|336:264,1,142.499995753169,0|0
376,208,8212,2,0,B|416:168,2,35.6249989382923,0|0|2
376,208,8553,1,0
248,280,8894,1,0
248,280,9064,6,0,B|168:312|104:256,1,142.499995753169,0|2
184,192,9576,1,0
128,112,9746,2,0,B|208:80|272:136,1,142.499995753169,2|0
256,192,10428,12,2,11792
416,192,12303,6,0,B|400:312|248:304,1,190,4|0
192,304,12814,1,8
112,128,13155,5,0
176,56,13326,1,0
200,152,13496,2,0,B|272:152|264:56|376:80,1,190,8|0
424,152,14008,1,0
365,77,14178,5,8
328,184,14348,1,0
296,296,14519,2,0,B|352:320|392:272,2,95,0|0|8
200,296,15030,1,0
200,296,15115,1,0
200,296,15201,1,0
200,296,15371,2,0,B|80:296,2,95,0|8|0
144,192,15883,6,0,B|176:72|312:80,2,190,0|8|0
240,192,16735,1,0
304,264,16905,1,8
208,264,17076,1,0
304,264,17246,5,0
400,264,17417,1,0
448,80,17758,1,0
360,120,17928,2,0,B|296:200,1,95
208,184,18269,2,0,B|280:88,1,95,8|0
168,104,18610,2,0,B|88:208,1,95
80,88,18951,2,0,B|0:192,1,95,8|0
72,248,19292,6,0,B|128:336|272:336,2,190,0|8|0
168,224,20144,1,0
168,224,20314,1,8
256,256,20485,1,0
352,88,20826,5,0
440,120,20996,1,8
368,184,21167,1,0
280,152,21337,2,0,B|256:40|104:80,1,190,0|8
64,144,21848,1,0
160,168,22019,2,0,B|128:216|160:280,1,95,0|8
151,258,22275,1,0
151,258,22360,1,0
240,224,22530,6,0,B|288:224,2,47.5
344,304,22871,1,0
240,224,23042,1,0
368,192,23212,1,4
208,88,23553,6,0,B|112:88,2,95,0|8|0
304,88,24064,1,0
464,192,24405,1,8
304,88,24746,1,0
304,184,24917,1,0
392,152,25087,1,8
392,248,25258,1,0
304,288,25428,5,0
304,288,25598,1,0
136,192,25939,1,0
120,152,26025,1,0
104,112,26110,2,0,B|200:88,1,95
232,176,26451,1,8
408,96,26792,5,0
304,288,27133,1,8
304,288,27303,1,0
208,288,27473,6,0,B|112:264,1,95
160,144,27814,2,0,B|24:112,1,95,8|0
168,208,28155,6,0,B|288:240,1,95,8|0
296,240,28411,1,0
336,248,28496,1,0
432,248,28667,1,0
336,88,29008,1,0
240,88,29178,1,8
256,280,29519,6,0,B|232:224|168:224,1,95
88,224,29860,1,8
88,224,30030,1,0
88,128,30201,6,0,B|112:72|176:72,2,95,0|0|8
184,152,30712,1,0
256,88,30883,5,0
256,88,31053,1,0
216,216,31223,1,8
344,184,31394,1,0
432,160,31564,6,0,B|416:96|344:88,2,95,0|0|8
304,304,32246,1,0
112,304,32587,1,8
240,168,32928,6,0,B|176:184,2,47.5
144,104,33269,1,8
144,104,33439,6,0,B|224:80,2,47.5
96,224,33780,1,0
224,272,33951,1,8
360,272,34121,2,0,B|352:168|280:216|280:64,1,213.749993629754,4|0
424,192,34973,5,0
424,288,35144,1,0
424,192,35314,1,8
256,288,35655,1,0
192,216,35826,2,0,B|88:216,1,95,0|8
96,216,36167,1,0
160,120,36337,6,0,B|104:112|96:48,2,95,0|0|8
256,120,36848,1,0
352,120,37019,6,0,B|416:80|488:160|448:232,1,190
360,216,37530,1,0
360,312,37701,2,0,B|295:351|224:272|264:199,1,190
176,272,38212,1,0
176,272,38383,6,0,B|88:224|88:96,1,190
344,192,39064,6,0,B|384:248,2,47.5
416,128,39405,1,0
328,96,39576,1,4
368,192,44519,6,0,B|472:192,2,63.3333333333333
344,248,44860,2,0,B|448:248,2,63.3333333333333
296,288,45201,5,0
152,288,45542,1,0
120,224,45712,1,0
88,160,45883,2,0,B|120:88,1,71.2499978765846
168,144,46223,2,0,B|296:48,1,142.499995753169,2|0
282,58,46735,5,0
360,88,46905,1,0
360,88,47076,1,0
440,120,47246,2,0,B|464:176|432:240,1,106.874996814877
400,224,47587,2,0,B|376:264|400:296,1,71.2499978765846,2|0
396,291,47928,5,0
256,296,48269,1,0
304,240,48439,1,0
304,96,48780,1,0
256,152,48951,2,0,B|224:128|232:72,1,71.2499978765846,2|0
160,64,49292,6,0,B|72:56|40:152,1,142.499995753169,0|2
136,144,49803,2,0,B|72:208|128:296,1,142.499995753169
184,216,50314,5,2
240,280,50485,1,0
328,280,50655,1,0
448,200,50996,5,0
336,112,51337,2,0,B|296:64|208:72,1,106.874996814877,0|0
240,71,51678,6,0,B|200:72|152:112,1,71.2499978765846,2|0
112,128,52019,2,0,B|40:112|40:216|128:200,1,142.499995753169
168,168,52530,1,0
240,176,52701,2,0,B|240:248|176:256,1,106.874996814877
144,256,53042,2,0,B|56:256,1,71.2499978765846,2|0
72,256,53383,5,0
272,256,53723,1,0
376,256,53894,1,0
456,192,54064,2,0,B|456:136|384:80,2,106.874996814877,0|2|0
384,192,54746,2,0,B|344:120|256:128,1,142.499995753169
272,200,55258,5,0
272,200,55428,1,0
232,264,55598,2,0,B|144:280,2,71.2499978765846,2|2|0
192,200,56110,6,0,B|144:136|184:48,1,142.499995753169,4|0
248,88,56621,1,0
320,72,56792,2,0,B|344:120|312:176|344:208,1,142.499995753169,2|0
408,240,57303,1,0
344,280,57473,1,2
216,168,57814,6,0,B|216:80,1,71.2499978765846
216,168,58155,2,0,B|136:144,1,71.2499978765846,2|0
216,168,58496,2,0,B|160:240,1,71.2499978765846
120,288,58837,1,2
288,288,59178,2,0,B|344:216,1,71.2499978765846
332,232,59519,5,2
408,112,59860,1,0
272,72,60201,1,0
208,96,60371,1,0
144,120,60542,1,0
80,144,60712,1,0
144,200,60883,5,2
208,256,61053,1,0
272,312,61223,1,0
272,312,61394,2,0,B|296:272|360:296,1,71.2499978765846,0|2
416,288,61735,2,0,B|432:240|408:200,1,71.2499978765846
416,218,62076,1,0
416,136,62246,6,0,B|368:72|328:144|272:72,1,142.499995753169,2|0
216,88,62758,1,0
144,88,62928,2,0,B|128:128|136:168,1,71.2499978765846,2|0
208,168,63269,2,0,B|208:216|192:248,1,71.2499978765846
128,240,63610,5,2
128,240,63780,1,0
256,304,64121,1,0
256,304,64206,1,0
256,304,64292,2,0,B|344:304,1,71.2499978765846,2|0
328,232,64633,2,0,B|424:232,1,71.2499978765846,2|0
416,160,64973,6,0,B|336:160,1,71.2499978765846,2|0
296,96,65314,2,2,B|192:96,1,71.2499978765846,2|0
168,160,65655,6,0,B|80:160,2,71.2499978765846,2|0|0
256,216,66167,1,0
344,264,66337,2,0,B|424:264,2,71.2499978765846,2|0|0
312,272,66763,1,0
280,280,66848,1,0
248,288,66934,1,0
216,296,67019,1,4
104,144,67360,6,0,B|136:88|216:128,1,95,8|0
264,176,67701,1,0
320,96,67871,1,0
416,104,68042,1,0
400,200,68212,2,0,B|440:240|440:304,2,95
328,264,68723,2,0,B|288:224|288:160,1,95,8|0
288,179,69064,5,8
192,176,69235,1,8
456,136,69576,1,0
376,80,69746,2,0,B|312:112|256:40|184:80,1,190,0|8
136,256,70428,6,0,B|200:224|256:296|328:256,1,190,0|8
408,296,70939,1,0
432,200,71110,2,0,B|432:88,2,95,0|8|0
352,144,71621,2,0,B|352:24,2,95,0|8|0
352,144,72133,5,0
256,80,72303,1,0
144,104,72473,1,4
288,280,72814,1,0
336,280,72900,1,0
384,280,72985,1,0
440,200,73155,6,0,B|400:152|328:192,1,95,0|8
353,179,73496,1,0
296,104,73667,1,0
200,104,73837,1,0
200,200,74008,1,0
296,200,74178,1,8
296,104,74348,1,0
200,104,74519,1,8
72,128,74689,1,8
336,160,75030,5,0
336,160,75201,2,0,B|344:248|424:232|408:344,2,190,0|8|0
256,304,76223,6,0,B|152:328|80:224,1,190
96,144,76735,1,8
168,80,76905,1,0
184,176,77076,1,0
272,216,77246,5,8
272,216,77331,1,0
272,216,77417,1,0
344,152,77587,2,0,B|304:96|240:112,2,95,0|0|4
200,280,78269,5,0
112,304,78439,1,0
136,208,78610,2,0,B|136:88|256:56,1,190,0|8
328,96,79121,1,0
416,128,79292,2,0,B|440:184|408:240,1,95
328,184,79633,2,0,B|336:240|288:280,1,95,8|0
232,200,79973,5,8
184,280,80144,1,8
184,280,80314,1,0
280,280,80485,2,0,B|352:192|424:288|456:160,1,190
400,112,80996,1,8
176,104,81337,5,0
256,320,81678,1,8
336,104,82019,1,0
424,176,82189,1,8
336,104,82360,1,0
360,216,82530,1,0
336,104,82701,5,8
288,208,82871,1,8
360,296,83042,1,0
232,248,83212,1,0
272,120,83383,6,0,B|208:56|144:160|80:80,2,190,4|0|0
192,176,84235,1,8
96,192,84405,1,0
192,176,84576,1,0
344,296,84917,1,0
344,296,85087,2,0,B|296:280|232:296,1,95
336,192,85428,6,0,B|384:176|448:200,2,95,8|8|0
336,192,85939,1,0
64,288,86451,5,8
64,96,86792,1,0
232,192,87133,1,8
256,192,87473,12,0,88837
256,120,89348,5,4
256,120,89519,2,0,B|272:200|368:144|408:248,2,190,0|8|0
168,80,90371,1,0
104,152,90542,1,8
192,192,90712,1,0
256,120,90883,5,0
432,192,91223,1,8
424,288,91394,2,0,B|360:280|344:224,1,95
348,237,91735,1,0
168,288,92076,6,0,B|96:216|104:96,1,190
192,88,92587,2,0,B|288:56,1,95,8|0
256,152,92928,2,0,B|368:144,1,95
320,232,93269,2,0,B|424:280,1,95,8|0
320,312,93610,5,0
120,192,93951,1,8
320,88,94292,2,0,B|320:32,2,47.5
416,144,94633,1,8
320,192,94803,6,0,B|232:184|248:88|152:80,1,190
160,176,95314,1,8
160,176,95485,1,0
224,248,95655,2,0,B|176:288|128:264,2,95,0|0|8
312,280,96167,1,0
408,280,96337,6,0,B|448:176,1,95
376,72,96678,2,0,B|336:176,1,95,8|0
216,200,97019,2,0,B|256:96,1,95
80,192,97530,6,0,B|96:256|152:272,1,95,0|0
320,296,98042,1,8
134,266,98383,1,0
168,80,98723,5,0
264,80,98894,1,8
184,144,99064,1,0
200,144,99150,1,0
216,144,99235,1,0
232,144,99320,1,0
248,144,99405,1,0
264,144,99490,1,0
280,144,99576,1,0
296,144,99661,1,0
312,144,99746,5,8
392,200,99917,1,0
312,256,100087,1,8
392,312,100258,1,8
312,256,100428,6,0,B|240:232|200:304,1,95
128,272,100769,1,8
128,272,100939,1,0
112,176,101110,2,0,B|136:128|216:96,1,95
180,112,101451,1,8
200,208,101621,1,0
248,128,101792,5,0
440,112,102133,1,8
408,296,102473,1,0
360,288,102559,1,0
312,280,102644,1,0
368,200,102814,1,8
272,184,102985,1,0
272,184,103070,1,0
272,184,103155,5,0
232,96,103326,1,0
144,64,103496,1,8
72,128,103667,1,0
160,168,103837,2,0,B|200:272,1,95
136,336,104178,2,0,B|96:224,1,95,8|0
104,246,104519,5,0
256,72,104860,1,8
408,240,105201,6,0,B|456:192,2,47.5
368,112,105542,1,8
248,168,105712,1,0
288,296,105883,6,0,B|208:232,1,95
152,312,106223,2,0,B|72:240,1,95,8|0
80,112,106564,2,0,B|168:192,1,95,0|0
216,64,106905,2,0,B|304:144,1,95,8|0
384,144,107246,5,0
336,328,107587,1,8
248,304,107758,1,0
328,256,107928,1,0
328,256,108013,1,0
328,256,108098,1,0
240,232,108269,1,8
240,232,108439,6,0,B|240:112,1,95,0|0
312,72,108780,1,0
408,80,108951,2,0,B|408:192,1,95,8|0
408,272,109292,5,0
320,296,109462,1,0
224,320,109633,1,8
280,248,109803,1,0
336,176,109973,1,0
280,248,110144,5,8
168,248,110314,1,0
56,248,110485,1,0
168,248,110655,1,8
368,136,110996,5,0
232,136,111167,1,4
256,192,111337,12,0,114064
256,192,120883,12,0,122246
392,296,122587,5,0
248,296,122928,2,0,B|88:296,1,142.499995753169,2|0
200,192,123610,6,0,B|360:192,1,142.499995753169,0|0
344,192,124292,1,2
440,88,124633,1,0
296,88,124973,6,0,B|216:80|160:144,1,142.499995753169,0|0
232,176,125485,2,0,B|184:248|136:168|88:256,1,142.499995753169,2|0
152,288,125996,1,0
352,256,126337,6,0,B|368:296|432:296,2,71.2499978765846,0|0|0
416,216,126848,1,0
416,216,127019,2,0,B|416:128|352:88,1,142.499995753169,2|2
288,96,127530,1,0
288,96,127701,5,0
144,96,128042,1,0
80,224,128383,2,0,B|88:272|152:280,1,71.2499978765846,2|0
160,208,128723,1,0
208,264,128894,1,0
280,264,129064,6,0,B|328:224|376:304|432:208,1,142.499995753169,0|0
412,235,129576,1,0
360,184,129746,2,0,B|336:112|248:96,1,142.499995753169,2|0
144,192,130428,6,0,B|112:128,1,71.2499978765846,0|0
64,184,130769,2,0,B|104:272,1,71.2499978765846,0|0
160,264,131110,2,0,B|208:240|232:296|280:264,2,106.874996814877,2|0|0
160,264,131792,5,0
168,192,131962,1,0
112,144,132133,2,0,B|160:88|232:120|240:184,1,142.499995753169,2|2
230,154,132644,1,0
304,168,132814,2,0,B|344:192|392:136,1,71.2499978765846,2|0
432,192,133155,6,0,B|432:280|336:296,1,142.499995753169
256,192,133837,1,2
376,112,134178,2,0,B|288:112,1,71.2499978765846
304,112,134519,6,0,B|256:48|144:72,1,142.499995753169,2|0
112,104,135030,1,0
168,152,135201,2,0,B|136:200|64:168,2,106.874996814877,2|0|0
208,240,135883,6,0,B|248:288|304:224|352:280,1,142.499995753169,2|0
424,272,136394,1,0
424,184,136564,2,0,B|408:80|312:88,1,142.499995753169,2|0
336,176,137076,1,0
336,176,137246,6,0,B|288:168|256:120,1,71.2499978765846,2|0
272,232,137587,2,0,B|232:232|192:184,1,71.2499978765846
216,288,137928,2,0,B|160:296|128:248,1,71.2499978765846,2|0
88,208,138269,2,0,B|64:168|80:120,1,71.2499978765846
128,88,138610,5,2
296,112,138951,1,0
448,192,139292,1,2
304,280,139633,6,0,B|336:256|384:288,2,71.2499978765846,0|0|2
232,280,140144,1,0
160,304,140314,2,0,B|96:264,1,71.2499978765846
144,208,140655,2,0,B|96:128,1,71.2499978765846,2|0
176,120,140996,2,0,B|160:40,1,71.2499978765846
176,120,141337,5,2
240,88,141508,1,0
304,120,141678,1,0
368,88,141848,2,0,B|408:136|368:176|400:232,1,142.499995753169,2|0
360,304,142360,5,0
160,304,142701,1,2
256,128,143042,1,0
360,304,143383,6,0,B|432:256,1,71.2499978765846
376,208,143723,1,0
400,176,143809,1,0
424,144,143894,1,0
392,128,143979,1,0
360,112,144064,5,4
296,184,144235,2,0,B|232:256,1,95
160,312,144576,1,0
88,248,144746,2,0,B|80:112|136:48,1,190
168,152,145258,6,0,B|224:56|344:64,1,190
408,112,145769,1,8
408,112,145939,1,0
352,192,146110,1,8
352,192,146280,1,8
160,192,146621,1,0
64,192,146792,5,0
256,72,147133,1,8
352,280,147473,6,0,B|448:272|464:144,2,190
352,280,148326,1,8
368,184,148496,2,0,B|328:216|272:192,1,95
320,104,148837,1,8
232,72,149008,1,8
232,72,149093,1,0
232,72,149178,2,0,B|176:64|120:104,1,95
56,144,149519,5,4
56,144,149860,1,0
160,304,150201,1,8
352,304,150542,1,8
288,232,150712,1,0
384,240,150883,6,0,B|312:160,1,95
448,208,151223,2,0,B|376:128,1,95
384,137,151564,5,8
304,56,151735,1,8
384,136,151905,1,0
272,120,152076,1,0
176,280,152417,5,0
176,280,152587,1,8
96,224,152758,1,0
120,320,152928,1,0
312,312,153269,1,8
408,312,153439,1,0
336,248,153610,5,0
216,192,153780,2,0,B|136:160,2,47.5,8|0|0
352,176,154121,1,0
264,72,154292,6,0,B|336:72,2,47.5,8|0|0
176,104,154633,1,0
80,104,154803,1,0
56,200,154973,6,0,B|72:256|128:296,1,95,4|0
200,248,155314,2,0,B|264:240|304:328|384:296,1,190,0|8
376,298,155826,1,0
424,216,155996,2,0,B|456:184|456:120,1,95
376,72,156337,6,0,B|344:104|344:168,1,95
256,200,156678,1,8
256,200,156848,1,0
256,104,157019,1,8
256,104,157189,1,8
376,248,157530,6,0,B|344:352|192:304,1,190
136,264,158042,2,0,B|88:240|80:176,1,95,8|0
160,136,158383,2,0,B|208:160|216:224,1,95
120,272,158723,2,0,B|72:248|64:184,1,95,8|0
80,96,159064,5,0
168,72,159235,1,8
200,160,159405,1,0
112,192,159576,1,0
200,160,159746,1,8
288,128,159917,1,0
328,216,160087,1,0
240,256,160258,1,0
328,216,160428,6,0,B|440:200|440:72,2,190,4|8|0
352,120,161280,1,0
352,120,161451,1,8
352,120,161621,6,0,B|264:56|160:104,1,190
88,144,162133,1,0
88,144,162303,1,0
160,208,162473,2,0,B|208:176|272:208,2,95,8|8|0
160,208,162985,5,0
328,296,163326,5,0
328,296,163496,1,8
352,104,163837,2,0,B|384:176|456:152,2,95,0|8|0
352,104,164348,1,0
352,104,164519,1,0
256,192,164689,12,0,165883
96,192,166223,5,0
96,192,166394,2,0,B|96:312|240:328,1,190,4|0
304,320,166905,6,0,B|424:304|416:176,1,190,8|0
408,96,167417,1,0
312,96,167587,1,8
312,96,167758,1,0
328,192,167928,2,0,B|272:200|232:144,1,95
243,158,168269,1,8
243,158,168439,1,0
192,80,168610,6,0,B|136:56|96:96,1,95
102,89,168951,1,8
160,160,169121,2,0,B|176:240|64:232|88:328,1,190
184,304,169633,1,8
376,312,169973,6,0,B|320:320|272:256,1,95
376,208,170314,2,0,B|432:200|480:264,2,95,8|0|0
432,112,170826,1,0
376,208,170996,1,8
336,104,171167,1,0
256,184,171337,6,0,B|296:216,2,47.5
240,48,171678,1,0
192,168,171848,6,0,B|144:96|56:112|32:232,1,190,0|0
80,280,172360,1,8
176,264,172530,1,0
256,312,172701,5,0
352,312,172871,2,0,B|400:296|424:224,1,95,0|0
416,152,173212,1,0
352,80,173383,5,8
240,72,173553,1,0
352,80,173723,1,0
336,192,173894,1,0
352,80,174064,5,8
248,160,174235,1,0
104,56,174576,6,0,B|56:96|64:168,1,95
136,312,175087,1,8
328,312,175428,1,0
464,112,175769,6,0,B|464:232,1,95,8|0
368,112,176110,1,0
368,248,176280,1,0
368,248,176365,1,0
368,248,176451,1,8
368,112,176621,1,0
232,112,176792,5,0
208,128,176877,1,0
184,144,176962,1,0
160,160,177047,1,0
136,176,177133,1,8
112,192,177218,1,0
88,208,177303,1,4
368,304,177814,5,8
272,304,177985,2,0,B|208:296|184:248,1,95
272,216,178326,1,0
368,216,178496,2,0,B|440:224|472:168,1,95,8|0
455,189,178837,5,0
456,56,179008,1,0
360,144,179178,1,8
264,56,179348,1,0
136,80,179519,5,8
136,80,179689,2,0,B|72:176|128:264,1,190,8|0
176,176,180201,1,0
176,176,180371,2,0,B|184:240|256:272,1,95,0|8
440,96,180883,6,0,B|376:104|352:184,1,95
448,192,181223,1,8
424,288,181394,1,0
315,253,181564,5,0
365,150,181735,1,0
264,96,181905,1,8
208,200,182076,1,0
128,96,182246,6,0,B|56:96,2,47.5
56,232,182587,1,8
208,200,182758,1,0
360,312,183098,6,0,B|248:312,1,95,0|8
176,272,183439,1,0
264,240,183610,6,0,B|376:240,1,95
432,128,183951,2,0,B|304:128,1,95,8|0
264,240,184292,6,0,B|192:192|200:104|104:96,2,190,0|8|0
360,240,185144,1,0
432,176,185314,1,8
336,176,185485,2,0,B|264:128|272:40|176:32,1,190
192,128,185996,2,0,B|96:96,1,95,8|0
152,200,186337,2,0,B|48:208,1,95
144,280,186678,1,8
256,192,187019,12,0,188042
256,192,188212,5,4
384,96,188553,5,0
400,208,188723,2,0,B|384:272|304:280,1,95,8|0
304,168,189064,6,0,B|272:48|136:56,1,190
200,168,189576,2,0,B|80:160|56:304,1,190
176,280,190087,1,8
400,296,190428,5,0
336,200,190598,1,0
448,192,190769,1,8
256,72,191110,5,0
144,48,191280,2,0,B|96:128,1,95,0|8
208,152,191621,2,0,B|168:280,1,95,0|8
296,224,191962,6,0,B|328:344|488:296,1,190,0|8
400,200,192473,2,0,B|368:80|208:128,1,190,0|8
136,128,192985,1,0
64,216,193155,5,0
64,216,193240,1,0
64,216,193326,1,0
176,208,193496,1,8
224,312,193667,1,0
416,192,194008,6,0,B|416:256|344:288,1,95,8|0
344,144,194348,1,0
288,264,194519,6,0,B|192:296,1,95
152,288,194775,1,0
112,256,194860,2,0,B|88:208|112:160,1,95,8|0
111,164,195201,5,0
320,64,195542,1,8
448,256,195883,1,0
240,352,196223,1,8
111,164,196564,6,0,B|104:120|144:72,2,95,0|8|0
224,136,197076,2,0,B|256:88|320:104,1,95,0|8
392,312,197587,5,0
200,288,197928,2,0,B|160:296|128:224,2,63.3333333333333,0|8|0
248,248,198269,2,0,B|288:256|320:224,2,63.3333333333333,0|8|0
224,192,198610,2,0,B|192:176|192:120,2,63.3333333333333,8|0|8
264,144,198951,2,0,B|272:112|320:96,2,63.3333333333333,8|0|8
264,144,199292,5,4
