osu file format v6

[General]
AudioFilename: Kaerimichi.mp3
AudioLeadIn: 1489
PreviewTime: -1
Countdown: 0
SampleSet: Normal
StackLeniency: 0.7
Mode: 0
LetterboxInBreaks: 1

[Editor]
Bookmarks: 16541,32998,43798,54941,82198
DistanceSpacing: 0.899999976158142
BeatDivisor: 4
GridSize: 8

[Metadata]
Title:Kaerimichi
Artist:Hachikuji Mayoi
Creator:miccoliasms
Version:Normal+
Source:Bakemonogatari
Tags:bakemonogatari 3rd op katou emiri
BeatmapID:37634
BeatmapSetID:9396

[Difficulty]
HPDrainRate:5
CircleSize:4
OverallDifficulty:5
SliderMultiplier:1.4
SliderTickRate:1

[Events]
//Background and Video events
Video,0,"Kaerimichi.avi"
0,0,"Kaerimichi.png"
//Break Periods
//Storyboard Layer 0 (Background)
//Storyboard Layer 1 (Fail)
//Storyboard Layer 2 (Pass)
//Storyboard Layer 3 (Foreground)
//Storyboard Sound Samples
//Background Colour Transformations
3,100,163,162,255

[TimingPoints]
241,342.857142857143,4,1,0,60,1,0
5313,-100,4,1,0,80,0,1
5398,-100,4,1,0,80,0,0
27256,-100,4,1,0,0,0,0
27428,-100,4,1,0,80,0,0
43713,-100,4,2,0,79,0,0
49541,-100,4,1,0,60,0,0
50227,-100,4,1,0,70,0,0
50913,-100,4,1,0,80,0,0
51598,-100,4,1,0,90,0,0
52285,-100,4,1,0,20,0,0
52713,-100,4,1,0,40,0,0
53228,-100,4,1,0,60,0,0
53742,-100,4,1,0,80,0,0
63084,-100,4,1,0,80,0,0
64970,-100,4,2,0,100,0,0
65141,-100,4,1,0,80,0,0
65313,-100,4,2,0,100,0,0
65827,-100,4,1,0,80,0,0
84841,-100,4,1,0,59,0,0
85612,-100,4,1,0,40,0,0
86298,-100,4,1,0,40,0,0
86983,-100,4,1,0,30,0,0
87669,-100,4,1,0,0,0,0
88284,-100,4,1,0,0,0,1
88370,-100,4,1,0,0,0,0

[Colours]
Combo1 : 0,0,255
Combo2 : 255,255,0
Combo3 : 255,0,0

[HitObjects]
96,72,241,1,0
160,72,412,2,0,B|160:40|232:120|232:40,2,70
160,136,926,1,0
160,200,1098,1,0
96,312,1441,1,0
224,312,1783,1,0
352,312,2126,1,0
480,312,2469,1,0
416,200,2812,1,0
288,200,3155,5,0
288,136,3326,2,0,B|336:136|272:96|328:96,2,70
224,136,3841,1,0
256,192,4183,12,4,5383
128,312,5726,6,0,B|128:80,1,210
256,96,6583,6,0,B|256:8,2,70,0|8|0
336,192,7269,2,0,B|440:192,2,70,0|8|0
256,288,7955,2,0,B|256:376,2,70,0|8|0
168,192,8640,2,0,B|80:192,2,70,0|8|0
256,104,9326,6,0,B|208:120|176:64,2,70,0|8|0
256,40,9840,2,0,B|304:24|336:80,3,70
256,168,10698,5,8
256,168,10869,1,8
376,192,11212,5,0
440,192,11383,2,0,B|496:192|424:224|496:224,2,70,0|8|0
440,64,12069,6,0,B|389:92|340:10|288:80,1,140,0|2
176,80,12755,2,0,B|128:80|216:128|144:128,2,70,0|8|0
256,192,13441,12,4,15498
256,192,15841,5,0
256,192,16183,1,4
160,280,16526,6,0,B|312:280,1,140
344,320,17041,2,0,B|400:272|400:272|320:216,1,140,8|8
368,104,17898,6,0,B|216:104,1,140
184,56,18412,2,0,B|128:104|128:104|208:160,1,140,8|8
360,280,19269,5,0
312,320,19441,1,8
264,280,19612,2,0,B|264:224,2,35
216,320,19955,2,0,B|216:368,2,35,0|0|8
152,304,20298,2,2,B|72:264|80:168,1,140,2|2
152,88,20983,2,0,B|384:88,1,210,4|4
328,272,22012,6,0,B|168:272,1,140
184,336,22526,2,0,B|336:336,1,140,8|8
288,152,23383,6,0,B|288:-24,1,140
224,8,23898,2,0,B|224:184,1,140,8|8
64,248,24755,5,0
64,184,24926,1,8
96,128,25098,2,0,C|144:128,2,35
64,72,25441,2,0,C|16:72,2,35,0|0|8
96,16,25783,2,0,B|122:68|200:24|216:96,1,140
336,96,26469,2,4,B|336:312,1,210
256,192,27326,5,0
152,264,27669,5,0
88,264,27841,2,0,B|56:264|128:312|80:312,2,70
88,200,28355,1,0
88,136,28526,1,0
168,40,28869,1,0
256,128,29212,1,0
344,40,29555,1,0
432,128,29898,1,0
344,216,30241,1,0
432,304,30583,5,0
368,304,30755,2,0,B|328:304|384:360|336:360,2,70
312,272,31269,1,0
256,192,31441,12,4,32812
336,224,32983,6,0,B|368:192|320:144,2,70,0|8|0
264,224,33498,2,0,B|160:168|216:120|272:160|216:208,1,140,0|8
120,328,34355,5,0
184,336,34526,1,8
248,344,34698,1,0
312,344,34869,2,0,B|416:288|360:240|304:280|360:328,1,140,0|8
400,120,35726,5,0
368,64,35898,1,8
320,104,36069,2,0,B|320:152,2,35,0|0|0
272,64,36412,2,0,B|272:24,2,35,0|0|8
256,192,36755,12,4,37955
128,72,38469,6,0,B|184:128|256:16|328:88,1,210
368,40,39155,2,0,B|400:80|384:120,2,70,0|8|2
384,168,39840,6,0,B|336:240|240:112|200:208,1,210
144,176,40526,2,0,B|128:216|152:256,2,70,0|8|2
200,288,41212,6,0,B|160:344|112:304,2,70,0|8|0
208,224,41726,2,0,B|248:168|296:208,2,70,0|0|8
264,256,42240,1,0
320,240,42412,1,0
376,224,42583,1,0
392,96,42926,2,0,B|304:8|200:104,1,210,4|2
96,152,43783,5,0
144,184,43955,1,0
192,152,44126,2,2,B|216:88|272:88|296:176,1,140
352,152,44640,2,2,B|376:88|432:88|456:176,1,140
360,240,45326,2,0,C|272:224|352:336|232:312,1,350,0|4
136,240,46526,5,0
96,184,46698,2,2,B|96:136|128:120,1,70
213,34,47212,1,2
267,65,47383,2,0,B|408:136,1,140
390,254,48069,2,2,B|254:318,1,140
200,312,48583,1,0
96,240,48926,1,4
296,88,49612,6,0,B|360:144|296:216,1,140,4|0
240,216,50126,1,0
176,216,50298,2,0,B|112:280|200:368,1,140
240,344,50812,1,0
304,344,50983,6,0,B|352:272|296:200,1,140,4|0
240,216,51498,1,0
176,216,51669,2,0,B|120:136|192:72,1,140
240,80,52183,1,0
304,80,52355,6,2,B|368:144,1,70
304,232,52869,2,2,B|360:288,1,70
240,232,53383,2,2,B|184:288,1,70
240,168,53898,2,2,B|184:112,2,70
304,168,54412,1,6
112,160,54926,6,0,B|24:192|200:232|64:280,1,140
160,272,55440,2,0,B|272:304|96:352|240:376,1,140,0|8
312,304,56126,1,0
368,272,56298,1,0
408,224,56469,1,8
408,160,56640,1,0
304,88,56983,1,0
176,88,57326,5,8
176,88,57498,1,8
112,88,57669,6,0,B|48:144|112:216,1,140
168,216,58183,2,8,B|232:288|152:368,1,140,0|8
296,344,58869,1,0
296,216,59212,1,8
296,152,59383,2,0,B|352:88|288:16,1,140
168,24,60069,5,8
168,24,60240,1,8
80,112,60583,5,0
48,168,60755,2,0,B|120:272|256:192,1,210,0|0
232,80,61612,2,0,B|360:32|440:144,1,210
448,176,62298,1,0
424,232,62469,1,0
384,280,62640,2,0,B|304:184|256:328|184:248,1,210,0|4
88,184,63498,5,0
144,160,63669,2,0,B|144:112,2,35
200,192,64012,2,0,B|200:256,6,35
320,160,64869,2,0,B|400:104,1,70,0|4
408,176,65212,2,0,B|328:232,1,70,0|4
408,32,65898,6,0,B|256:120,1,140
272,160,66412,2,0,B|192:208,1,70
152,216,66755,2,0,B|104:184|144:144,2,70
120,272,67269,1,0
144,328,67440,2,0,B|304:328|304:200,1,210
424,224,68298,5,8
424,224,68469,1,8
416,160,68640,6,0,B|320:184|328:80|344:0|240:-8|200:48,1,280
168,72,69498,2,0,B|40:152|40:296|120:328,1,280
152,328,70355,2,0,B|200:264|160:192,1,140
288,200,71040,5,8
288,200,71212,1,8
96,200,71726,6,0,B|144:56,1,140
192,24,72240,1,0
320,24,72583,1,0
320,88,72755,2,0,B|392:152|304:232,1,140
264,208,73269,2,0,B|200:264|280:352,1,140,0|0
168,248,73955,6,0,B|168:328,1,70
104,320,74298,1,2
104,128,74812,1,6
352,72,75498,6,0,B|464:168,1,140
456,224,76012,2,0,B|352:328,1,140
357,322,76698,1,0
256,320,77040,5,4
256,32,77555,2,0,B|256:208,1,140
115,172,78240,2,0,B|259:172,1,140
318,172,78755,1,0
384,32,79098,2,0,B|384:208,1,140,0|4
384,360,79955,5,0
384,232,80298,1,0
256,232,80640,2,0,B|32:232,1,210
48,104,81498,1,4
48,232,81840,5,2
168,200,82183,6,0,B|120:208|160:152|88:176,2,70
184,136,82698,2,0,B|240:64|320:152,1,140
416,192,83383,5,0
296,160,83726,2,0,B|296:248|296:248,2,70
168,160,84412,2,0,B|168:232,2,70
256,192,84926,12,4,88355
