osu file format v6

[General]
AudioFilename: Kaerimichi.mp3
AudioLeadIn: 1489
PreviewTime: -1
Countdown: 0
SampleSet: Normal
StackLeniency: 0.7
Mode: 0
LetterboxInBreaks: 1

[Editor]
Bookmarks: 16541,32998,43798,54941,82198
DistanceSpacing: 0.899999976158142
BeatDivisor: 4
GridSize: 8

[Metadata]
Title:Kaerimichi
Artist:Hachikuji Mayoi
Creator:miccoliasms
Version:Easy
Source:Bakemonogatari
Tags:bakemonogatari 3rd op katou emiri taka1235
BeatmapID:37628
BeatmapSetID:9396

[Difficulty]
HPDrainRate:4
CircleSize:3
OverallDifficulty:4
SliderMultiplier:1.4
SliderTickRate:2

[Events]
//Background and Video events
Video,0,"Kaerimichi.avi"
0,0,"Kaerimichi.png"
//Break Periods
//Storyboard Layer 0 (Background)
//Storyboard Layer 1 (Fail)
//Storyboard Layer 2 (Pass)
//Storyboard Layer 3 (Foreground)
//Storyboard Sound Samples
//Background Colour Transformations
3,100,163,162,255

[TimingPoints]
241,685.714285714286,4,1,0,60,1,0
16541,-100,4,1,0,80,0,0
27170,-100,4,1,0,0,0,0
27513,-100,4,1,0,80,0,0
43970,-100,4,1,0,60,0,0
50141,-100,4,1,0,70,0,0
50827,-100,4,1,0,80,0,0
51513,-100,4,1,0,90,0,0
52198,-100,4,1,0,50,0,0
52713,-100,4,1,0,60,0,0
53056,-100,4,1,0,70,0,0
53570,-100,4,1,0,80,0,0
54256,-100,4,1,0,90,0,0
54941,-100,4,1,0,80,0,0
86126,-100,4,1,0,60,0,0
86641,-100,4,1,0,40,0,0
87326,-100,4,1,0,20,0,0
88012,-100,4,1,0,0,0,0
88198,-100,4,1,0,0,0,1
88370,-100,4,1,0,0,0,0

[Colours]
Combo1 : 0,0,255
Combo2 : 255,255,0
Combo3 : 255,0,0

[HitObjects]
360,56,16698,6,0,B|120:56,1,210,0|8
152,120,18069,2,0,B|376:120,1,210,0|8
360,184,19440,5,0
360,312,20126,1,0
232,312,20812,1,8
168,312,21155,1,4
104,312,21498,1,8
96,184,22183,6,0,B|312:184,1,210,0|8
304,120,23555,2,0,B|72:120,1,210,0|8
96,56,24926,5,0
224,56,25612,1,0
352,56,26298,1,8
352,120,26641,1,4
352,184,26983,1,8
288,184,27326,5,0
224,184,27669,5,0
224,312,28355,1,2
352,312,29041,1,8
416,312,29383,1,8
416,248,29726,1,8
416,120,30412,6,0,B|272:120,1,140
152,120,31783,2,2,B|56:120,2,70
128,240,33155,5,0
256,240,33841,1,0
384,240,34526,2,8,B|384:336,2,70
384,112,35898,5,0
256,112,36583,1,0
128,112,37269,2,8,B|128:24,2,70,8|4|8
96,232,38641,6,0,B|160:128|256:248|256:248|360:344|464:208,1,420
424,104,41383,5,0
296,104,42069,1,0
168,104,42755,1,8
104,104,43098,1,4
104,168,43441,1,8
104,296,44126,6,2,B|264:296,1,140
368,296,45498,2,2,B|368:152,1,140
376,32,46869,2,2,B|208:32,1,140
112,32,48241,2,2,B|112:184,1,140
112,296,49612,5,4
240,296,50298,1,0
368,296,50983,1,4
368,168,51669,1,0
368,40,52355,6,2,B|208:184,1,210,6|2
168,224,53726,1,2
120,264,54069,1,2
72,304,54412,1,6
72,176,55098,5,0
72,48,55783,1,0
72,176,56469,1,0
136,176,56812,1,0
200,176,57155,1,0
328,176,57841,5,2
456,176,58526,1,0
456,304,59212,1,8
392,304,59555,1,8
328,304,59898,1,8
200,328,60583,6,0,B|200:40,1,280
104,128,62641,1,0
104,256,63326,1,8
200,336,64012,1,0
296,256,64698,1,2
360,256,65041,1,2
424,256,65383,1,2
424,128,66069,6,2,B|264:128,1,140
160,128,67441,2,2,B|16:128,1,140
24,256,68812,2,2,B|184:256,1,140
288,256,70183,2,8,B|376:256,2,70
288,128,71555,5,0
160,128,72241,1,0
160,256,72926,1,0
288,256,73612,1,0
416,256,74298,6,0,B|416:88,1,140
328,24,75669,2,0,B|168:24,1,140
88,104,77040,5,4
88,232,77726,2,0,B|392:232,1,280
432,232,79440,1,4
432,104,80126,6,0,B|216:104,1,210
160,104,81498,1,0
160,168,81840,5,2
160,232,82183,5,4
288,232,82869,1,0
416,232,83555,1,8
416,168,83898,1,8
416,104,84240,1,8
288,104,84926,6,0,B|288:232|288:232|176:232,1,210,4|0
256,192,86298,12,4,88355
