osu file format v5

[General]
AudioFilename: Natsukusa no Senro -J-Trance remix-.mp3
AudioLeadIn: 0
AudioHash: b9d2caa87ba7a294378af9e7ca251bb2
PreviewTime: 42857
Countdown: 0
SampleSet: Normal

[Metadata]
Title:Natsukusa no Senro -J-Trance remix-
Artist:HaL & Misato
Creator:DJPop
Version:Normal

[Difficulty]
HPDrainRate:4
CircleSize:5
OverallDifficulty:4
SliderMultiplier: 1
SliderTickRate: 1

[Events]
//Background and Video events
0,-100000,"Natsukusa no Senro -J-Trance remix-.png"
//Break Periods
//Storyboard Layer 0 (Background)
//Storyboard Layer 1 (Failing)
//Storyboard Layer 2 (Passing)
//Storyboard Layer 3 (Foreground)
//Storyboard Sound Samples
//Background Colour Transformations
3,100,0,128,0

[TimingPoints]
-6,428.571428571429,4,1,0,100

[Colours]
Combo1 : 255,255,0
Combo2 : 0,255,0
Combo3 : 0,0,255
Combo4 : 255,0,0

[HitObjects]
256,192,15422,5,4
64,256,17565,1,0
96,192,17994,1,0
128,128,18422,1,0
160,64,18851,5,0
288,64,19494,1,0
416,64,20136,1,0
416,160,20565,1,0
288,160,21208,1,0
160,160,21851,1,0
160,256,22279,5,4
480,32,23565,1,0
448,64,23779,1,0
32,32,25279,1,0
64,64,25494,1,0
480,352,26994,5,0
448,320,27208,1,0
384,256,27636,1,0
320,192,28065,1,0
256,128,28494,1,0
224,96,28708,1,0
160,32,29136,6,0,B|160:32|64:32|32:64|37:160|32:256|64:288|160:288,1,400
224,288,31279,1,0
288,288,31708,1,0
352,288,32136,1,0
416,288,32565,6,0,B|416:288|448:288|480:256|480:224|448:192|416:192,2,150
352,288,34279,2,0,B|352:288|320:288|288:256|288:224|320:192|352:192,2,150
384,224,35994,6,0,B|384:224|393:107|288:64,1,200
192,64,37279,1,0
192,64,37494,2,0,B|192:64|192:320,1,250
96,320,38994,1,0
96,320,39208,2,0,B|96:320|96:64,1,250
192,64,40708,5,0
192,64,40922,2,0,B|192:64|320:64,2,100
192,160,42208,1,0
192,160,42422,1,0
288,160,42851,1,4
384,160,43279,5,0
416,192,43494,1,0
416,192,43601,1,0
384,256,43922,1,0
352,288,44136,1,0
320,320,44351,1,0
320,320,44458,1,0
256,288,44779,1,0
224,256,44994,1,0
192,224,45208,1,0
192,224,45315,1,0
64,128,45851,5,0
96,96,46065,1,0
128,64,46279,1,0
192,96,46601,1,0
256,64,46922,1,0
288,96,47136,1,0
352,64,47458,1,0
416,96,47779,1,0
448,64,47994,1,0
448,192,48636,1,0
448,192,48744,1,0
448,192,48851,1,0
448,320,49494,5,0
448,320,49601,1,0
448,320,49708,1,0
416,288,49922,1,0
384,256,50136,1,0
352,224,50351,1,0
352,224,50458,1,0
288,256,50779,1,0
256,288,50994,1,0
224,320,51208,1,0
224,320,51315,1,0
160,288,51636,1,0
128,256,51851,1,0
96,224,52065,1,0
96,224,52172,1,0
128,64,52708,5,0
160,96,52922,1,0
192,128,53136,1,0
352,96,53779,1,0
352,96,53994,1,0
320,256,54636,1,0
320,256,54851,1,0
256,224,55172,1,0
192,256,55494,1,0
160,224,55708,1,0
32,352,56351,5,0
32,352,56458,1,0
32,352,56565,1,4
64,320,56779,1,0
96,288,56994,1,0
128,256,57208,1,0
128,256,57315,1,0
192,288,57636,1,0
224,256,57851,1,0
256,224,58065,1,0
256,224,58172,1,0
320,256,58494,1,0
352,224,58708,1,0
384,192,58922,1,0
384,192,59029,1,0
448,64,59565,5,0
416,64,59779,1,0
384,64,59994,1,0
320,96,60315,1,0
256,64,60636,1,0
224,96,60851,1,0
160,64,61172,1,0
96,96,61494,1,0
64,64,61708,1,0
64,192,62351,1,0
64,192,62458,1,0
64,192,62565,1,0
64,320,63208,5,0
96,352,63422,1,0
224,352,63851,1,0
256,320,64065,1,0
256,320,64172,1,0
384,352,64922,1,0
384,352,65029,1,0
384,352,65136,1,0
416,320,65351,1,0
448,288,65565,1,0
480,256,65779,1,0
480,256,65886,1,0
448,192,66208,5,0
416,160,66422,1,0
384,128,66636,1,0
352,96,66851,1,0
288,128,67172,1,0
224,96,67494,1,0
192,128,67708,1,0
128,96,68029,1,0
64,128,68351,1,0
96,160,68565,1,0
64,288,69208,1,0
64,320,69422,1,0
192,320,69851,5,0
224,288,70065,1,0
256,256,70279,2,0,B|256:256|416:96,1,200
416,96,71351,1,0
352,32,71779,1,0
320,64,71994,1,0
256,32,72315,1,0
192,64,72636,1,0
160,32,72851,1,0
128,64,73065,5,0
96,96,73279,1,0
64,128,73494,1,0
32,160,73708,1,0
64,224,74029,1,0
32,288,74351,1,0
128,320,74779,5,0
160,288,74994,1,0
192,256,75208,1,0
224,224,75422,1,0
288,256,75744,1,0
352,224,76065,1,0
384,192,76279,1,0
416,128,76601,1,0
384,64,76922,1,0
352,32,77136,6,0,B|352:32|213:75|128:224,1,300
96,288,78851,2,0,B|96:288|352:288,1,250
416,256,80351,5,0
416,256,80565,1,0
256,192,81422,1,0
192,320,82065,1,0
192,320,82172,1,0
192,320,82279,1,0
64,192,83351,5,0
96,160,83565,1,0
128,128,83779,1,0
160,96,83994,1,0
224,64,84315,1,0
288,96,84636,1,0
320,128,84851,1,0
448,256,85494,5,0
416,288,85708,1,0
352,256,86029,1,0
288,288,86351,1,0
256,256,86565,1,0
192,288,86886,1,0
128,256,87208,5,0
96,288,87422,1,0
64,224,87744,1,0
96,160,88065,1,0
64,128,88279,1,0
32,96,88494,1,0
96,32,88922,2,0,B|96:32|464:32,1,350
480,128,90851,5,0
480,128,91172,1,0
480,128,91494,1,0
424,128,91708,1,0
424,128,92029,1,0
424,128,92351,1,0
368,128,92565,1,0
368,128,92886,1,0
368,128,93208,1,0
312,128,93422,1,0
312,128,93744,1,0
312,128,94065,1,0
200,128,94494,5,0
200,128,94708,1,0
200,128,94922,1,0
144,128,95136,1,0
144,128,95458,1,0
144,128,95779,1,0
88,128,95994,1,0
88,128,96315,1,0
88,128,96636,1,0
32,128,96851,1,0
32,128,97172,1,0
32,128,97494,1,0
32,192,97708,5,0
96,256,98136,1,0
128,288,98351,2,0,B|128:288|288:288,1,150
320,256,99208,1,0
352,224,99422,1,0
288,160,99851,1,0
320,128,100065,1,0
192,64,100708,1,0
96,64,101136,6,0,B|96:64|89:241|224:320,1,300
256,352,102636,1,0
256,352,102744,1,0
256,352,102851,1,0
352,288,103279,1,0
384,256,103494,1,0
448,192,103922,1,0
384,128,104351,5,0
352,96,104565,2,0,B|352:96|288:32,2,75
320,128,105422,2,0,B|320:128|256:192,2,75
288,96,106279,2,0,B|288:96|224:32,2,75
256,128,107136,2,0,B|256:128|192:192,2,75
128,64,108208,6,0,B|128:64|64:64,2,50
160,96,108851,2,0,B|160:96|256:96,2,75
128,128,109708,2,0,B|128:128|32:128,2,75
160,160,110565,2,0,B|160:160|256:160,2,75
128,192,111422,5,0
160,288,111851,1,0
192,320,112065,2,0,B|192:320|352:320,1,150
384,288,112922,1,0
416,256,113136,1,0
352,192,113565,1,0
384,160,113779,1,0
320,64,114422,1,0
224,32,114851,6,0,B|224:32|85:104|32:256,1,300
96,320,116565,1,4
160,256,116994,1,0
224,320,117422,1,4
288,256,117851,1,4
352,320,118279,6,0,B|352:320|480:192|408:147|352:64|224:224,1,400
160,192,120422,1,0
96,160,120851,1,0
32,128,121279,1,0
64,64,121708,6,0,B|64:64|124:-8|192:64,2,150
64,128,123422,2,0,B|64:128|128:200|192:128,2,150
128,96,125136,6,0,B|128:96|352:96,1,200
352,192,126422,1,0
352,192,126636,2,0,B|352:192|96:192,1,250
128,288,128136,5,0
128,288,128351,2,0,B|128:288|384:288,1,250
448,224,129851,1,0
448,224,130065,2,0,B|448:224|448:96,2,100
384,288,131351,1,0
352,256,131565,1,0
256,192,131994,1,4
