osu file format v5

[General]
AudioFilename: Natsukusa no Senro -J-Trance remix-.mp3
AudioLeadIn: 0
PreviewTime: 42857
Countdown: 0
SampleSet: Normal

[Metadata]
Title:Natsukusa no Senro -J-Trance remix-
Artist:HaL & Misato
Creator:DJPop
Version:Hard

[Difficulty]
HPDrainRate:6
CircleSize:5
OverallDifficulty:7
SliderMultiplier:1.5
SliderTickRate:1

[Events]
//Background and Video events
0,0,"Natsukusa no Senro -J-Trance remix-.png"
//Break Periods
//Storyboard Layer 0 (Background)
//Storyboard Layer 1 (Failing)
//Storyboard Layer 2 (Passing)
//Storyboard Layer 3 (Foreground)
//Storyboard Sound Samples
//Background Colour Transformations
3,100,0,128,0

[TimingPoints]
-6,428.571428571429,4,1,0,100

[Colours]
Combo1 : 255,255,0
Combo2 : 0,255,0
Combo3 : 0,0,255
Combo4 : 255,0,0

[HitObjects]
64,320,15428,6,4,B|320:320|448:320|448:192|448:64|320:64,1,600
224,64,17565,1,0
128,64,17994,1,0
32,64,18422,1,0
32,160,18851,6,0,B|160:160|224:288,2,225
32,256,20565,2,0,B|160:256|224:128,2,225
32,352,22279,6,4,B|352:352,1,300
480,224,23565,1,0
416,288,23779,2,0,B|32:288,1,375
32,160,25279,1,0
96,224,25494,2,0,B|480:224,1,375
480,96,26994,1,0
416,160,27208,1,0
352,96,27422,5,6
256,96,27744,1,6
160,96,28065,1,6
32,32,28494,1,0
32,32,28708,1,0
96,160,29136,5,4
160,160,29350,1,0
160,160,29457,1,0
160,160,29565,1,0
160,160,29672,1,0
160,160,29779,1,0
160,160,29886,1,0
160,160,29994,1,0
224,160,30208,1,0
224,160,30315,1,0
224,160,30423,1,0
224,160,30530,1,0
224,160,30637,1,0
224,160,30744,1,0
224,160,30851,1,0
288,160,31065,5,0
288,160,31172,1,0
288,160,31280,1,0
288,160,31387,1,0
288,160,31494,1,0
288,160,31601,1,0
288,160,31708,1,0
352,160,31922,1,0
352,160,32029,1,0
352,160,32137,1,0
352,160,32244,1,0
352,160,32351,1,0
352,160,32458,1,0
352,160,32565,1,0
352,224,32779,5,0
352,224,32886,1,0
352,224,32994,1,0
352,224,33101,1,0
352,224,33208,1,0
352,224,33315,1,0
352,224,33422,1,0
288,224,33636,1,0
288,224,33743,1,0
288,224,33851,1,0
288,224,33958,1,0
288,224,34065,1,0
288,224,34172,1,0
288,224,34279,1,0
224,224,34494,5,0
224,224,34601,1,0
224,224,34709,1,0
224,224,34816,1,0
224,224,34923,1,0
224,224,35030,1,0
224,224,35136,1,0
160,224,35351,1,0
160,224,35458,1,0
160,224,35566,1,0
160,224,35673,1,0
160,224,35780,1,0
160,224,35887,1,0
160,224,35994,1,0
160,288,36208,5,0
160,288,36315,1,0
160,288,36423,1,0
160,288,36530,1,0
160,288,36637,1,0
160,288,36744,1,0
160,288,36851,1,0
224,288,37065,1,0
224,288,37172,1,0
224,288,37280,1,0
224,288,37387,1,0
224,288,37494,1,0
224,288,37601,1,0
224,288,37708,1,0
288,288,37922,5,0
288,288,38029,1,0
288,288,38137,1,0
288,288,38244,1,0
288,288,38351,1,0
288,288,38458,1,0
288,288,38565,1,0
352,288,38779,1,0
352,288,38886,1,0
352,288,38994,1,0
352,288,39101,1,0
352,288,39208,1,0
352,288,39315,1,0
352,288,39422,1,0
352,352,39636,5,0
352,352,39743,1,0
352,352,39851,1,0
352,352,39958,1,0
352,352,40065,1,0
352,352,40172,1,0
352,352,40279,1,0
288,352,40494,1,0
288,352,40601,1,0
288,352,40709,1,0
288,352,40816,1,0
288,352,40923,1,0
288,352,41030,1,0
288,352,41137,1,0
224,352,41351,5,0
224,352,41458,1,0
224,352,41566,1,0
224,352,41673,1,0
224,352,41780,1,0
224,352,41887,1,0
224,352,41994,1,0
160,352,42208,1,0
160,352,42315,1,0
160,352,42423,1,0
160,352,42530,1,0
160,352,42637,1,0
160,352,42744,1,0
160,352,42851,1,4
64,256,43279,6,0,C|64:160,1,75
64,160,43601,2,0,C|128:96,1,75
160,96,43922,1,0
224,96,44136,1,0
288,96,44351,1,0
320,128,44458,2,0,C|384:192,1,75
416,192,44779,1,0
480,192,44994,1,0
480,256,45208,1,0
448,288,45315,2,0,C|352:352,1,112.5
288,320,45851,5,0
224,288,46065,1,0
160,256,46279,2,0,C|32:256,2,112.5
224,224,47136,2,0,C|352:224,2,112.5
160,192,47994,2,0,C|32:96,1,150
32,32,48636,1,0
32,32,48744,1,0
32,32,48851,2,0,C|192:32,1,150
224,96,49494,5,0
240,96,49601,1,0
256,96,49708,2,0,C|352:96,2,75
256,160,50351,1,0
224,192,50458,2,0,C|160:256,1,75
192,288,50779,2,0,C|288:288,2,75
160,288,51315,2,0,C|64:288,1,75
64,256,51636,2,0,C|64:160,1,75
128,160,52065,1,0
160,128,52172,2,0,C|256:32,1,112.5
288,96,52708,5,0
352,128,52922,1,0
416,160,53136,2,0,C|467:209|480:288,1,150
448,352,53779,1,0
416,288,53994,2,0,C|365:239|352:160,1,150
352,96,54636,1,0
352,32,54851,2,0,B|288:32,1,75
256,32,55172,2,0,B|160:32,1,75
160,32,55494,1,0
96,32,55708,2,0,C|64:32|38:64|64:96|96:96,1,150
160,96,56351,5,0
176,112,56458,1,0
192,128,56565,2,0,C|288:128,3,75
288,160,57315,2,0,C|352:224,1,75
384,224,57636,2,0,C|480:224,2,75
352,256,58172,2,0,C|288:320,1,75
256,320,58494,2,0,C|160:320,2,75
288,352,59029,2,0,C|416:352,1,112.5
448,288,59565,5,0
416,224,59779,1,0
384,160,59994,2,0,C|320:32,2,112.5
352,224,60851,2,0,C|288:352,2,112.5
320,160,61708,2,0,C|160:160,1,150
128,224,62351,1,0
128,224,62458,1,0
128,224,62565,2,0,C|288:224,1,150
320,288,63208,5,0
288,352,63422,2,0,C|192:352,1,75
160,352,63851,2,0,C|64:352,1,75
64,320,64172,2,0,C|64:128,1,187.5
128,64,64922,1,0
144,64,65029,1,0
160,64,65136,2,0,C|256:64,3,75
256,96,65886,2,0,C|320:160,1,75
320,192,66208,2,0,C|320:288,2,75
352,128,66851,6,0,C|480:128,2,112.5
352,64,67708,2,0,C|480:64,2,112.5
288,64,68565,2,0,C|128:64,1,150
64,96,69208,1,0
64,160,69422,2,0,C|64:256,1,75
96,288,69851,5,0
128,352,70065,1,0
160,288,70279,2,0,B|146:121|288:32,1,300
352,32,71351,2,0,B|448:32,1,75
480,64,71779,1,0
416,96,71994,2,0,B|288:96,2,112.5
480,128,72851,1,0
416,160,73065,5,0
480,192,73279,1,0
416,224,73494,1,0
480,256,73708,2,0,B|384:320,3,112.5
352,320,74779,1,0
288,288,74994,1,0
224,256,75208,1,0
160,224,75422,2,0,B|32:224,2,112.5
160,160,76279,2,0,B|32:160,2,112.5
160,96,77136,6,0,B|352:96|392:193|352:288|160:288,1,450
32,192,78851,2,0,B|352:192,1,300
384,192,79922,2,0,B|480:192,1,75
480,128,80351,1,0
448,64,80565,2,0,B|192:64,1,225
224,128,81422,2,0,B|96:224,1,150
64,256,82065,1,0
64,256,82172,1,0
64,256,82279,1,0
128,352,82601,5,0
192,256,82922,1,0
256,288,83136,1,0
320,256,83351,1,0
384,288,83565,1,0
448,256,83779,1,0
384,224,83994,2,0,B|384:96,2,112.5
320,192,84851,2,0,B|160:192,1,150
128,160,85494,1,0
192,128,85708,2,0,B|320:128,2,112.5
128,96,86565,2,0,B|0:96,2,112.5
192,64,87422,2,0,B|320:64,2,112.5
128,32,88279,1,0
64,32,88494,2,0,B|64:128,1,75
64,160,88922,1,0
256,192,89136,12,4,90422
448,320,90851,6,0,B|448:192,2,112.5
384,288,91708,2,0,B|256:288,2,112.5
448,256,92565,2,0,B|448:128,2,112.5
384,224,93422,2,0,B|256:224,2,112.5
288,128,94494,6,0,B|288:32,2,75
224,96,95136,2,0,B|96:96,2,112.5
224,160,95994,2,0,B|224:288,2,112.5
160,128,96851,2,0,B|32:128,2,112.5
160,192,97708,6,0,B|160:288,1,75
160,320,98136,1,0
224,320,98351,2,0,B|480:320,1,225
448,256,99208,1,0
448,192,99422,2,0,B|448:96,1,75
448,64,99851,1,0
384,64,100065,2,0,B|224:64,1,150
160,64,100708,2,0,B|64:64,1,75
32,64,101136,6,0,B|27:205|161:305|352:320,1,450
416,320,102636,1,0
416,320,102744,1,0
416,320,102851,2,0,B|480:256,1,75
480,224,103279,1,0
416,192,103494,2,0,B|320:192,1,75
288,160,103922,2,0,B|288:64,1,75
224,32,104351,5,0
160,32,104565,1,4
64,112,104886,1,0
160,192,105208,1,0
224,192,105422,1,0
320,272,105744,1,0
224,352,106065,1,0
160,352,106279,1,0
64,272,106601,1,0
160,192,106922,1,0
224,192,107136,1,0
320,112,107458,1,0
224,32,107779,1,0
448,96,108208,5,0
448,160,108422,1,0
448,224,108636,1,0
448,288,108851,1,0
320,320,109172,1,0
224,240,109494,1,0
160,240,109708,1,0
64,160,110029,1,0
160,80,110351,1,0
224,80,110565,1,0
320,160,110886,1,0
416,80,111208,1,0
480,128,111422,6,0,B|480:288,1,150
416,288,112065,2,0,B|268:213|416:128,1,225
416,192,112922,1,0
352,224,113136,2,0,B|192:224,1,150
192,160,113779,2,0,B|352:160,1,150
416,128,114422,2,0,B|416:32,1,75
352,32,114851,6,0,B|160:32|38:159|32:288,1,450
256,352,116565,1,4
416,192,116994,1,0
256,32,117422,1,4
96,192,117851,1,4
64,64,118279,5,4
128,64,118494,1,0
144,64,118601,1,0
160,64,118708,1,0
176,64,118815,1,0
192,64,118922,1,0
208,64,119029,1,0
224,64,119136,1,0
288,128,119351,1,0
304,128,119458,1,0
320,128,119565,1,0
336,128,119672,1,0
352,128,119779,1,0
368,128,119886,1,0
384,128,119994,1,0
448,192,120208,5,0
448,208,120315,1,0
448,224,120422,1,0
448,240,120529,1,0
448,256,120636,1,0
448,272,120743,1,0
448,288,120851,1,0
352,320,121065,1,0
336,320,121172,1,0
320,320,121279,1,0
304,320,121386,1,0
288,320,121493,1,0
272,320,121600,1,0
256,320,121708,1,0
224,256,121922,5,0
224,240,122029,1,0
224,224,122136,1,0
224,208,122243,1,0
224,192,122350,1,0
224,176,122457,1,0
224,160,122565,1,0
144,160,122779,1,0
128,160,122886,1,0
112,160,122993,1,0
96,160,123100,1,0
80,160,123207,1,0
64,160,123314,1,0
48,160,123422,1,0
64,256,123636,5,0
80,256,123743,1,0
96,256,123850,1,0
112,256,123957,1,0
128,256,124064,1,0
144,256,124171,1,0
160,256,124279,1,0
224,160,124494,1,0
240,160,124601,1,0
256,160,124708,1,0
272,160,124815,1,0
288,160,124922,1,0
304,160,125029,1,0
320,160,125137,1,0
416,192,125351,5,0
416,176,125458,1,0
416,160,125565,1,0
416,144,125672,1,0
416,128,125779,1,0
416,112,125886,1,0
416,96,125994,1,0
320,64,126208,1,0
304,64,126315,1,0
288,64,126422,1,0
272,64,126529,1,0
256,64,126636,1,0
240,64,126743,1,0
224,64,126851,1,0
160,128,127065,5,0
160,144,127172,1,0
160,160,127279,1,0
160,176,127386,1,0
160,192,127493,1,0
160,208,127600,1,0
160,224,127708,1,0
64,224,127922,1,0
64,208,128029,1,0
64,192,128136,1,0
64,176,128243,1,0
64,160,128350,1,0
64,144,128457,1,0
64,128,128565,1,0
144,64,128779,5,0
160,64,128886,1,0
176,64,128993,1,0
192,64,129100,1,0
208,64,129207,1,0
224,64,129314,1,0
240,64,129422,1,0
208,160,129636,1,0
224,160,129743,1,0
240,160,129850,1,0
256,160,129957,1,0
272,160,130064,1,0
288,160,130171,1,0
304,160,130279,1,0
416,192,130494,5,0
400,208,130601,1,0
384,224,130708,1,0
368,240,130815,1,0
352,256,130922,1,0
336,272,131029,1,0
320,288,131137,1,0
192,288,131351,1,0
176,272,131458,1,0
160,256,131565,1,0
144,240,131672,1,0
128,224,131779,1,0
112,208,131886,1,0
96,192,131994,1,4
