osu file format v5

[General]
AudioFilename: Natsukusa no Senro -J-Trance remix-.mp3
AudioLeadIn: 0
AudioHash: b9d2caa87ba7a294378af9e7ca251bb2
PreviewTime: 42857
Countdown: 0
SampleSet: Normal

[Metadata]
Title:Natsukusa no Senro -J-Trance remix-
Artist:HaL & Misato
Creator:DJPop
Version:Easy

[Difficulty]
HPDrainRate:0
CircleSize:5
OverallDifficulty:1
SliderMultiplier: 1
SliderTickRate: 1

[Events]
//Background and Video events
0,-100000,"Natsukusa no Senro -J-Trance remix-.png"
//Break Periods
//Storyboard Layer 0 (Background)
//Storyboard Layer 1 (Failing)
//Storyboard Layer 2 (Passing)
//Storyboard Layer 3 (Foreground)
//Storyboard Sound Samples
//Background Colour Transformations
3,100,0,128,0

[TimingPoints]
-6,428.571428571429,4,1,0,100

[Colours]
Combo1 : 255,255,0
Combo2 : 0,255,0
Combo3 : 0,0,255
Combo4 : 255,0,0

[HitObjects]
256,192,15422,5,4
384,64,17136,1,0
384,320,18851,5,0
256,192,20565,1,0
128,320,22279,5,4
256,192,23994,1,0
128,64,25708,5,0
256,192,27422,1,2
256,192,27744,1,2
256,192,28065,1,2
256,64,29136,5,0
192,256,31279,1,0
224,288,31708,1,0
256,256,32136,1,0
288,288,32565,5,0
352,256,33208,1,0
416,224,33851,1,0
448,192,34279,1,0
416,128,34922,1,0
352,96,35565,1,0
320,128,35994,5,0
96,64,37279,1,0
96,64,37494,1,0
96,320,38994,1,0
96,320,39208,1,0
288,192,40708,5,0
288,192,40922,1,0
256,160,41351,1,0
224,192,41779,1,0
256,224,42208,1,0
256,224,42422,1,0
256,256,42851,5,4
448,192,44565,1,0
256,128,46279,5,0
64,192,47994,1,0
256,352,49708,5,0
416,192,51422,1,0
256,32,53136,5,0
96,192,54851,1,0
480,160,56565,5,4
416,96,57422,1,0
352,160,58279,1,0
288,96,59136,1,0
224,160,59994,5,0
160,96,60851,1,0
96,160,61708,1,0
32,96,62565,1,0
32,224,63422,5,4
96,288,64279,1,0
160,224,65136,1,0
224,288,65994,1,0
288,224,66851,5,0
352,288,67708,1,0
416,224,68565,1,0
480,288,69422,1,0
480,192,70279,5,4
256,192,71351,1,0
224,192,71779,1,0
224,192,71994,1,0
160,192,72315,1,0
96,192,72636,1,0
96,192,72851,2,0,B|96:192|64:224|64:256|96:288|128:288|160:256|160:224|192:192|224:192|256:224|256:256|288:288|320:288|352:256|352:224|320:192,1,400
320,128,74994,5,0
320,64,75422,1,0
288,64,75744,1,0
256,64,76065,1,0
240,64,76279,1,0
208,64,76601,1,0
176,64,76922,1,0
160,64,77136,6,0,B|160:64|128:64|96:96|96:128|128:160|160:160|192:192|192:224|160:256|128:256|96:288|96:320,1,300
64,352,78851,1,0
224,288,79922,1,0
256,224,80351,5,0
256,224,80565,1,0
320,160,81422,1,0
256,96,82279,1,0
128,192,83994,5,0
192,288,84851,1,0
288,224,85708,5,0
352,128,86565,1,0
256,64,87422,5,0
192,160,88279,1,0
128,256,89136,6,0,B|128:256|255:400|384:256,1,300
416,224,90851,5,0
320,96,91708,1,0
224,224,92565,1,0
128,96,93422,1,0
32,224,94279,5,0
160,320,95136,1,0
288,224,95994,1,0
416,320,96851,1,0
480,192,97708,5,0
416,160,98136,1,0
416,160,98351,1,0
288,224,99208,1,0
288,224,99422,1,0
224,192,99851,1,0
224,192,100065,1,0
96,256,100708,1,0
32,224,101136,6,0,B|32:224|32:128|64:96|160:96|256:128,1,300
320,96,102851,1,4
384,160,103279,1,4
320,224,103708,1,4
256,160,104136,1,4
192,224,104565,5,4
64,320,105422,1,0
160,192,106279,1,0
288,288,107136,1,0
416,192,107994,5,0
288,96,108851,1,0
192,224,109708,1,0
342,320,110565,1,0
256,192,111422,5,0
192,224,111851,1,0
192,224,112065,1,0
64,160,112922,1,0
64,160,113136,1,0
128,128,113565,1,0
128,128,113779,1,0
256,192,114422,1,0
320,224,114851,6,0,B|320:224|384:238|448:224|448:128|416:64|352:32,1,300
320,96,116565,1,4
272,144,116994,1,0
224,192,117422,1,4
176,240,117851,1,4
128,288,118279,5,4
64,64,120422,1,0
96,96,120851,1,0
128,128,121279,1,0
160,160,121708,5,0
224,128,122351,1,0
288,160,122994,1,0
320,192,123422,1,0
288,256,124065,1,0
224,288,124708,1,0
192,256,125136,5,0
448,64,126422,1,0
448,64,126636,1,0
448,320,128136,1,0
448,320,128351,1,0
64,64,129851,5,0
64,64,130065,1,0
112,96,130494,1,0
160,128,130922,1,0
208,160,131351,1,0
208,160,131565,1,0
256,192,131994,1,4
