osu file format v5

[General]
AudioFilename: (2005.10.05) HYDE COUNTDOWN (PV).mp3
AudioLeadIn: 0
PreviewTime: -1
Countdown: 1
SampleSet: Normal
StackLeniency: 0.7
Mode: 0
LetterboxInBreaks: 1
EditorDistanceSpacing: 0.800000011920929

[Metadata]
Title:COUNTDOWN
Artist:HYDE
Creator:psmatrixman
Version:
Source:
Tags:

[Difficulty]
HPDrainRate:6
CircleSize:5
OverallDifficulty:5
SliderMultiplier:1.2
SliderTickRate:2

[Events]
//Background and Video events
//Break Periods
2,33422,42804
2,65355,74078
2,96683,105899
2,128697,149107
//Storyboard Layer 0 (Background)
//Storyboard Layer 1 (Failing)
//Storyboard Layer 2 (Passing)
//Storyboard Layer 3 (Foreground)
//Storyboard Sound Samples
//Background Colour Transformations
3,100,0,64,128

[TimingPoints]
12401,329.67032967033,4,1,0,100,1,0
43675,-100,4,1,0,100,0,1
75442,-100,4,2,0,100,0,0
77746,329.200043893339,4,2,0,100,1,0
77746,-100,4,1,0,100,0,0
77801,-100,4,1,0,100,0,0
170717,-100,4,1,0,100,0,1

[HitObjects]
224,192,12483,1,4
288,272,12813,1,2
336,248,12977,1,2
360,208,13142,1,2
368,112,13472,1,4
320,40,13802,2,2,B|264:88|144:152,1,180
144,80,14791,1,4
64,128,15120,5,4
80,200,15450,1,2
136,184,15615,1,2
192,200,15780,1,2
160,280,16109,1,4
232,312,16439,2,0,B|344:256|400:208,1,180,4|0
408,168,17428,1,4
376,80,17758,6,0,B|248:80,1,120,4|0
216,120,18417,1,0
216,168,18747,2,0,B|296:168,1,60,4|0
104,240,19241,1,0
168,280,19571,2,0,B|192:216|128:152|48:160,1,180,4|0
288,280,20395,5,4
328,224,20725,1,0
392,264,21054,1,2
392,264,21219,1,0
392,264,21384,1,2
400,176,21714,1,0
376,112,22043,2,2,B|232:112,2,120,2|2|6
376,112,23032,5,4
288,184,23362,1,2
288,184,23527,1,2
288,184,23692,1,2
216,152,24021,1,4
136,200,24351,2,2,B|232:272|304:264,2,180,6|2|6
80,128,25670,5,4
80,232,25999,1,2
128,248,26164,1,0
176,232,26329,1,2
208,296,26618,1,6
208,296,26782,1,2
208,296,26947,1,0
288,304,27277,1,0
400,256,27607,1,4
304,192,27936,1,0
224,216,28266,2,4,B|208:128|16:120,1,240
320,96,29255,5,0
384,120,29420,1,0
432,192,29749,1,0
360,192,30079,1,0
296,184,30244,1,0
296,184,30409,1,0
296,184,30574,2,0,B|264:192|280:232|304:248,1,60
312,256,30903,6,4,B|224:288|168:272,1,120,4|4
184,208,31398,2,4,B|328:208,1,120
296,120,31892,2,0,B|264:88|208:128|168:112,2,120,4|0|0
248,48,32881,1,4
248,48,33211,1,4
152,128,44008,5,4
216,72,44420,2,6,B|256:136|256:192,2,120
208,128,45244,1,4
160,200,45738,2,6,B|152:264|232:304|216:296,2,120,4|6|4
208,184,46563,1,4
160,152,47057,6,6,B|224:136|296:152,2,120
88,184,47964,1,4
224,280,48293,1,4
344,176,48623,1,4
208,88,48953,1,4
104,208,49282,2,0,B|184:168|184:168|208:200|208:200|272:168,3,180,0|0|0|2
280,88,51096,5,0
392,120,51425,1,2
336,216,51755,5,0
336,264,51920,2,4,B|184:264|168:184,1,180
216,144,52744,5,4
216,144,52909,1,4
216,144,53074,1,4
368,120,53403,1,0
336,200,53733,1,0
200,224,54063,1,0
200,224,54227,1,0
200,224,54392,1,0
144,216,54557,6,6,B|96:320|224:352|424:312|416:176,1,420
408,112,55835,2,0,B|96:112,1,300,2|6
144,48,57153,2,6,B|32:104|248:320|416:176,1,420
408,128,58472,1,4
136,120,58802,5,4
136,272,59131,1,4
400,280,59461,5,0
352,208,59791,6,0,B|232:264|240:256,2,120
408,200,60780,1,0
408,200,60944,1,0
304,144,61274,2,6,B|240:120|176:144,3,120
256,192,62593,12,4,65148
104,88,75285,6,4,B|192:72|192:72|232:64,1,120
120,168,76769,1,0
248,152,77098,1,0
392,176,77593,1,0
400,232,77746,6,4,B|288:216|160:248,1,240
72,248,79350,1,0
120,304,79680,1,0
160,248,80009,1,0
208,304,80338,1,0
256,248,80667,1,0
360,288,80996,5,0
360,288,81161,1,0
360,288,81326,1,0
312,208,81655,1,0
312,208,81819,1,0
312,208,81984,1,0
392,208,82437,1,0
288,144,82766,1,0
200,208,83096,1,0
96,152,83424,1,0
32,152,83671,6,0,B|8:264|120:312,2,180
96,160,84947,1,0
120,192,85276,1,0
152,216,85605,1,0
200,216,85934,1,0
216,256,86181,6,4,B|408:256,1,180
396,256,87004,1,0
400,104,87333,2,0,B|344:144|288:96,1,120
232,88,87992,2,0,B|232:224,1,120
232,248,88650,2,0,B|336:272|424:80|200:24,1,360
120,72,89967,1,0
120,72,90132,1,0
120,72,90296,1,0
72,168,90625,1,0
136,216,90955,1,0
200,168,91284,1,0
208,264,91613,5,0
272,264,91778,1,0
336,240,91942,1,0
288,176,92271,1,0
360,128,92601,2,0,B|416:208,2,90
360,88,93424,2,0,B|256:80|160:96,1,180
136,64,94247,6,4,B|240:64|272:80,1,120
352,120,94740,2,4,B|272:120|232:136,1,120
144,184,95234,2,4,B|232:200|280:224,2,120
256,280,96140,1,2
256,280,96304,1,8
256,280,96469,1,4
144,64,107085,5,0
144,64,107250,1,0
136,160,107662,2,0,B|176:136|216:176|256:168,1,120
296,160,108155,1,0
352,160,108320,1,0
408,160,108485,1,0
352,232,108978,5,0
352,232,109143,1,0
304,272,109308,1,0
304,272,109472,1,0
240,288,109637,1,0
240,288,109966,2,0,B|168:288|56:248,2,180
336,328,111200,5,0
392,288,111365,1,0
408,216,111530,1,0
368,160,111694,1,0
304,136,111859,1,0
248,168,112023,1,0
264,224,112188,1,0
264,224,112517,6,0,B|248:160|256:152|288:136|296:136|352:128|376:152|400:176|408:200|424:232|416:280|368:312|352:320|280:352,1,420
128,248,114081,1,0
192,280,114410,1,0
256,248,114657,1,0
336,280,114986,1,0
400,272,115151,2,0,B|400:176|272:160,1,180
136,168,115974,5,0
176,144,116138,1,0
208,176,116303,1,0
240,144,116468,1,0
312,168,116632,2,0,B|376:128|352:64,2,120
312,168,117455,1,0
312,168,117620,1,0
360,232,117784,5,0
424,208,118114,1,0
424,208,118278,2,6,B|448:264|408:336,2,120
424,208,119101,1,0
296,208,119513,1,0
296,208,119677,2,6,B|264:264|312:336,2,120
360,224,120500,6,0,B|384:128|256:64|112:104|80:144|120:256,1,420,4|0
184,256,121817,5,0
312,320,122146,1,0
184,320,122476,1,0
312,256,122805,1,0
392,264,123134,6,0,B|408:200|344:152,2,120
360,264,124122,2,0,B|272:264,1,60
184,128,124615,2,0,B|248:152|328:128,3,120
416,240,125891,5,0
376,288,126055,1,0
352,240,126220,1,0
312,288,126385,1,0
280,240,126549,1,0
248,288,126714,1,0
216,240,126878,1,0
256,192,127167,12,0,128483
80,104,150293,6,0,B|176:72|280:88,1,195
256,144,151281,2,0,B|384:144,1,120
400,72,151939,2,2,B|504:168|448:312,1,240
400,280,152927,2,0,B|328:280,1,60
280,296,153256,2,2,B|216:232|208:112|272:64,1,240
304,80,154243,2,0,B|384:80,2,60
304,80,154737,1,0
304,80,154902,1,4
336,184,155560,6,0,B|264:152|208:184|152:160,1,180,0|4
120,112,156548,2,0,B|88:168|120:232,1,120
160,280,157206,2,0,B|224:248|272:288|336:280|352:240,1,180
400,288,158029,2,0,B|400:224,1,60,0|4
384,168,158358,2,0,B|328:160|304:176,1,60,0|4
288,200,158688,2,0,B|208:200|216:176,3,60
192,192,159511,1,0
136,192,159840,1,0
104,232,160169,1,4
440,144,160827,6,0,B|376:72|256:72,1,180,0|2
376,168,161815,2,2,B|320:128|264:128,1,120
240,176,162473,2,0,B|320:200|416:272|192:344|80:328|56:248|72:184|120:120|224:80|304:88|352:120|384:160,1,660
384,224,164778,2,0,B|304:232,3,60
232,256,165436,5,0
80,136,165930,1,0
232,56,166506,1,0
400,136,167164,1,0
256,192,167741,12,0,170539
88,136,171115,5,2
136,192,171279,1,2
176,136,171444,1,2
224,192,171609,1,2
272,136,171773,1,2
272,136,171938,1,2
344,200,172391,6,2,B|384:272|304:320,2,120
392,192,173172,2,2,B|392:96|136:48|64:120,1,360
160,304,174571,1,4
160,304,174736,1,0
232,264,174900,1,4
232,264,175065,1,0
328,256,175230,1,4
328,256,175394,1,0
400,304,175641,1,4
488,264,175888,6,4,B|400:208|296:224|184:200,1,300
88,208,177370,6,0,B|72:264|104:344,2,120
144,192,178357,1,0
144,192,178522,1,0
152,248,178933,2,0,B|216:280,2,60
216,216,179674,1,0
216,216,179839,1,0
216,216,180003,1,0
280,272,180332,5,0
328,208,180662,1,0
328,208,180826,1,0
328,208,180991,1,0
424,136,181155,6,2,B|312:96|200:152|64:120,1,360
64,176,182308,1,0
72,232,182472,2,0,B|184:272|296:216|400:240,1,300,2|2
416,256,183789,2,0,B|408:312|304:328,2,120
416,256,184777,1,0
416,256,184941,1,0
416,184,185106,5,4
344,96,185435,1,4
224,96,185682,1,4
168,192,186011,1,4
200,256,186340,2,0,B|280:288|344:264,2,120
248,208,187410,1,0
280,216,187575,1,0
224,144,187904,2,0,B|296:152|360:136,3,120
384,248,189221,5,0
360,312,189385,1,0
320,248,189550,1,0
296,312,189715,1,0
264,248,189879,1,0
232,312,190044,1,0
200,248,190208,1,0
72,144,190538,1,0
96,80,190702,1,0
136,144,190867,1,0
160,80,191031,1,0
192,144,191196,1,0
224,80,191361,1,0
256,144,191525,1,0
296,80,191690,6,0,B|368:112|344:208,2,120
288,152,192513,5,0
288,208,192677,1,0
288,264,192924,2,0,B|200:248|176:200,2,120
352,264,193830,2,0,B|416:240,2,60
288,168,194323,1,0
288,80,194653,1,0
160,80,194982,1,0
160,168,195311,1,0
56,168,195640,5,4
152,280,195969,1,4
200,248,196299,1,4
256,288,196628,1,4
320,264,196957,2,0,B|352:232|328:200,5,60
312,160,198109,1,0
264,96,198521,6,0,B|224:152|112:280,1,210
208,296,199426,1,0
248,288,199591,1,0
384,224,200084,1,0
368,168,200249,1,0
320,208,200414,1,0
272,96,200743,2,0,B|184:96,1,60
272,144,201072,2,0,B|184:144,1,60
272,192,201401,2,0,B|192:192,3,60
212,192,202060,1,0
144,184,202224,1,0
96,160,202553,6,0,B|64:224|96:280,2,120
144,128,203376,1,0
144,128,203541,1,0
224,144,203870,2,0,B|360:144,2,120
224,144,204693,1,0
224,144,204858,1,0
408,152,205187,2,0,B|456:200|432:280,2,120
408,152,206010,1,0
408,152,206175,1,0
352,72,206504,1,0
232,72,206833,1,0
184,152,207162,1,0
240,208,207491,6,0,B|328:240|376:216,2,120
240,208,208479,1,0
240,208,208644,1,0
96,264,208973,6,0,B|176:264,1,60
208,304,209302,2,0,B|296:304,1,60
336,280,209631,2,0,B|408:256,2,60
256,192,210290,12,0,215557
