osu file format v4

[General]
AudioFilename: Countdown.mp3
AudioLeadIn: 0
AudioHash: 73aa6156b78e5e0f53cfa1605a3d1589
PreviewTime: -1
SampleSet: Normal

[Metadata]
Title:COUNTDOWN
Artist:HYDE
Creator:546871
Version:Normal

[Difficulty]
HPDrainRate:7
CircleSize:4
OverallDifficulty:7
SliderMultiplier: 1.4
SliderTickRate: 1

[Events]
0,0,"BlueLeader.jpg"
3,0,163,162,255

[TimingPoints]
12040,315.361464501285,4,1,0

[HitObjects]
128,96,11724,1,0,
384,96,12670,1,0,
320,320,12986,1,0,
160,256,13616,1,0,
256,160,13932,1,0,
128,96,14562,1,0,
352,128,15824,1,0,
256,224,17085,1,0,
160,224,17716,1,0,
160,192,18031,1,0,
160,192,18347,1,0,
160,192,18662,1,0,
160,192,18977,1,0,
160,192,19293,1,0,
192,64,19608,1,0,
320,128,20239,1,0,
288,160,20554,1,0,
224,160,21185,1,0,
416,64,22131,1,0,
416,64,22446,1,0,
384,224,23077,1,0,
160,160,23393,1,0,
288,160,24654,5,0,
64,192,25285,1,0,
128,96,26231,1,0,
128,192,26546,1,0,
256,96,26861,1,0,
288,224,27177,1,0,
384,96,27492,1,0,
384,96,27808,1,0,
416,192,28123,1,0,
160,224,28754,1,0,
160,192,29069,1,0,
160,192,29384,1,0,
160,96,29700,1,0,
160,96,30015,1,0,
256,96,30646,1,0,
352,256,31277,1,0,
96,256,31592,1,0,
96,160,31907,1,0,
128,96,32223,1,0,
160,96,42945,5,0,
448,96,44522,2,0,B|448:96|352:192|256:160,1,140
96,96,45152,1,0,
224,192,46099,2,0,B|224:192|352:192,6,140
352,192,47045,1,0,
192,192,48306,1,0,
480,32,49252,1,0,
320,224,49883,1,0,
96,96,51460,1,0,
224,128,51775,1,0,
288,224,52090,1,0,
384,224,52406,1,0,
320,128,52721,1,0,
256,64,53352,1,0,
256,128,54929,1,0,
160,160,56190,1,0,
192,128,57767,1,0,
256,128,58082,1,0,
352,160,58398,1,0,
256,128,58713,1,0,
352,192,59028,1,0,
128,64,59659,1,0,
224,352,60605,1,0,
256,160,61236,1,0,
384,96,61867,1,0,
352,128,62182,1,0,
224,128,62497,1,0,
320,128,62813,1,0,
192,96,63128,1,0,
288,128,63443,1,0,
352,128,63759,1,0,
256,128,64074,1,0,
256,192,64390,12,2,70066
160,160,75112,5,2,
64,224,75427,1,2,
288,96,76058,1,2,
192,160,77950,1,2,
224,128,79527,1,2,
192,160,80788,1,2,
224,160,82365,1,2,
224,128,83627,1,2,
256,128,85519,1,2,
256,128,86149,1,2,
128,128,86780,1,2,
352,96,87411,1,2,
320,224,88042,1,2,
96,224,88672,1,2,
160,64,89618,1,2,
288,96,90249,1,2,
192,256,90880,1,2,
192,256,91195,1,2,
192,256,91511,1,2,
224,256,92141,1,2,
352,224,92772,1,2,
256,128,93718,1,2,
256,128,94033,1,2,
96,128,96241,2,2,B|96:128|160:256|288:192|256:160|256:320,1,280
192,256,98764,2,2,B|192:256|352:192|320:32,1,280
128,96,101287,2,2,B|128:96|224:192|320:64|416:320|512:224,1,420
64,32,106333,2,2,B|64:32|224:160,4,140
416,64,109171,2,2,B|416:64|288:160,5,140
224,64,111378,2,2,B|224:64|224:192,4,140
160,64,115163,1,2,
288,96,115478,1,2,
320,224,115793,1,2,
192,224,116109,1,2,
160,128,116424,1,2,
96,160,116740,1,2,
256,64,117055,2,2,B|256:64|384:64|384:192|192:256,1,280
224,256,118001,2,2,B|224:256|96:96|448:64,1,280
352,64,118947,2,2,B|352:64|448:128|64:160,1,280
128,128,121155,5,0,
480,160,121470,1,0,
320,352,121785,1,0,
96,256,122101,1,0,
288,160,122416,1,0,
320,128,123047,1,0,
160,160,123993,1,0,
128,96,124624,1,0,
256,160,125254,1,0,
256,160,125570,1,0,
256,160,125885,1,0,
256,160,126200,1,0,
480,96,126516,1,0,
480,96,126831,1,0,
480,96,127146,1,0,
480,96,127462,1,0,
128,64,138184,1,0,
384,64,141022,1,0,
384,64,141338,1,0,
384,288,143545,1,0,
384,288,143861,1,0,
384,288,144176,1,0,
96,288,145753,1,0,
96,288,146068,1,0,
128,96,148591,1,0,
352,96,150168,1,0,
352,256,151429,1,0,
96,256,153006,1,0,
96,256,153321,1,0,
96,256,153637,1,0,
96,256,153952,1,0,
256,160,155529,1,0,
256,224,156790,1,0,
256,192,158052,1,0,
192,192,159313,1,0,
384,96,160890,1,0,
96,128,162152,1,0,
96,128,162467,1,0,
96,128,162782,1,0,
96,128,163098,1,0,
96,128,163413,1,0,
288,224,164674,1,0,
352,224,165305,1,0,
288,64,165621,1,0,
128,224,166251,1,0,
96,64,167197,1,0,
192,224,170351,5,0,
320,96,171297,1,0,
320,192,171928,1,0,
128,64,172558,1,0,
128,96,173820,1,0,
128,128,174135,1,0,
128,160,174451,1,0,
128,160,174766,1,0,
128,192,175081,1,0,
320,160,176027,1,0,
256,224,176658,1,0,
256,224,176974,1,0,
256,224,177289,1,0,
160,224,177604,1,0,
288,128,178235,1,0,
352,224,178550,1,0,
160,224,178866,1,0,
64,64,179181,1,0,
192,128,179496,1,0,
192,128,179812,1,0,
192,128,180127,1,0,
352,128,180443,1,0,
96,192,181704,1,0,
320,128,182965,1,0,
256,288,184227,1,0,
96,224,184542,1,0,
288,160,184858,1,0,
128,32,185488,1,0,
256,160,185804,1,0,
352,96,186434,1,0,
128,224,187065,1,0,
192,128,188011,1,0,
352,192,188642,5,0,
160,64,189903,1,0,
256,96,190219,1,0,
352,192,190534,1,0,
416,128,190849,1,0,
64,224,192111,1,0,
288,96,193057,1,0,
352,320,193372,1,0,
32,256,194949,1,0,
96,64,195265,1,0,
224,288,195580,1,0,
320,96,195895,1,0,
352,224,196211,1,0,
448,64,197157,1,0,
192,224,197787,1,0,
128,96,198418,1,0,
64,192,199364,1,0,
64,192,199680,1,0,
160,192,199995,1,0,
160,192,200310,1,0,
160,192,200626,1,0,
128,192,200941,1,0,
128,192,201256,1,0,
160,64,202518,1,0,
64,160,203779,1,0,
192,224,205041,1,0,
64,160,207564,1,0,
64,64,209456,1,0,
160,160,209771,1,0,
224,32,210086,1,0,
256,64,210402,1,0,
320,96,210717,1,0,
352,32,211033,1,0,
416,128,211348,1,0,
448,64,211663,1,0,
96,256,214186,1,0,
96,256,214502,1,0,
384,256,217024,1,0,
384,256,217340,1,0,
384,96,219863,1,0,
128,128,222070,5,0,
128,128,222386,1,0,
256,192,224908,1,0,
256,192,225224,1,0,
256,192,234054,12,0,235631
