osu file format v12

[General]
AudioFilename: U&I (TV Size).mp3
AudioLeadIn: 2000
PreviewTime: 50873
Countdown: 0
SampleSet: Normal
StackLeniency: 0.7
Mode: 3
LetterboxInBreaks: 0
SpecialStyle: 0
WidescreenStoryboard: 0

[Editor]
DistanceSpacing: 0.8
BeatDivisor: 4
GridSize: 16

[Metadata]
Title:U&I (TV Size)
TitleUnicode:U&I (TV Size)
Artist:HTT
ArtistUnicode:HTT
Creator:indyinyou
Version:Amateur Drum
Source:K-ON!!
Tags:toyosaki aki hikasa youko satou satomi kotobuki minako taketatsu ayana hirasawa yui akiyama mio tainaka ritsu kotobuki tsumugi nakano azusa ho-kago insert song
BeatmapID:291149
BeatmapSetID:110522

[Difficulty]
HPDrainRate:8
CircleSize:7
OverallDifficulty:8
ApproachRate:5
SliderMultiplier:1.4
SliderTickRate:1

[Events]
//Background and Video events
0,0,"U&I (TV Size).png",0,0
Video,-3000,"U&I (TV Size).avi"
//Break Periods
//Storyboard Layer 0 (Background)
//Storyboard Layer 1 (Fail)
//Storyboard Layer 2 (Pass)
//Storyboard Layer 3 (Foreground)
//Storyboard Sound Samples
//Background Colour Transformations
3,100,163,162,255

[TimingPoints]
65,285.714285714286,4,1,1,70,1,0
51493,-100,4,1,1,70,0,1
65207,-100,4,1,1,70,0,0
69778,-100,4,1,1,70,0,1
86922,-100,4,1,1,70,0,0

[HitObjects]
329,192,493,1,0,0:0:0:55:normal-hitclap.wav
109,192,636,1,0,0:0:0:55:normal-hitclap.wav
402,192,779,1,0,0:0:0:55:normal-hitclap.wav
109,192,922,1,0,0:0:0:55:normal-hitclap.wav
329,192,1065,1,0,0:0:0:55:normal-hitclap.wav
36,192,1207,1,0,0:0:0:55:drum-hitfinish.wav
475,192,1207,1,0,0:0:0:70:normal-hitwhistle.wav
329,192,1493,1,0,0:0:0:70:normal-hitclap.wav
475,192,1493,1,0,0:0:0:70:normal-hitfinish.wav
109,192,1636,1,0,0:0:0:70:normal-hitwhistle.wav
402,192,1779,1,0,0:0:0:70:normal-hitfinish.wav
109,192,1922,1,0,0:0:0:70:normal-hitwhistle.wav
329,192,2065,1,0,0:0:0:70:normal-hitclap.wav
475,192,2065,1,0,0:0:0:70:normal-hitfinish.wav
256,192,2350,1,6,0:0:0:0:
329,192,2636,1,0,0:0:0:70:normal-hitclap.wav
475,192,2636,1,0,0:0:0:70:normal-hitfinish.wav
109,192,2779,1,0,0:0:0:70:normal-hitwhistle.wav
402,192,2922,1,0,0:0:0:70:normal-hitfinish.wav
109,192,3065,1,0,0:0:0:70:normal-hitwhistle.wav
329,192,3207,1,0,0:0:0:70:normal-hitclap.wav
475,192,3207,1,0,0:0:0:70:normal-hitfinish.wav
256,192,3493,1,6,0:0:0:0:
182,192,3779,1,0,0:0:0:70:normal-hitclap.wav
36,192,3779,1,0,0:0:0:70:normal-hitfinish.wav
402,192,3922,1,0,0:0:0:70:normal-hitwhistle.wav
109,192,4065,1,0,0:0:0:70:normal-hitfinish.wav
402,192,4207,1,0,0:0:0:70:normal-hitwhistle.wav
182,192,4350,1,0,0:0:0:70:normal-hitclap.wav
36,192,4350,1,0,0:0:0:70:normal-hitfinish.wav
256,192,4636,1,6,0:0:0:0:
36,192,4922,1,0,0:0:0:70:normal-hitfinish.wav
182,192,4922,1,0,0:0:0:70:normal-hitclap.wav
402,192,5065,1,0,0:0:0:70:normal-hitwhistle.wav
109,192,5207,1,0,0:0:0:70:normal-hitfinish.wav
402,192,5350,1,0,0:0:0:70:normal-hitwhistle.wav
182,192,5493,1,0,0:0:0:70:normal-hitclap.wav
36,192,5493,1,0,0:0:0:70:normal-hitfinish.wav
475,192,5779,1,0,0:0:0:70:normal-hitwhistle.wav
36,192,5779,1,0,0:0:0:55:drum-hitfinish.wav
36,192,6065,1,0,0:0:0:70:normal-hitfinish.wav
182,192,6065,1,0,0:0:0:70:normal-hitclap.wav
402,192,6207,1,0,0:0:0:70:normal-hitwhistle.wav
109,192,6350,1,0,0:0:0:70:normal-hitfinish.wav
402,192,6493,1,0,0:0:0:70:normal-hitwhistle.wav
36,192,6636,1,0,0:0:0:70:normal-hitfinish.wav
329,192,6636,1,0,0:0:0:70:normal-hitclap.wav
256,192,6922,1,6,0:0:0:0:
36,192,7207,1,0,0:0:0:70:normal-hitfinish.wav
182,192,7207,1,0,0:0:0:70:normal-hitclap.wav
402,192,7350,1,0,0:0:0:70:normal-hitwhistle.wav
109,192,7493,1,0,0:0:0:70:normal-hitfinish.wav
402,192,7636,1,0,0:0:0:70:normal-hitwhistle.wav
36,192,7779,1,0,0:0:0:70:normal-hitfinish.wav
329,192,7779,1,0,0:0:0:70:normal-hitclap.wav
256,192,8065,1,6,0:0:0:0:
475,192,8350,1,0,0:0:0:70:normal-hitfinish.wav
329,192,8350,1,0,0:0:0:70:normal-hitclap.wav
109,192,8493,1,0,0:0:0:70:normal-hitwhistle.wav
402,192,8636,1,0,0:0:0:70:normal-hitfinish.wav
109,192,8779,1,0,0:0:0:70:normal-hitwhistle.wav
475,192,8922,1,0,0:0:0:70:normal-hitfinish.wav
182,192,8922,1,0,0:0:0:70:normal-hitclap.wav
402,192,9207,1,0,0:0:0:70:normal-hitwhistle.wav
36,192,9207,1,0,0:0:0:55:drum-hitfinish.wav
109,192,9350,1,0,0:0:0:70:normal-hitwhistle.wav
329,192,9493,1,0,0:0:0:70:normal-hitclap.wav
182,192,9493,1,0,0:0:0:70:normal-hitfinish.wav
256,192,9779,1,0,0:0:0:70:normal-hitwhistle.wav
329,192,9922,1,0,0:0:0:55:normal-hitclap.wav
182,192,10065,1,0,0:0:0:55:normal-hitclap.wav
329,192,10207,1,0,0:0:0:70:normal-hitclap.wav
475,192,10350,1,0,0:0:0:65:drum-hitfinish.wav
36,192,10350,1,0,0:0:0:70:normal-hitwhistle.wav
329,192,10636,1,0,0:0:0:70:normal-hitclap.wav
109,192,10779,1,0,0:0:0:70:normal-hitwhistle.wav
109,192,11065,1,0,0:0:0:70:normal-hitwhistle.wav
475,192,11207,1,0,0:0:0:70:normal-hitclap.wav
256,192,11493,1,0,0:0:0:70:normal-hitwhistle.wav
329,192,11779,1,0,0:0:0:70:normal-hitclap.wav
109,192,11922,1,0,0:0:0:70:normal-hitwhistle.wav
109,192,12207,1,0,0:0:0:70:normal-hitwhistle.wav
475,192,12350,1,0,0:0:0:70:normal-hitclap.wav
109,192,12636,1,0,0:0:0:70:normal-hitwhistle.wav
402,192,12779,1,0,0:0:0:70:normal-hitwhistle.wav
329,192,12922,1,0,0:0:0:70:normal-hitclap.wav
109,192,13207,1,0,0:0:0:70:normal-hitwhistle.wav
402,192,13350,1,0,0:0:0:70:normal-hitwhistle.wav
329,192,13493,1,0,0:0:0:70:normal-hitclap.wav
402,192,13779,1,0,0:0:0:70:normal-hitclap.wav
109,192,13779,1,0,0:0:0:35:drum-hitfinish2.wav
475,192,14065,1,0,0:0:0:70:normal-hitclap.wav
36,192,14065,1,0,0:0:0:35:drum-hitfinish2.wav
329,192,14350,1,0,0:0:0:70:normal-hitclap.wav
182,192,14350,1,0,0:0:0:35:drum-hitfinish2.wav
402,192,14636,1,0,0:0:0:70:normal-hitclap.wav
109,192,14636,1,0,0:0:0:35:drum-hitfinish2.wav
36,192,14922,1,0,0:0:0:60:drum-hitfinish.wav
475,192,14922,1,0,0:0:0:70:normal-hitwhistle.wav
329,192,15207,1,0,0:0:0:70:normal-hitclap.wav
36,192,15493,1,0,0:0:0:40:normal-hitfinish3.wav
402,192,15636,1,0,0:0:0:70:normal-hitwhistle.wav
182,192,15779,1,0,0:0:0:70:normal-hitclap.wav
256,192,16065,1,0,0:0:0:70:normal-hitwhistle.wav
329,192,16350,1,0,0:0:0:70:normal-hitclap.wav
36,192,16636,1,0,0:0:0:70:normal-hitfinish3.wav
402,192,16779,1,0,0:0:0:70:normal-hitwhistle.wav
182,192,16922,1,0,0:0:0:70:normal-hitclap.wav
256,192,17207,1,0,0:0:0:70:normal-hitwhistle.wav
329,192,17493,1,0,0:0:0:70:normal-hitclap.wav
36,192,17779,1,0,0:0:0:70:normal-hitfinish3.wav
402,192,17922,1,0,0:0:0:70:normal-hitwhistle.wav
182,192,18065,1,0,0:0:0:70:normal-hitclap.wav
256,192,18350,1,0,0:0:0:70:normal-hitwhistle.wav
329,192,18636,1,0,0:0:0:70:normal-hitclap.wav
109,192,18779,1,0,0:0:0:70:normal-hitwhistle.wav
109,192,19065,1,0,0:0:0:70:normal-hitwhistle.wav
182,192,19207,1,0,0:0:0:70:normal-hitclap.wav
475,192,19207,1,0,0:0:0:70:drum-hitfinish3.wav
256,192,19493,1,0,0:0:0:70:normal-hitwhistle.wav
182,192,19779,1,0,0:0:0:70:normal-hitclap.wav
475,192,20065,1,0,0:0:0:70:normal-hitfinish3.wav
109,192,20207,1,0,0:0:0:70:normal-hitwhistle.wav
329,192,20350,1,0,0:0:0:70:normal-hitclap.wav
256,192,20636,1,0,0:0:0:70:normal-hitwhistle.wav
182,192,20922,1,0,0:0:0:70:normal-hitclap.wav
475,192,21207,1,0,0:0:0:70:normal-hitfinish3.wav
109,192,21350,1,0,0:0:0:70:normal-hitwhistle.wav
329,192,21493,1,0,0:0:0:70:normal-hitclap.wav
256,192,21779,1,0,0:0:0:70:normal-hitwhistle.wav
182,192,22065,1,0,0:0:0:70:normal-hitclap.wav
475,192,22350,1,0,0:0:0:70:normal-hitfinish3.wav
109,192,22493,1,0,0:0:0:70:normal-hitwhistle.wav
329,192,22636,1,0,0:0:0:70:normal-hitclap.wav
256,192,22922,1,0,0:0:0:70:normal-hitwhistle.wav
182,192,23207,1,0,0:0:0:70:normal-hitclap.wav
402,192,23350,1,0,0:0:0:70:normal-hitwhistle.wav
402,192,23636,1,0,0:0:0:70:normal-hitwhistle.wav
36,192,23779,1,0,0:0:0:70:drum-hitfinish3.wav
182,192,23779,1,0,0:0:0:70:normal-hitclap.wav
36,192,24065,1,0,0:0:0:55:drum-hitfinish.wav
475,192,24065,1,0,0:0:0:70:normal-hitwhistle.wav
329,192,24350,1,0,0:0:0:70:normal-hitclap.wav
36,192,24636,1,0,0:0:0:70:normal-hitfinish3.wav
109,192,24779,1,0,0:0:0:70:normal-hitwhistle.wav
475,192,24922,1,0,0:0:0:70:normal-hitclap.wav
256,192,25207,1,0,0:0:0:70:normal-hitwhistle.wav
329,192,25493,1,0,0:0:0:70:normal-hitclap.wav
36,192,25779,1,0,0:0:0:70:normal-hitfinish3.wav
182,192,25922,1,0,0:0:0:70:normal-hitwhistle.wav
475,192,26065,1,0,0:0:0:70:normal-hitclap.wav
256,192,26350,1,0,0:0:0:70:normal-hitwhistle.wav
329,192,26636,1,0,0:0:0:70:normal-hitclap.wav
36,192,26922,1,0,0:0:0:70:normal-hitfinish3.wav
329,192,27065,1,0,0:0:0:70:normal-hitwhistle.wav
475,192,27207,1,0,0:0:0:70:normal-hitclap.wav
256,192,27493,1,0,0:0:0:70:normal-hitwhistle.wav
329,192,27779,1,0,0:0:0:70:normal-hitclap.wav
402,192,28065,1,0,0:0:0:70:normal-hitwhistle.wav
256,192,28207,1,0,0:0:0:70:normal-hitwhistle.wav
109,192,28350,1,0,0:0:0:70:drum-hitfinish3.wav
475,192,28350,1,0,0:0:0:70:normal-hitclap.wav
475,192,28636,1,0,0:0:0:70:normal-hitwhistle.wav
36,192,28636,1,0,0:0:0:55:drum-hitfinish.wav
182,192,28922,1,0,0:0:0:70:normal-hitclap.wav
475,192,29207,1,0,0:0:0:70:normal-hitfinish3.wav
402,192,29350,1,0,0:0:0:70:normal-hitwhistle.wav
36,192,29493,1,0,0:0:0:70:normal-hitclap.wav
256,192,29779,1,0,0:0:0:70:normal-hitwhistle.wav
182,192,30065,1,0,0:0:0:70:normal-hitclap.wav
475,192,30350,1,0,0:0:0:70:normal-hitfinish3.wav
329,192,30493,1,0,0:0:0:70:normal-hitwhistle.wav
36,192,30636,1,0,0:0:0:70:normal-hitclap.wav
256,192,30922,1,0,0:0:0:70:normal-hitwhistle.wav
182,192,31207,1,0,0:0:0:70:normal-hitclap.wav
475,192,31493,1,0,0:0:0:70:normal-hitfinish3.wav
182,192,31636,1,0,0:0:0:70:normal-hitwhistle.wav
36,192,31779,1,0,0:0:0:70:normal-hitclap.wav
256,192,32065,1,0,0:0:0:70:normal-hitwhistle.wav
36,192,32350,1,0,0:0:0:50:drum-hitfinish.wav
329,192,32350,1,0,0:0:0:70:normal-hitclap.wav
256,192,32636,1,0,0:0:0:70:normal-hitwhistle.wav
402,192,32779,1,0,0:0:0:55:normal-hitclap.wav
109,192,32922,1,0,0:0:0:55:normal-hitclap.wav
402,192,33065,1,0,0:0:0:55:normal-hitclap.wav
475,192,33207,1,0,0:0:0:70:normal-hitwhistle.wav
36,192,33207,1,0,0:0:0:60:drum-hitfinish.wav
329,192,33493,1,0,0:0:0:70:normal-hitclap.wav
402,192,33922,1,0,0:0:0:70:normal-hitwhistle.wav
182,192,34065,1,0,0:0:0:70:normal-hitclap.wav
256,192,34350,1,0,0:0:0:70:normal-hitwhistle.wav
329,192,34636,1,0,0:0:0:70:normal-hitclap.wav
109,192,34779,1,0,0:0:0:70:normal-hitwhistle.wav
402,192,35065,1,0,0:0:0:70:normal-hitwhistle.wav
182,192,35207,1,0,0:0:0:70:normal-hitclap.wav
256,192,35493,1,0,0:0:0:70:normal-hitwhistle.wav
329,192,35779,1,0,0:0:0:70:normal-hitclap.wav
109,192,35922,1,0,0:0:0:70:normal-hitwhistle.wav
402,192,36207,1,0,0:0:0:70:normal-hitwhistle.wav
182,192,36350,1,0,0:0:0:70:normal-hitclap.wav
256,192,36636,1,0,0:0:0:70:normal-hitwhistle.wav
329,192,36922,1,0,0:0:0:70:normal-hitclap.wav
109,192,37065,1,0,0:0:0:70:normal-hitwhistle.wav
109,192,37350,1,0,0:0:0:70:normal-hitwhistle.wav
329,192,37493,1,0,0:0:0:70:normal-hitclap.wav
475,192,37779,1,0,0:0:0:55:drum-hitfinish.wav
36,192,37779,1,0,0:0:0:70:normal-hitwhistle.wav
475,192,38065,1,0,0:0:0:70:normal-hitclap.wav
402,192,38207,1,0,0:0:0:70:normal-hitwhistle.wav
109,192,38493,1,0,0:0:0:70:normal-hitwhistle.wav
36,192,38636,1,0,0:0:0:70:normal-hitclap.wav
256,192,38922,1,0,0:0:0:70:normal-hitwhistle.wav
475,192,39207,1,0,0:0:0:70:normal-hitclap.wav
402,192,39350,1,0,0:0:0:70:normal-hitwhistle.wav
109,192,39636,1,0,0:0:0:70:normal-hitwhistle.wav
36,192,39779,1,0,0:0:0:70:normal-hitclap.wav
256,192,40065,1,0,0:0:0:70:normal-hitwhistle.wav
475,192,40350,1,0,0:0:0:70:normal-hitclap.wav
402,192,40493,1,0,0:0:0:70:normal-hitwhistle.wav
109,192,40779,1,0,0:0:0:70:normal-hitwhistle.wav
36,192,40922,1,0,0:0:0:70:normal-hitclap.wav
109,192,41207,1,0,0:0:0:70:normal-hitwhistle.wav
109,192,41350,1,0,0:0:0:70:normal-hitwhistle.wav
36,192,41493,1,0,0:0:0:70:normal-hitclap.wav
329,192,41493,1,0,0:0:0:55:drum-hitfinish.wav
402,192,41779,1,0,0:0:0:70:normal-hitwhistle.wav
402,192,41922,1,0,0:0:0:70:normal-hitwhistle.wav
182,192,42065,1,0,0:0:0:60:drum-hitfinish.wav
475,192,42065,1,0,0:0:0:70:normal-hitclap.wav
475,192,42350,1,0,0:0:0:60:drum-hitfinish.wav
36,192,42350,1,0,0:0:0:70:normal-hitwhistle.wav
329,192,42636,1,0,0:0:0:70:normal-hitclap.wav
109,192,43065,1,0,0:0:0:70:normal-hitwhistle.wav
256,192,43207,1,0,0:0:0:70:normal-hitclap.wav
475,192,43493,1,0,0:0:0:70:normal-hitwhistle.wav
329,192,43779,1,0,0:0:0:70:normal-hitclap.wav
109,192,44207,1,0,0:0:0:70:normal-hitwhistle.wav
256,192,44350,1,0,0:0:0:70:normal-hitclap.wav
475,192,44636,1,0,0:0:0:70:normal-hitwhistle.wav
329,192,44922,1,0,0:0:0:70:normal-hitclap.wav
109,192,45350,1,0,0:0:0:70:normal-hitwhistle.wav
256,192,45493,1,0,0:0:0:70:normal-hitclap.wav
475,192,45779,1,0,0:0:0:70:normal-hitwhistle.wav
329,192,46065,1,0,0:0:0:70:normal-hitclap.wav
109,192,46207,1,0,0:0:0:70:normal-hitwhistle.wav
256,192,46493,1,0,0:0:0:70:normal-hitwhistle.wav
475,192,46636,1,0,0:0:0:55:drum-hitfinish.wav
36,192,46636,1,0,0:0:0:70:normal-hitclap.wav
475,192,46922,1,0,0:0:0:60:drum-hitfinish.wav
109,192,46922,1,0,0:0:0:70:normal-hitwhistle.wav
36,192,47207,1,0,0:0:0:70:normal-hitclap.wav
109,192,47636,1,0,0:0:0:70:normal-hitwhistle.wav
329,192,47779,1,0,0:0:0:70:normal-hitclap.wav
109,192,48065,1,0,0:0:0:70:normal-hitwhistle.wav
475,192,48065,1,0,0:0:0:55:drum-hitfinish.wav
36,192,48350,1,0,0:0:0:70:normal-hitclap.wav
109,192,48779,1,0,0:0:0:70:normal-hitwhistle.wav
329,192,48922,1,0,0:0:0:70:normal-hitclap.wav
402,192,49207,1,0,0:0:0:70:normal-hitwhistle.wav
36,192,49207,1,0,0:0:0:55:drum-hitfinish.wav
475,192,49493,1,0,0:0:0:70:normal-hitclap.wav
109,192,49922,1,0,0:0:0:70:normal-hitwhistle.wav
329,192,50065,1,0,0:0:0:70:normal-hitclap.wav
256,192,50350,1,0,0:0:0:70:normal-hitwhistle.wav
182,192,50493,1,0,0:0:0:55:normal-hitclap.wav
329,192,50636,1,0,0:0:0:55:normal-hitclap.wav
109,192,50779,1,0,0:0:0:55:normal-hitclap.wav
402,192,50922,1,0,0:0:0:55:normal-hitclap.wav
182,192,51065,1,0,0:0:0:55:normal-hitclap.wav
329,192,51207,1,0,0:0:0:55:normal-hitclap.wav
256,192,51350,1,0,0:0:0:55:normal-hitclap.wav
36,192,51493,1,0,0:0:0:65:drum-hitfinish.wav
475,192,51493,1,0,0:0:0:70:normal-hitwhistle.wav
475,192,51779,1,0,0:0:0:70:normal-hitfinish.wav
329,192,51779,1,0,0:0:0:70:normal-hitclap.wav
109,192,51922,1,0,0:0:0:70:normal-hitwhistle.wav
402,192,52065,1,0,0:0:0:70:normal-hitfinish.wav
109,192,52207,1,0,0:0:0:70:normal-hitwhistle.wav
475,192,52350,1,0,0:0:0:70:normal-hitfinish.wav
329,192,52350,1,0,0:0:0:70:normal-hitclap.wav
256,192,52636,1,6,0:0:0:0:
475,192,52922,1,0,0:0:0:70:normal-hitfinish.wav
329,192,52922,1,0,0:0:0:70:normal-hitclap.wav
109,192,53065,1,0,0:0:0:70:normal-hitwhistle.wav
402,192,53207,1,0,0:0:0:70:normal-hitfinish.wav
109,192,53350,1,0,0:0:0:70:normal-hitwhistle.wav
329,192,53493,1,0,0:0:0:70:normal-hitclap.wav
475,192,53493,1,0,0:0:0:70:normal-hitfinish.wav
256,192,53779,1,6,0:0:0:0:
36,192,54065,1,0,0:0:0:70:normal-hitfinish.wav
182,192,54065,1,0,0:0:0:70:normal-hitclap.wav
402,192,54207,1,0,0:0:0:70:normal-hitwhistle.wav
109,192,54350,1,0,0:0:0:70:normal-hitfinish.wav
402,192,54493,1,0,0:0:0:70:normal-hitwhistle.wav
36,192,54636,1,0,0:0:0:70:normal-hitfinish.wav
182,192,54636,1,0,0:0:0:70:normal-hitclap.wav
256,192,54922,1,6,0:0:0:0:
182,192,55207,1,0,0:0:0:70:normal-hitclap.wav
36,192,55207,1,0,0:0:0:70:normal-hitfinish.wav
402,192,55350,1,0,0:0:0:70:normal-hitwhistle.wav
109,192,55493,1,0,0:0:0:70:normal-hitfinish.wav
402,192,55636,1,0,0:0:0:70:normal-hitwhistle.wav
36,192,55779,1,0,0:0:0:70:normal-hitfinish.wav
182,192,55779,1,0,0:0:0:70:normal-hitclap.wav
475,192,56065,1,0,0:0:0:70:normal-hitwhistle.wav
36,192,56065,1,0,0:0:0:60:drum-hitfinish.wav
475,192,56350,1,0,0:0:0:70:normal-hitfinish.wav
182,192,56350,1,0,0:0:0:70:normal-hitclap.wav
109,192,56493,1,0,0:0:0:70:normal-hitwhistle.wav
402,192,56636,1,0,0:0:0:70:normal-hitfinish.wav
109,192,56779,1,0,0:0:0:70:normal-hitwhistle.wav
475,192,56922,1,0,0:0:0:70:normal-hitfinish.wav
329,192,56922,1,0,0:0:0:70:normal-hitclap.wav
256,192,57207,1,6,0:0:0:0:
475,192,57493,1,0,0:0:0:70:normal-hitfinish.wav
182,192,57493,1,0,0:0:0:70:normal-hitclap.wav
109,192,57636,1,0,0:0:0:70:normal-hitwhistle.wav
402,192,57779,1,0,0:0:0:70:normal-hitfinish.wav
109,192,57922,1,0,0:0:0:70:normal-hitwhistle.wav
329,192,58065,1,0,0:0:0:70:normal-hitclap.wav
475,192,58065,1,0,0:0:0:70:normal-hitfinish.wav
256,192,58350,1,6,0:0:0:0:
36,192,58636,1,0,0:0:0:70:normal-hitfinish.wav
329,192,58636,1,0,0:0:0:70:normal-hitclap.wav
402,192,58779,1,0,0:0:0:70:normal-hitwhistle.wav
109,192,58922,1,0,0:0:0:70:normal-hitfinish.wav
402,192,59065,1,0,0:0:0:70:normal-hitwhistle.wav
36,192,59207,1,0,0:0:0:70:normal-hitfinish.wav
182,192,59207,1,0,0:0:0:70:normal-hitclap.wav
256,192,59493,1,6,0:0:0:0:
36,192,59779,1,0,0:0:0:70:normal-hitfinish.wav
329,192,59779,1,0,0:0:0:70:normal-hitclap.wav
402,192,59922,1,0,0:0:0:70:normal-hitwhistle.wav
109,192,60065,1,0,0:0:0:70:normal-hitfinish.wav
402,192,60207,1,0,0:0:0:70:normal-hitwhistle.wav
36,192,60350,1,0,0:0:0:70:normal-hitfinish.wav
182,192,60350,1,0,0:0:0:70:normal-hitclap.wav
36,192,60636,1,0,0:0:0:60:drum-hitfinish.wav
475,192,60636,1,0,0:0:0:70:normal-hitwhistle.wav
182,192,60922,1,0,0:0:0:70:normal-hitfinish.wav
329,192,60922,1,0,0:0:0:70:normal-hitclap.wav
402,192,61065,1,0,0:0:0:70:normal-hitwhistle.wav
36,192,61207,1,0,0:0:0:70:normal-hitfinish.wav
109,192,61350,1,0,0:0:0:70:normal-hitwhistle.wav
182,192,61493,1,0,0:0:0:70:normal-hitfinish.wav
329,192,61493,1,0,0:0:0:70:normal-hitclap.wav
256,192,61779,1,6,0:0:0:0:
182,192,62065,1,0,0:0:0:70:normal-hitfinish.wav
329,192,62065,1,0,0:0:0:70:normal-hitclap.wav
402,192,62207,1,0,0:0:0:70:normal-hitwhistle.wav
36,192,62350,1,0,0:0:0:70:normal-hitfinish.wav
109,192,62493,1,0,0:0:0:70:normal-hitwhistle.wav
182,192,62636,1,0,0:0:0:70:normal-hitfinish.wav
329,192,62636,1,0,0:0:0:70:normal-hitclap.wav
256,192,62922,1,6,0:0:0:0:
329,192,63207,1,0,0:0:0:70:normal-hitfinish.wav
182,192,63207,1,0,0:0:0:70:normal-hitclap.wav
109,192,63350,1,0,0:0:0:70:normal-hitwhistle.wav
475,192,63493,1,0,0:0:0:70:normal-hitfinish.wav
402,192,63636,1,0,0:0:0:70:normal-hitwhistle.wav
329,192,63779,1,0,0:0:0:70:normal-hitfinish.wav
182,192,63779,1,0,0:0:0:70:normal-hitclap.wav
256,192,64065,1,6,0:0:0:0:
329,192,64350,1,0,0:0:0:70:normal-hitfinish.wav
182,192,64350,1,0,0:0:0:70:normal-hitclap.wav
109,192,64493,1,0,0:0:0:70:normal-hitwhistle.wav
475,192,64636,1,0,0:0:0:70:normal-hitfinish.wav
402,192,64779,1,0,0:0:0:70:normal-hitwhistle.wav
182,192,64922,1,0,0:0:0:70:normal-hitfinish.wav
329,192,64922,1,0,0:0:0:70:normal-hitclap.wav
475,192,65207,1,0,0:0:0:70:normal-hitwhistle.wav
36,192,65207,1,0,0:0:0:55:drum-hitfinish.wav
36,192,65493,1,0,0:0:0:70:normal-hitfinish.wav
109,192,65493,1,0,0:0:0:70:normal-hitclap.wav
402,192,65636,1,0,0:0:0:70:normal-hitwhistle.wav
109,192,65779,1,0,0:0:0:70:normal-hitfinish.wav
402,192,65922,1,0,0:0:0:70:normal-hitwhistle.wav
182,192,66065,1,0,0:0:0:70:normal-hitclap.wav
36,192,66065,1,0,0:0:0:70:normal-hitfinish.wav
256,192,66350,1,6,0:0:0:0:
36,192,66636,1,0,0:0:0:70:normal-hitfinish.wav
109,192,66636,1,0,0:0:0:70:normal-hitclap.wav
402,192,66779,1,0,0:0:0:70:normal-hitwhistle.wav
109,192,66922,1,0,0:0:0:70:normal-hitfinish.wav
402,192,67065,1,0,0:0:0:70:normal-hitwhistle.wav
36,192,67207,1,0,0:0:0:70:normal-hitfinish.wav
182,192,67207,1,0,0:0:0:70:normal-hitclap.wav
109,192,67493,1,6,0:0:0:0:
329,192,67636,1,0,0:0:0:70:normal-hitwhistle.wav
36,192,67779,1,0,0:0:0:60:drum-hitfinish.wav
402,192,67779,1,0,0:0:0:70:normal-hitclap.wav
182,192,68065,1,6,0:0:0:0:
402,192,68207,1,0,0:0:0:70:normal-hitwhistle.wav
109,192,68350,1,0,0:0:0:55:drum-hitfinish.wav
475,192,68350,1,0,0:0:0:70:normal-hitclap.wav
329,192,68636,1,0,0:0:0:70:normal-hitwhistle.wav
182,192,68779,1,0,0:0:0:70:normal-hitwhistle.wav
36,192,68922,1,0,0:0:0:60:drum-hitfinish.wav
402,192,68922,1,0,0:0:0:70:normal-hitclap.wav
109,192,69207,1,0,0:0:0:70:normal-hitwhistle.wav
475,192,69207,1,0,0:0:0:40:normal-hitfinish.wav
329,192,69350,1,0,0:0:0:70:normal-hitclap.wav
182,192,69493,1,0,0:0:0:70:normal-hitclap.wav
109,192,69636,1,0,0:0:0:70:normal-hitclap.wav
475,192,69779,1,0,0:0:0:70:normal-hitwhistle.wav
36,192,69779,1,0,0:0:0:60:drum-hitfinish.wav
475,192,70065,1,0,0:0:0:70:normal-hitfinish.wav
329,192,70065,1,0,0:0:0:70:normal-hitclap.wav
109,192,70207,1,0,0:0:0:70:normal-hitwhistle.wav
402,192,70350,1,0,0:0:0:70:normal-hitfinish.wav
109,192,70493,1,0,0:0:0:70:normal-hitwhistle.wav
475,192,70636,1,0,0:0:0:70:normal-hitfinish.wav
329,192,70636,1,0,0:0:0:70:normal-hitclap.wav
256,192,70922,1,6,0:0:0:0:
475,192,71207,1,0,0:0:0:70:normal-hitfinish.wav
329,192,71207,1,0,0:0:0:70:normal-hitclap.wav
109,192,71350,1,0,0:0:0:70:normal-hitwhistle.wav
402,192,71493,1,0,0:0:0:70:normal-hitfinish.wav
109,192,71636,1,0,0:0:0:70:normal-hitwhistle.wav
475,192,71779,1,0,0:0:0:70:normal-hitfinish.wav
329,192,71779,1,0,0:0:0:70:normal-hitclap.wav
256,192,72065,1,6,0:0:0:0:
36,192,72350,1,0,0:0:0:70:normal-hitfinish.wav
182,192,72350,1,0,0:0:0:70:normal-hitclap.wav
402,192,72493,1,0,0:0:0:70:normal-hitwhistle.wav
109,192,72636,1,0,0:0:0:70:normal-hitfinish.wav
402,192,72779,1,0,0:0:0:70:normal-hitwhistle.wav
36,192,72922,1,0,0:0:0:70:normal-hitfinish.wav
182,192,72922,1,0,0:0:0:70:normal-hitclap.wav
256,192,73207,1,6,0:0:0:0:
36,192,73493,1,0,0:0:0:70:normal-hitfinish.wav
182,192,73493,1,0,0:0:0:70:normal-hitclap.wav
402,192,73636,1,0,0:0:0:70:normal-hitwhistle.wav
109,192,73779,1,0,0:0:0:70:normal-hitfinish.wav
402,192,73922,1,0,0:0:0:70:normal-hitwhistle.wav
36,192,74065,1,0,0:0:0:70:normal-hitfinish.wav
182,192,74065,1,0,0:0:0:70:normal-hitclap.wav
36,192,74350,1,0,0:0:0:55:drum-hitfinish.wav
475,192,74350,1,0,0:0:0:70:normal-hitwhistle.wav
182,192,74636,1,0,0:0:0:70:normal-hitfinish.wav
402,192,74636,1,0,0:0:0:70:normal-hitclap.wav
109,192,74779,1,0,0:0:0:70:normal-hitwhistle.wav
329,192,74922,1,0,0:0:0:70:normal-hitfinish.wav
109,192,75065,1,0,0:0:0:70:normal-hitwhistle.wav
182,192,75207,1,0,0:0:0:70:normal-hitfinish.wav
402,192,75207,1,0,0:0:0:70:normal-hitclap.wav
256,192,75493,1,6,0:0:0:0:
182,192,75779,1,0,0:0:0:70:normal-hitfinish.wav
402,192,75779,1,0,0:0:0:70:normal-hitclap.wav
109,192,75922,1,0,0:0:0:70:normal-hitwhistle.wav
329,192,76065,1,0,0:0:0:70:normal-hitfinish.wav
109,192,76207,1,0,0:0:0:70:normal-hitwhistle.wav
182,192,76350,1,0,0:0:0:70:normal-hitfinish.wav
402,192,76350,1,0,0:0:0:70:normal-hitclap.wav
256,192,76636,1,6,0:0:0:0:
329,192,76922,1,0,0:0:0:70:normal-hitfinish.wav
109,192,76922,1,0,0:0:0:70:normal-hitclap.wav
402,192,77065,1,0,0:0:0:70:normal-hitwhistle.wav
182,192,77207,1,0,0:0:0:70:normal-hitfinish.wav
402,192,77350,1,0,0:0:0:70:normal-hitwhistle.wav
329,192,77493,1,0,0:0:0:70:normal-hitfinish.wav
109,192,77493,1,0,0:0:0:70:normal-hitclap.wav
256,192,77779,1,6,0:0:0:0:
329,192,78065,1,0,0:0:0:70:normal-hitfinish.wav
109,192,78065,1,0,0:0:0:70:normal-hitclap.wav
402,192,78207,1,0,0:0:0:70:normal-hitwhistle.wav
182,192,78350,1,0,0:0:0:70:normal-hitfinish.wav
402,192,78493,1,0,0:0:0:70:normal-hitwhistle.wav
329,192,78636,1,0,0:0:0:70:normal-hitfinish.wav
109,192,78636,1,0,0:0:0:70:normal-hitclap.wav
36,192,78922,1,0,0:0:0:60:drum-hitfinish.wav
475,192,78922,1,0,0:0:0:70:normal-hitwhistle.wav
36,192,79207,1,0,0:0:0:70:normal-hitfinish.wav
329,192,79207,1,0,0:0:0:70:normal-hitclap.wav
402,192,79350,1,0,0:0:0:70:normal-hitwhistle.wav
109,192,79493,1,0,0:0:0:70:normal-hitfinish.wav
402,192,79636,1,0,0:0:0:70:normal-hitwhistle.wav
36,192,79779,1,0,0:0:0:70:normal-hitfinish.wav
182,192,79779,1,0,0:0:0:70:normal-hitclap.wav
256,192,80065,1,6,0:0:0:0:
36,192,80350,1,0,0:0:0:70:normal-hitfinish.wav
329,192,80350,1,0,0:0:0:70:normal-hitclap.wav
402,192,80493,1,0,0:0:0:70:normal-hitwhistle.wav
109,192,80636,1,0,0:0:0:70:normal-hitfinish.wav
402,192,80779,1,0,0:0:0:70:normal-hitwhistle.wav
36,192,80922,1,0,0:0:0:70:normal-hitfinish.wav
182,192,80922,1,0,0:0:0:70:normal-hitclap.wav
256,192,81207,1,6,0:0:0:0:
475,192,81493,1,0,0:0:0:70:normal-hitfinish.wav
182,192,81493,1,0,0:0:0:70:normal-hitclap.wav
109,192,81636,1,0,0:0:0:70:normal-hitwhistle.wav
402,192,81779,1,0,0:0:0:70:normal-hitfinish.wav
109,192,81922,1,0,0:0:0:70:normal-hitwhistle.wav
475,192,82065,1,0,0:0:0:70:normal-hitfinish.wav
329,192,82065,1,0,0:0:0:70:normal-hitclap.wav
256,192,82350,1,6,0:0:0:0:
475,192,82636,1,0,0:0:0:70:normal-hitfinish.wav
182,192,82636,1,0,0:0:0:70:normal-hitclap.wav
109,192,82779,1,0,0:0:0:70:normal-hitwhistle.wav
402,192,82922,1,0,0:0:0:70:normal-hitfinish.wav
109,192,83065,1,0,0:0:0:70:normal-hitwhistle.wav
475,192,83207,1,0,0:0:0:70:normal-hitfinish.wav
329,192,83207,1,0,0:0:0:70:normal-hitclap.wav
36,192,83493,1,0,0:0:0:55:drum-hitfinish.wav
475,192,83493,1,0,0:0:0:70:normal-hitwhistle.wav
182,192,83779,1,0,0:0:0:70:normal-hitfinish.wav
329,192,83779,1,0,0:0:0:70:normal-hitclap.wav
109,192,83922,1,0,0:0:0:70:normal-hitwhistle.wav
182,192,84065,1,0,0:0:0:70:normal-hitfinish.wav
402,192,84207,1,0,0:0:0:70:normal-hitwhistle.wav
182,192,84350,1,0,0:0:0:70:normal-hitfinish.wav
329,192,84350,1,0,0:0:0:70:normal-hitclap.wav
475,192,84636,1,0,0:0:0:70:normal-hitwhistle.wav
36,192,84636,1,0,0:0:0:70:normal-hitfinish.wav
182,192,84922,1,0,0:0:0:70:normal-hitfinish.wav
329,192,84922,1,0,0:0:0:70:normal-hitclap.wav
109,192,85065,1,0,0:0:0:70:normal-hitwhistle.wav
182,192,85207,1,0,0:0:0:70:normal-hitfinish.wav
402,192,85350,1,0,0:0:0:70:normal-hitwhistle.wav
182,192,85493,1,0,0:0:0:70:normal-hitfinish.wav
329,192,85493,1,0,0:0:0:70:normal-hitclap.wav
256,192,85779,1,6,0:0:0:0:
182,192,86065,1,0,0:0:0:70:normal-hitfinish.wav
329,192,86065,1,0,0:0:0:70:normal-hitclap.wav
402,192,86350,1,0,0:0:0:70:normal-hitwhistle.wav
329,192,86493,1,0,0:0:0:70:normal-hitclap.wav
182,192,86636,1,0,0:0:0:70:normal-hitclap.wav
109,192,86922,1,0,0:0:0:70:normal-hitclap.wav
402,192,86922,1,0,0:0:0:70:drim-hitwhistle2.wav
36,192,87207,1,0,0:0:0:70:normal-hitclap.wav
475,192,87207,1,0,0:0:0:70:drim-hitwhistle2.wav
182,192,87493,1,0,0:0:0:70:normal-hitclap.wav
329,192,87493,1,0,0:0:0:70:drim-hitwhistle2.wav
402,192,87779,1,0,0:0:0:70:drim-hitwhistle2.wav
109,192,87779,1,0,0:0:0:70:normal-hitclap.wav
36,192,88065,1,0,0:0:0:55:drum-hitfinish.wav
475,192,88065,1,0,0:0:0:70:normal-hitwhistle.wav
182,192,88350,1,0,0:0:0:70:normal-hitfinish.wav
329,192,88350,1,0,0:0:0:70:normal-hitclap.wav
402,192,88493,1,0,0:0:0:70:normal-hitwhistle.wav
36,192,88636,1,0,0:0:0:70:normal-hitfinish.wav
402,192,88779,1,0,0:0:0:70:normal-hitwhistle.wav
182,192,88922,1,0,0:0:0:70:normal-hitfinish.wav
329,192,88922,1,0,0:0:0:70:normal-hitclap.wav
256,192,89207,1,6,0:0:0:0:
182,192,89493,1,0,0:0:0:70:normal-hitfinish.wav
329,192,89493,1,0,0:0:0:70:normal-hitclap.wav
402,192,89636,1,0,0:0:0:70:normal-hitwhistle.wav
36,192,89779,1,0,0:0:0:70:normal-hitfinish.wav
402,192,89922,1,0,0:0:0:70:normal-hitwhistle.wav
182,192,90065,1,0,0:0:0:70:normal-hitfinish.wav
329,192,90065,1,0,0:0:0:70:normal-hitclap.wav
256,192,90350,1,6,0:0:0:0:
329,192,90636,1,0,0:0:0:70:normal-hitfinish.wav
182,192,90636,1,0,0:0:0:70:normal-hitclap.wav
109,192,90779,1,0,0:0:0:70:normal-hitwhistle.wav
475,192,90922,1,0,0:0:0:70:normal-hitfinish.wav
109,192,91065,1,0,0:0:0:70:normal-hitwhistle.wav
329,192,91207,1,0,0:0:0:70:normal-hitfinish.wav
182,192,91207,1,0,0:0:0:70:normal-hitclap.wav
256,192,91493,1,6,0:0:0:0:
329,192,91779,1,0,0:0:0:70:normal-hitfinish.wav
182,192,91779,1,0,0:0:0:70:normal-hitclap.wav
109,192,91922,1,0,0:0:0:70:normal-hitwhistle.wav
475,192,92065,1,0,0:0:0:70:normal-hitfinish.wav
109,192,92207,1,0,0:0:0:70:normal-hitwhistle.wav
182,192,92350,1,0,0:0:0:70:normal-hitfinish.wav
329,192,92350,1,0,0:0:0:70:normal-hitclap.wav
36,192,92636,1,0,0:0:0:60:drum-hitfinish.wav
475,192,92636,1,0,0:0:0:70:normal-hitwhistle.wav
329,192,92922,1,0,0:0:0:70:normal-hitfinish.wav
475,192,92922,1,0,0:0:0:70:normal-hitclap.wav
109,192,93065,1,0,0:0:0:70:normal-hitwhistle.wav
475,192,93207,1,0,0:0:0:70:normal-hitfinish.wav
109,192,93350,1,0,0:0:0:70:normal-hitwhistle.wav
475,192,93493,1,0,0:0:0:70:normal-hitfinish.wav
329,192,93493,1,0,0:0:0:70:normal-hitclap.wav
256,192,93779,1,6,0:0:0:0:
475,192,94065,1,0,0:0:0:70:normal-hitfinish.wav
329,192,94065,1,0,0:0:0:70:normal-hitclap.wav
109,192,94207,1,0,0:0:0:70:normal-hitwhistle.wav
475,192,94350,1,0,0:0:0:70:normal-hitfinish.wav
109,192,94493,1,0,0:0:0:70:normal-hitwhistle.wav
475,192,94636,1,0,0:0:0:70:normal-hitfinish.wav
329,192,94636,1,0,0:0:0:70:normal-hitclap.wav
256,192,94922,1,6,0:0:0:0:
182,192,95207,1,0,0:0:0:70:normal-hitclap.wav
36,192,95207,1,0,0:0:0:70:normal-hitfinish.wav
402,192,95350,1,0,0:0:0:70:normal-hitwhistle.wav
36,192,95493,1,0,0:0:0:70:normal-hitfinish.wav
402,192,95636,1,0,0:0:0:70:normal-hitwhistle.wav
36,192,95779,1,0,0:0:0:70:normal-hitfinish.wav
182,192,95779,1,0,0:0:0:70:normal-hitclap.wav
256,192,96065,1,6,0:0:0:0:
36,192,96350,1,0,0:0:0:70:normal-hitfinish.wav
182,192,96350,1,0,0:0:0:70:normal-hitclap.wav
402,192,96636,1,0,0:0:0:70:normal-hitwhistle.wav
36,192,96636,1,0,0:0:0:70:normal-hitfinish.wav
329,192,96779,1,0,0:0:0:70:normal-hitclap.wav
182,192,96922,1,0,0:0:0:70:normal-hitclap.wav
329,192,97065,1,0,0:0:0:70:normal-hitclap.wav
36,192,97207,1,0,0:0:0:55:drum-hitfinish.wav
475,192,97207,1,0,0:0:0:70:normal-hitwhistle.wav
182,192,97493,1,0,0:0:0:70:normal-hitfinish.wav
475,192,97493,1,0,0:0:0:70:normal-hitclap.wav
109,192,97636,1,0,0:0:0:70:normal-hitwhistle.wav
329,192,97779,1,0,0:0:0:70:normal-hitfinish.wav
109,192,97922,1,0,0:0:0:70:normal-hitwhistle.wav
182,192,98065,1,0,0:0:0:70:normal-hitfinish.wav
475,192,98065,1,0,0:0:0:70:normal-hitclap.wav
256,192,98350,1,6,0:0:0:0:
182,192,98636,1,0,0:0:0:70:normal-hitfinish.wav
475,192,98636,1,0,0:0:0:70:normal-hitclap.wav
109,192,98779,1,0,0:0:0:70:normal-hitwhistle.wav
329,192,98922,1,0,0:0:0:70:normal-hitfinish.wav
109,192,99065,1,0,0:0:0:70:normal-hitwhistle.wav
182,192,99207,1,0,0:0:0:70:normal-hitfinish.wav
475,192,99207,1,0,0:0:0:70:normal-hitclap.wav
256,192,99493,1,6,0:0:0:0:
329,192,99779,1,0,0:0:0:70:normal-hitfinish.wav
36,192,99779,1,0,0:0:0:70:normal-hitclap.wav
402,192,99922,1,0,0:0:0:70:normal-hitwhistle.wav
182,192,100065,1,0,0:0:0:70:normal-hitfinish.wav
402,192,100207,1,0,0:0:0:70:normal-hitwhistle.wav
36,192,100350,1,0,0:0:0:70:normal-hitfinish.wav
329,192,100350,1,0,0:0:0:70:normal-hitclap.wav
402,192,100636,1,6,0:0:0:0:
402,192,100779,1,0,0:0:0:70:normal-hitwhistle.wav
182,192,100922,1,0,0:0:0:70:normal-hitclap.wav
475,192,100922,1,0,0:0:0:70:normal-hitfinish.wav
109,192,101207,1,6,0:0:0:0:
109,192,101350,1,0,0:0:0:70:normal-hitwhistle.wav
36,192,101493,1,0,0:0:0:70:normal-hitclap.wav
329,192,101493,1,0,0:0:0:70:normal-hitfinish.wav
402,192,101779,1,0,0:0:0:70:normal-hitwhistle.wav
36,192,101779,1,0,0:0:0:60:drum-hitfinish.wav
36,192,102065,1,0,0:0:0:70:normal-hitfinish.wav
109,192,102065,1,0,0:0:0:70:normal-hitclap.wav
402,192,102207,1,0,0:0:0:70:normal-hitwhistle.wav
36,192,102350,1,0,0:0:0:70:normal-hitfinish.wav
402,192,102493,1,0,0:0:0:70:normal-hitwhistle.wav
36,192,102636,1,0,0:0:0:70:normal-hitfinish.wav
182,192,102636,1,0,0:0:0:70:normal-hitclap.wav
256,192,102922,1,6,0:0:0:0:
36,192,103207,1,0,0:0:0:70:normal-hitfinish.wav
109,192,103207,1,0,0:0:0:70:normal-hitclap.wav
402,192,103350,1,0,0:0:0:70:normal-hitwhistle.wav
36,192,103493,1,0,0:0:0:70:normal-hitfinish.wav
402,192,103636,1,0,0:0:0:70:normal-hitwhistle.wav
36,192,103779,1,0,0:0:0:70:normal-hitfinish.wav
182,192,103779,1,0,0:0:0:70:normal-hitclap.wav
256,192,104065,1,6,0:0:0:0:
475,192,104350,1,0,0:0:0:55:drum-hitfinish.wav
182,192,104350,1,0,0:0:0:70:normal-hitclap.wav
109,192,104493,1,0,0:0:0:70:normal-hitwhistle.wav
475,192,104636,1,0,0:0:0:70:normal-hitfinish.wav
109,192,104779,1,0,0:0:0:70:normal-hitwhistle.wav
36,192,104922,1,0,0:0:0:55:drum-hitfinish.wav
329,192,104922,1,0,0:0:0:70:normal-hitclap.wav
256,192,105207,1,6,0:0:0:0:
109,192,105350,1,0,0:0:0:55:normal-hitclap.wav
402,192,105493,1,0,0:0:0:55:normal-hitclap.wav
109,192,105636,1,0,0:0:0:55:normal-hitclap.wav
402,192,105779,1,0,0:0:0:55:normal-hitclap.wav
182,192,105922,1,0,0:0:0:55:normal-hitclap.wav
329,192,106065,1,0,0:0:0:55:normal-hitclap.wav
182,192,106207,1,0,0:0:0:55:normal-hitclap.wav
475,192,106350,1,0,0:0:0:60:drum-hitfinish.wav
36,192,106350,1,0,0:0:0:70:normal-hitwhistle.wav
36,192,106636,1,0,0:0:0:70:drum-hitfinish.wav
329,192,106636,1,0,0:0:0:70:normal-hitclap.wav
182,192,106922,1,0,0:0:0:70:normal-hitfinish.wav
256,192,107065,1,0,0:0:0:70:normal-hitwhistle.wav
36,192,107207,1,0,0:0:0:70:normal-hitfinish.wav
475,192,107207,1,0,0:0:0:70:normal-hitclap.wav
256,192,107493,1,6,0:0:0:0:
329,192,107779,1,0,0:0:0:70:normal-hitclap.wav
36,192,107779,1,0,0:0:0:70:normal-hitfinish.wav
402,192,107922,1,0,0:0:0:70:normal-hitwhistle.wav
182,192,108065,1,0,0:0:0:70:normal-hitfinish.wav
402,192,108207,1,0,0:0:0:70:normal-hitwhistle.wav
36,192,108350,1,0,0:0:0:70:normal-hitfinish.wav
475,192,108350,1,0,0:0:0:70:normal-hitclap.wav
402,192,108636,1,6,0:0:0:0:
109,192,108779,1,0,0:0:0:70:normal-hitwhistle.wav
256,192,108922,1,0,0:0:0:70:normal-hitclap.wav
402,192,109207,1,6,0:0:0:0:
109,192,109350,1,0,0:0:0:70:normal-hitwhistle.wav
256,192,109493,1,0,0:0:0:70:normal-hitclap.wav
475,192,109779,1,0,0:0:0:70:normal-hitclap.wav
36,192,109779,1,0,0:0:0:55:drim-hitwhistle2.wav
329,192,110065,1,0,0:0:0:55:drim-hitwhistle2.wav
182,192,110065,1,0,0:0:0:70:normal-hitclap.wav
109,192,110350,1,0,0:0:0:55:drim-hitwhistle2.wav
402,192,110350,1,0,0:0:0:70:normal-hitclap.wav
475,192,110636,1,0,0:0:0:70:normal-hitwhistle.wav
36,192,110636,1,0,0:0:0:70:drum-hitfinish.wav
475,192,113065,1,0,0:0:0:70:normal-hitwhistle.wav
402,192,113172,1,0,0:0:0:30:drim-hitwhistle2.wav
329,192,113243,1,0,0:0:0:30:drum-hitfinish2.wav
256,192,113422,1,0,0:0:0:70:normal-hitwhistle.wav
