osu file format v12

[General]
AudioFilename: Tenshi_ni_Fureta_yo!_(Full_ver.).mp3
AudioLeadIn: 1000
PreviewTime: 59940
Countdown: 0
SampleSet: Normal
StackLeniency: 0.7
Mode: 0
LetterboxInBreaks: 1

[Editor]
DistanceSpacing: 1.2
BeatDivisor: 4
GridSize: 4

[Metadata]
Title:Tenshi ni Fureta yo!
TitleUnicode:天使にふれたよ!
Artist:HTT
ArtistUnicode:HTT
Creator:indyinyou
Version:Insane
Source:K-ON!!
Tags:toyosaki aki hikasa youko satou satomi kotobuki minako taketatsu ayana hirasawa yui akiyama mio tainaka ritsu kotobuki tsumugi nakano azusa ho-kago insert song
BeatmapID:128680
BeatmapSetID:40568

[Difficulty]
HPDrainRate:7
CircleSize:4
OverallDifficulty:7
ApproachRate:8
SliderMultiplier:1.82
SliderTickRate:2

[Events]
//Background and Video events
0,0,"K-on!!.jpg",0,0
//Break Periods
2,92961,100216
2,203731,216883
//Storyboard Layer 0 (Background)
//Storyboard Layer 1 (Fail)
//Storyboard Layer 2 (Pass)
//Storyboard Layer 3 (Foreground)
//Storyboard Sound Samples
//Background Colour Transformations
3,100,0,0,0

[TimingPoints]
2505,512.820512820513,4,2,2,80,1,0
6159,-100,4,1,2,80,0,0
6492,-100,4,2,2,80,0,0
6736,-100,4,1,2,75,0,0
7248,-100,4,2,2,70,0,0
7505,-100,4,1,2,80,0,0
8274,-200,4,2,2,80,0,0
8530,-200,4,1,3,15,0,0
9556,-200,4,1,2,80,0,0
9807,-100,4,2,2,80,0,0
10069,-100,4,2,2,80,0,0
10454,-100,4,2,2,60,0,0
10838,-100,4,2,1,60,0,0
13915,-100,4,1,1,75,0,0
14171,-100,4,2,1,70,0,0
14424,-100,4,1,1,75,0,0
14684,-100,4,2,1,60,0,0
18018,-100,4,1,1,75,0,0
18274,-100,4,2,1,70,0,0
18530,-100,4,1,1,75,0,0
18787,-100,4,2,1,60,0,0
22120,-100,4,1,1,70,0,0
22377,-100,4,2,1,80,0,0
22633,-100,4,2,1,60,0,0
26223,-100,4,1,1,70,0,0
26479,-100,4,2,2,70,0,0
26992,-100,4,2,2,60,0,0
30325,-100,4,1,1,75,0,0
30582,-100,4,2,1,70,0,0
30838,-100,4,1,1,75,0,0
31094,-100,4,2,1,60,0,0
34428,-100,4,1,1,75,0,0
34684,-100,4,2,1,70,0,0
34940,-100,4,1,1,75,0,0
35197,-100,4,2,1,60,0,0
38530,-100,4,1,1,75,0,0
38787,-100,4,2,1,70,0,0
39043,-100,4,2,1,60,0,0
41351,-100,4,1,2,80,0,0
41864,-100,4,2,2,70,0,0
42120,-100,4,1,2,70,0,0
42441,-100,4,1,2,80,0,0
42642,-100,4,1,2,80,0,0
43402,-100,4,2,2,80,0,0
43658,-100,4,2,1,80,0,0
51607,-100,4,2,2,70,0,0
51864,-100,4,2,1,80,0,0
53659,-100,4,2,2,80,0,0
53915,-100,4,2,1,80,0,0
55710,-100,4,2,2,80,0,0
55966,-100,4,2,1,80,0,0
58274,-100,4,2,2,75,0,0
58530,-100,4,1,2,80,0,0
59300,-100,4,2,2,70,0,0
59812,-100,4,2,2,100,0,0
59940,-100,4,2,2,100,0,1
60069,-100,4,2,1,100,0,1
68018,-100,4,2,2,80,0,1
68274,-100,4,2,1,100,0,1
68787,-100,4,2,2,100,0,1
69043,-100,4,2,1,100,0,1
70133,-100,4,2,2,85,0,1
70261,-100,4,2,1,100,0,1
70838,-100,4,2,2,100,0,1
71607,-100,4,2,1,100,0,1
72120,-100,4,2,2,80,0,1
72377,-100,4,2,1,100,0,1
74684,-100,4,2,2,90,0,1
74941,-100,4,1,1,100,0,1
75133,-100,4,1,2,100,0,1
75454,-100,4,1,2,100,0,1
75710,-100,4,2,2,90,0,1
75966,-100,4,2,1,100,0,1
76287,-100,4,2,2,90,0,1
76415,-100,4,2,1,100,0,1
76992,-100,4,2,1,100,0,1
79300,-100,4,2,2,100,0,1
79812,-100,4,2,2,80,0,1
80069,-100,4,2,2,100,0,1
80325,-100,4,2,2,100,0,1
80582,-100,4,2,1,100,0,1
84428,-100,4,2,2,80,0,1
84684,-100,4,2,1,100,0,1
84941,-100,4,2,2,100,0,1
85197,-100,4,2,2,100,0,1
85454,-100,4,2,2,100,0,1
86543,-100,4,2,2,85,0,1
86671,-100,4,2,1,100,0,1
87248,-100,4,2,2,100,0,1
87505,-100,4,2,2,100,0,1
88018,-100,4,2,1,100,0,1
88530,-100,4,2,2,80,0,1
88787,-100,4,2,1,100,0,1
89043,-100,4,2,1,85,0,1
89428,-100,4,1,2,100,0,1
90966,-100,4,2,2,80,0,1
91607,-100,4,1,2,90,0,1
91800,-100,4,1,2,80,0,1
91928,-100,4,1,2,70,0,1
92056,-100,4,1,2,65,0,1
92184,-100,4,1,2,60,0,1
92312,-100,4,1,2,55,0,1
92441,-100,4,1,2,50,0,1
92761,-100,4,2,2,100,0,0
100838,-100,4,2,2,60,0,0
101100,-100,4,2,1,80,0,0
104171,-100,4,1,1,75,0,0
104428,-100,4,2,1,70,0,0
104684,-100,4,1,1,75,0,0
104940,-100,4,2,1,60,0,0
108274,-100,4,1,1,75,0,0
108530,-100,4,2,1,70,0,0
108787,-100,4,1,1,75,0,0
109043,-100,4,2,1,60,0,0
112377,-100,4,1,1,75,0,0
112633,-100,4,2,1,70,0,0
112889,-100,4,1,1,75,0,0
113146,-100,4,2,1,60,0,0
116479,-100,4,1,1,75,0,0
116736,-100,4,2,2,60,0,0
116992,-100,4,1,1,75,0,0
117248,-100,4,2,2,80,0,0
117505,-100,4,2,1,60,0,0
120582,-100,4,1,1,75,0,0
120838,-100,4,2,1,70,0,0
121094,-100,4,1,1,70,0,0
121351,-100,4,2,1,60,0,0
124684,-100,4,1,1,75,0,0
124941,-100,4,2,1,70,0,0
125197,-100,4,1,1,75,0,0
125453,-100,4,2,1,60,0,0
128787,-100,4,1,1,75,0,0
129043,-100,4,2,1,70,0,0
129299,-100,4,2,1,60,0,0
131607,-100,4,1,2,90,0,0
132120,-100,4,2,2,70,0,0
132376,-100,4,1,2,85,0,0
132697,-100,4,1,2,80,0,0
132889,-100,4,1,2,85,0,0
133658,-100,4,2,2,80,0,0
133915,-100,4,2,1,80,0,0
141863,-100,4,2,2,70,0,0
142120,-100,4,2,1,80,0,0
143915,-100,4,2,2,80,0,0
144171,-100,4,2,1,80,0,0
145966,-100,4,2,2,80,0,0
146222,-100,4,2,1,80,0,0
148081,-100,4,1,2,60,0,0
148210,-100,4,1,2,65,0,0
148338,-100,4,1,2,70,0,0
148466,-100,4,1,2,75,0,0
148594,-100,4,1,2,80,0,0
148787,-100,4,1,2,90,0,0
149043,-100,4,1,2,70,0,0
149299,-100,4,1,1,80,0,0
149428,-100,4,1,3,35,0,0
149556,-100,4,2,2,55,0,0
150069,-100,4,2,2,100,0,0
150197,-100,4,2,2,100,0,1
150325,-100,4,2,2,100,0,1
158274,-100,4,2,2,80,0,1
158530,-100,4,2,1,100,0,1
159043,-100,4,2,2,90,0,1
159299,-100,4,2,1,100,0,1
160389,-100,4,2,2,85,0,1
160517,-100,4,2,1,100,0,1
161094,-100,4,2,2,100,0,1
161351,-100,4,2,1,100,0,1
161863,-100,4,2,1,100,0,1
162376,-100,4,2,2,80,0,1
162633,-100,4,2,1,100,0,1
164428,-100,4,2,2,80,0,1
164684,-100,4,2,1,100,0,1
165197,-100,4,2,1,100,0,1
165453,-100,4,1,1,100,0,1
165966,-100,4,2,2,90,0,1
166222,-100,4,2,1,80,0,1
166479,-100,4,2,2,100,0,1
166735,-100,4,2,1,100,0,1
170133,-100,4,2,2,80,0,1
170261,-100,4,2,1,100,0,1
170581,-100,4,2,2,100,0,1
170838,-100,4,2,1,100,0,1
173402,-100,4,1,2,80,0,1
173594,-100,4,1,2,75,0,1
173722,-100,4,1,2,75,0,1
173979,-100,4,1,2,75,0,1
174171,-100,4,1,2,80,0,1
174428,-100,4,1,2,90,0,1
174748,-100,4,2,2,80,0,1
174876,-100,4,2,1,100,0,1
175453,-100,4,2,2,100,0,1
175710,-100,4,2,1,100,0,1
176799,-100,4,2,2,85,0,1
176928,-100,4,2,1,100,0,1
177505,-100,4,2,2,100,0,1
177761,-100,4,2,1,100,0,1
178530,-100,4,1,2,100,0,1
178851,-100,4,2,2,80,0,1
178979,-100,4,2,1,100,0,1
180902,-100,4,1,2,80,0,1
181094,-100,4,1,3,20,0,1
181351,-100,4,2,2,80,0,1
181479,-100,4,2,2,80,0,0
181607,-100,4,1,2,80,0,0
182889,-100,4,2,2,80,0,0
183017,-100,4,2,2,80,0,0
183402,-100,4,2,2,85,0,0
183787,-100,4,1,2,80,0,0
184684,-100,4,2,2,75,0,0
184940,-100,4,2,1,80,0,0
185197,-100,4,1,2,75,0,0
185710,-100,4,2,2,80,0,0
185966,-100,4,2,1,80,0,0
186222,-100,4,1,2,85,0,0
186992,-100,4,2,2,70,0,0
187248,-100,4,2,2,60,0,0
187505,-100,4,2,1,80,0,0
188274,-100,4,2,2,70,0,0
188530,-100,4,2,1,80,0,0
188787,-100,4,2,2,80,0,0
189043,-100,4,2,1,80,0,0
189299,-100,4,2,1,60,0,0
189556,-100,4,2,1,80,0,0
190325,-100,4,2,1,60,0,0
190581,-100,4,2,1,80,0,0
190838,-100,4,2,2,80,0,0
191094,-100,4,2,1,80,0,0
191351,-100,4,2,1,60,0,0
191607,-100,4,2,1,80,0,0
192376,-100,4,2,1,60,0,0
192569,-100,4,2,1,80,0,0
192889,-100,4,2,2,80,0,0
193146,-100,4,2,1,80,0,0
193402,-100,4,2,1,60,0,0
193658,-100,4,2,1,80,0,0
193915,-100,4,1,1,50,0,0
194107,-100,4,1,2,60,0,0
194235,-100,4,1,2,65,0,0
194363,-100,4,1,2,70,0,0
194492,-100,4,1,2,75,0,0
194620,-100,4,1,2,80,0,0
194748,-100,4,1,2,85,0,0
195005,-100,4,1,2,100,0,0
195197,-100,4,2,2,80,0,0
195453,-100,4,2,1,80,0,0
196222,-100,4,2,2,80,0,0
196479,-100,4,2,1,80,0,0
196992,-100,4,2,2,80,0,0
197761,-100,4,2,1,80,0,0
198274,-100,4,2,2,80,0,0
198530,-100,4,2,1,80,0,0
199299,-100,4,2,2,80,0,0
199556,-100,4,2,1,80,0,0
201351,-100,4,2,2,80,0,0
201607,-100,4,1,2,60,0,0
202120,-100,4,1,2,65,0,0
202633,-100,4,1,2,65,0,0
203146,-100,4,1,2,70,0,0
203530,-100,4,2,2,60,0,0
217376,-100,4,2,2,80,0,0
217889,-100,4,1,2,55,0,0
218658,-100,4,1,2,60,0,0
219171,-100,4,2,1,80,0,0
219684,-100,4,1,2,70,0,0
220325,-100,4,1,2,75,0,0
220838,-100,4,1,2,80,0,0
221351,-100,4,1,2,80,0,0
221928,-100,4,2,2,80,0,0
221992,-100,4,2,2,80,0,1
222056,-100,4,2,1,100,0,1
230069,-100,4,2,2,80,0,1
230325,-100,4,2,1,100,0,1
230838,-100,4,2,2,100,0,1
231094,-100,4,2,1,100,0,1
232184,-100,4,2,2,80,0,1
232312,-100,4,2,1,100,0,1
232953,-100,4,2,2,100,0,1
233081,-100,4,2,1,100,0,1
234235,-100,4,2,2,80,0,1
234363,-100,4,2,1,100,0,1
236287,-100,4,2,2,80,0,1
236415,-100,4,2,1,100,0,1
237056,-100,4,1,2,80,0,1
237440,-100,4,1,2,90,0,1
237761,-100,4,2,2,80,0,1
238274,-100,4,2,2,80,0,1
238530,-100,4,2,1,100,0,1
241863,-100,4,2,2,80,0,1
242120,-100,4,2,1,100,0,1
242376,-100,4,2,2,100,0,1
242633,-100,4,2,1,100,0,1
246030,-100,4,2,1,85,0,1
246158,-100,4,2,1,88,0,1
246287,-100,4,2,1,92,0,1
246415,-100,4,2,1,95,0,1
246543,-100,4,2,2,100,0,1
246735,-100,4,2,1,80,0,1
247248,-100,4,2,2,100,0,1
247505,-100,4,2,1,100,0,1
248594,-100,4,2,2,80,0,1
248722,-100,4,2,1,100,0,1
249299,-100,4,2,2,100,0,1
249556,-100,4,2,1,100,0,1
250646,-100,4,2,2,80,0,1
250774,-100,4,2,1,90,0,1
252697,-100,4,1,2,100,0,1
252825,-100,4,2,1,35,0,1
253017,-100,4,1,3,20,0,1
253210,-100,4,2,2,80,0,1
253338,-100,4,2,1,100,0,1
253658,-100,4,1,1,70,0,1
254235,-100,4,1,2,80,0,1
254363,-100,4,1,2,70,0,1
254748,-100,4,2,2,80,0,1
254812,-100,4,2,2,80,0,0
254940,-100,4,2,1,80,0,0
258210,-100,4,1,1,80,0,0
258338,-100,4,1,1,70,0,0
258787,-100,4,2,2,80,0,0
259043,-100,4,1,2,80,0,0
259556,-100,4,2,2,70,0,0
260069,-100,4,1,2,80,0,0
260581,-200,4,2,2,70,0,0
260838,-200,4,1,3,15,0,0
261992,-100,4,1,2,100,0,0
262697,-100,4,2,2,70,0,0
265710,-200,4,2,1,50,0,0

[Colours]
Combo1 : 83,83,83
Combo2 : 232,0,0
Combo3 : 156,124,88
Combo4 : 143,135,248
SliderBorder : 255,255,255

[HitObjects]
177,141,2504,1,4,0:0:0:0:
254,63,2761,1,0,0:0:0:0:
331,140,3017,1,8,0:0:0:0:
254,207,3274,2,0,B|275:291|139:291|162:204,1,182
254,330,4043,1,8,0:0:0:0:
254,206,4299,2,0,B|233:290|369:290|346:203,1,182
309,104,5069,2,0,B|358:124|409:100,2,91,8|0|0,0:0|0:0|0:0,0:0:0:0:
203,104,5838,2,0,B|154:124|103:100,1,91,0|8,0:0|0:0,0:0:0:0:
114,104,6222,1,8,0:0:0:0:
114,104,6351,1,6,0:0:0:0:
48,190,6607,5,4,0:0:0:0:
257,354,6863,1,4,0:0:0:0:
464,190,7120,1,8,0:0:0:0:
259,30,7376,1,4,0:0:0:0:
257,354,7889,5,4,0:0:0:0:
257,354,8146,1,2,0:0:0:0:
257,354,8402,2,0,B|257:112,1,227.5,4|0,0:0|0:0,0:0:0:0:
200,32,9940,1,0,0:0:0:0:
312,32,10197,1,4,0:0:0:0:
425,297,10710,6,0,B|317:297,1,91,4|0,0:0|0:0,0:0:0:0:
256,219,11222,1,0,0:0:0:0:
87,297,11479,2,0,B|178:297,1,91,0|0,0:0|0:0,0:0:0:0:
120,192,11992,1,0,0:0:0:0:
178,100,12248,1,8,0:0:0:0:
256,175,12505,2,0,B|256:277,1,91
353,315,13017,1,0,0:0:0:0:
430,237,13274,1,0,0:0:0:0:
489,145,13530,2,0,B|489:83|423:33|348:32,1,182,0|4,0:0|0:0,0:0:0:0:
255,33,14299,1,8,0:0:0:0:
365,33,14556,1,2,0:0:0:0:
314,129,14812,6,0,B|272:152|272:152|260:209,1,91,0|0,0:0|0:0,0:0:0:0:
356,251,15325,1,0,0:0:0:0:
459,281,15581,2,0,B|451:328|451:328|393:358,1,91
303,347,16094,2,0,B|205:347,1,91,0|8,0:0|0:0,0:0:0:0:
256,246,16607,1,0,0:0:0:0:
178,168,16863,1,0,0:0:0:0:
255,90,17120,1,0,0:0:0:0:
332,167,17376,1,0,0:0:0:0:
347,275,17633,2,0,B|151:275,1,182,0|4,0:0|0:0,0:0:0:0:
87,197,18402,1,8,0:0:0:0:
9,119,18658,2,0,B|85:66,1,91,2|0,0:0|0:0,0:0:0:0:
161,144,19171,6,0,B|237:207|247:328,2,182
212,47,20453,2,0,B|257:61|257:61|301:48,1,91,8|0,0:0|0:0,0:0:0:0:
351,144,20966,1,0,0:0:0:0:
351,144,21222,2,0,B|275:207|265:328,2,182,0|0|4,0:0|0:0|0:0,0:0:0:0:
256,87,22505,1,8,0:0:0:0:
202,181,22761,1,0,0:0:0:0:
255,192,22889,1,0,0:0:0:0:
308,180,23017,1,0,0:0:0:0:
385,257,23274,6,0,B|373:309|320:325,1,91
127,257,23787,2,0,B|139:309|192:325,1,91,0|0,0:0|0:0,0:0:0:0:
256,121,24299,2,0,B|256:236,1,91,0|8,0:0|0:0,0:0:0:0:
256,212,24812,1,0,0:0:0:0:
365,212,25069,2,0,P|432:160|396:84,1,182
116,84,25838,2,0,P|80:160|147:212,1,182,0|12,0:0|0:0,0:0:0:0:
256,160,26607,1,12,0:0:0:0:
97,322,27120,6,0,B|34:241,1,91,4|0,0:0|0:0,0:0:0:0:
133,191,27633,1,0,0:0:0:0:
172,89,27889,2,0,B|149:46|76:47,2,91
254,161,28658,1,8,0:0:0:0:
340,89,28915,2,0,B|363:46|436:47,2,91
379,191,29684,1,0,0:0:0:0:
346,295,29940,2,0,B|299:295|256:281|256:281|220:294|160:294,1,182,0|4,0:0|0:0,0:0:0:0:
63,331,30710,1,8,0:0:0:0:
166,293,30966,1,2,0:0:0:0:
257,233,31222,6,0,B|257:112,1,91
351,87,31735,1,0,0:0:0:0:
454,50,31992,2,0,B|454:171,1,91
454,250,32505,1,0,0:0:0:0:
357,300,32761,1,8,0:0:0:0:
257,232,33017,2,0,B|203:231|156:286,1,91
73,224,33530,1,0,0:0:0:0:
67,115,33787,1,0,0:0:0:0:
171,84,34043,2,0,B|223:138|262:54|342:132,1,182,0|4,0:0|0:0,0:0:0:0:
440,166,34812,1,8,0:0:0:0:
351,232,35069,1,2,0:0:0:0:
256,177,35325,5,0,0:0:0:0:
178,99,35581,2,0,B|155:160|105:160|105:160|48:267,2,182,0|0|0,0:0|0:0|0:0,0:0:0:0:
256,177,36863,2,0,B|256:298,1,91,8|0,0:0|0:0,0:0:0:0:
333,345,37376,1,0,0:0:0:0:
333,345,37633,2,0,B|356:284|406:284|406:284|463:177,2,182,0|0|4,0:0|0:0|0:0,0:0:0:0:
333,345,38915,1,8,0:0:0:0:
307,239,39171,1,0,0:0:0:0:
256,218,39299,1,0,0:0:0:0:
205,239,39428,1,0,0:0:0:0:
160,139,39684,6,0,B|160:72|91:41,1,91
352,139,40197,2,0,B|352:72|421:41,1,91,0|0,0:0|0:0,0:0:0:0:
84,176,40710,2,0,P|112:212|156:224,1,91,0|8,0:0|0:0,0:0:0:0:
428,176,41222,2,0,P|400:212|356:224,1,91,0|2,0:0|0:0,0:0:0:0:
256,30,41735,21,0,0:0:0:0:
256,354,41992,1,4,0:0:0:0:
169,186,42248,1,8,0:0:0:0:
169,186,42376,1,8,0:0:0:0:
169,186,42504,2,0,B|126:229|59:217,1,91,0|4,0:0|0:0,0:0:0:0:
343,186,43017,1,8,0:0:0:0:
343,186,43146,1,4,0:0:0:0:
343,186,43274,2,0,B|386:229|453:217,1,91,2|4,0:0|0:0,0:0:0:0:
121,70,44043,5,8,0:0:0:0:
43,147,44299,2,0,B|64:254|172:284,1,182
255,324,45069,1,8,0:0:0:0:
356,278,45325,2,0,B|448:254|469:147,1,182
391,70,46094,1,8,0:0:0:0:
347,170,46351,2,0,B|165:170,1,182
121,70,47120,1,8,0:0:0:0:
43,147,47376,2,0,B|19:194|43:239,1,91,0|0,0:0|0:0,0:0:0:0:
118,311,47889,6,0,B|163:293|163:293|183:244,1,91,0|8,0:0|0:0,0:0:0:0:
256,176,48402,1,0,0:0:0:0:
332,253,48658,2,0,B|349:293|349:293|394:311,1,91,0|0,0:0|0:0,0:0:0:0:
471,233,49171,2,0,B|400:145,1,91,8|0,0:0|0:0,0:0:0:0:
343,81,49684,2,0,B|255:39|163:78,2,182,0|8|0,0:0|0:0|0:0,0:0:0:0:
256,150,50966,2,0,B|256:261,1,91,0|8,0:0|0:0,0:0:0:0:
256,241,51479,1,0,0:0:0:0:
205,337,51735,6,0,B|151:337|106:311|80:272|80:208,1,182,4|8,0:0|0:0,0:0:0:0:
184,191,52504,1,0,0:0:0:0:
80,156,52761,2,0,B|80:113|104:73|149:47|203:47,1,182,0|8,0:0|0:0,0:0:0:0:
255,143,53530,1,0,0:0:0:0:
308,47,53787,2,0,B|362:47|407:73|432:113|432:156,1,182,6|10,0:0|0:0,0:0:0:0:
412,262,54556,1,0,0:0:0:0:
365,290,54684,1,0,0:0:0:0:
310,290,54812,2,0,B|261:282|226:234,2,91,2|0|10,0:0|0:0|0:0,0:0:0:0:
310,180,55581,6,0,B|364:180|390:127,1,91,0|6,0:0|0:0,0:0:0:0:
202,180,56094,2,0,B|148:180|122:127,1,91,0|10,0:0|0:0,0:0:0:0:
311,180,56607,2,0,B|324:231|305:277,1,91,0|2,0:0|0:0,0:0:0:0:
201,180,57120,2,0,B|188:231|207:277,2,91,0|10|0,0:0|0:0|0:0,0:0:0:0:
169,75,57889,2,0,B|256:24|354:82,1,182,2|14,0:0|0:0,0:0:0:0:
458,191,58787,2,0,B|498:250,3,45.5
406,306,59428,1,6,0:0:0:0:
187,306,59940,6,0,B|246:221|182:131,1,182,4|8,0:0|0:0,0:0:0:0:
254,49,60710,1,0,0:0:0:0:
326,136,60966,2,0,B|266:221|325:306,1,182,0|8,0:0|0:0,0:0:0:0:
401,228,61735,1,0,0:0:0:0:
478,150,61992,2,0,B|325:40,1,182,0|8,0:0|0:0,0:0:0:0:
256,124,62761,1,0,0:0:0:0:
178,201,63017,1,0,0:0:0:0:
255,278,63274,2,0,B|331:208,2,91,0|8|0,0:0|0:0|0:0,0:0:0:0:
165,340,64043,6,0,B|155:266|99:245|99:245|77:167,1,182,0|8,0:0|0:0,0:0:0:0:
159,109,64812,1,0,0:0:0:0:
256,76,65069,2,0,B|256:265,1,182,0|8,0:0|0:0,0:0:0:0:
347,340,65838,1,0,0:0:0:0:
347,340,66094,2,0,B|357:266|413:245|413:245|435:167,1,182,0|8,0:0|0:0,0:0:0:0:
352,109,66863,1,0,0:0:0:0:
256,161,67120,2,0,B|256:216,2,45.5,0|8|0,0:0|0:0|0:0,0:0:0:0:
256,161,67633,1,8,0:0:0:0:
256,306,67889,5,0,0:0:0:0:
256,78,68146,1,4,0:0:0:0:
119,188,68402,1,0,0:0:0:0:
393,188,68658,1,8,0:0:0:0:
466,109,68915,2,0,B|510:191|510:191|482:284,1,182,4|0,0:0|0:0,0:0:0:0:
381,316,69684,1,8,0:0:0:0:
271,316,69940,1,0,0:0:0:0:
216,316,70069,1,0,0:0:0:0:
161,316,70197,1,4,0:0:0:0:
119,215,70453,5,0,0:0:0:0:
203,136,70710,1,8,0:0:0:0:
203,136,70966,2,0,B|175:207|337:207|306:132,1,182,4|0,0:0|0:0,0:0:0:0:
393,215,71735,1,8,0:0:0:0:
444,118,71992,1,0,0:0:0:0:
339,72,72248,6,0,B|279:39|279:39|228:39|228:39|171:74,1,182,4|8,0:0|0:0,0:0:0:0:
97,149,73017,1,0,0:0:0:0:
19,226,73274,2,0,B|54:262|54:262|62:314,1,91,0|0,0:0|0:0,0:0:0:0:
174,312,73787,2,0,B|228:345|228:345|279:345|279:345|339:312,1,182,8|0,0:0|0:0,0:0:0:0:
378,209,74556,5,0,0:0:0:0:
134,209,74812,1,12,0:0:0:0:
211,131,75069,1,0,0:0:0:0:
257,160,75197,1,8,0:0:0:0:
301,131,75325,1,8,0:0:0:0:
256,31,75581,1,4,0:0:0:0:
256,31,75838,1,12,0:0:0:0:
361,59,76094,1,8,0:0:0:0:
410,82,76222,1,8,0:0:0:0:
448,120,76351,6,0,B|431:234|348:262,1,182,4|8,0:0|0:0,0:0:0:0:
426,338,77120,1,0,0:0:0:0:
316,338,77376,2,0,B|233:310|216:196,1,182,0|8,0:0|0:0,0:0:0:0:
293,119,78146,1,0,0:0:0:0:
197,67,78402,2,0,B|32:159,1,182,0|8,0:0|0:0,0:0:0:0:
137,200,79171,1,0,0:0:0:0:
98,302,79428,2,0,B|49:301|49:301|4:267,2,91,0|0|12,0:0|0:0|0:0,0:0:0:0:
205,298,80197,1,0,0:0:0:0:
302,350,80453,6,0,B|352:350|388:330|410:293|410:226,1,182,4|8,0:0|0:0,0:0:0:0:
307,192,81222,1,0,0:0:0:0:
409,152,81479,2,0,B|410:91|388:54|352:34|302:34,1,182,0|8,0:0|0:0,0:0:0:0:
254,132,82248,1,0,0:0:0:0:
210,34,82504,2,0,B|160:34|124:54|102:91|102:152,1,182,0|8,0:0|0:0,0:0:0:0:
205,192,83274,1,0,0:0:0:0:
102,231,83530,2,0,B|102:293|124:330|160:350|210:350,1,182,0|8,0:0|0:0,0:0:0:0:
232,350,84171,1,8,0:0:0:0:
254,350,84299,1,0,0:0:0:0:
360,326,84556,5,4,0:0:0:0:
449,188,84812,1,0,0:0:0:0:
332,71,85069,1,8,0:0:0:0:
222,71,85325,2,0,B|26:71,1,182,4|0,0:0|0:0,0:0:0:0:
222,71,86094,1,8,0:0:0:0:
255,175,86351,5,0,0:0:0:0:
255,197,86479,1,0,0:0:0:0:
255,219,86607,1,4,0:0:0:0:
177,296,86863,1,0,0:0:0:0:
335,296,87120,1,8,0:0:0:0:
433,351,87376,2,0,B|490:276|490:276|490:171,1,182,4|0,0:0|0:0,0:0:0:0:
437,91,88146,1,8,0:0:0:0:
327,91,88402,1,0,0:0:0:0:
217,91,88658,6,0,B|31:91,1,182,4|10,0:0|0:0,0:0:0:0:
257,355,89684,1,6,0:0:0:0:
184,157,89940,1,2,0:0:0:0:
371,284,90197,1,8,0:0:0:0:
143,284,90453,1,2,0:0:0:0:
324,157,90710,1,6,0:0:0:0:
324,157,91222,1,4,0:0:0:0:
26,61,91735,5,8,0:0:0:0:
57,165,91992,1,8,0:0:0:0:
73,181,92120,1,8,0:0:0:0:
96,192,92248,1,8,0:0:0:0:
115,193,92376,1,8,0:0:0:0:
137,193,92504,1,8,0:0:0:0:
241,161,92761,1,4,0:0:0:0:
255,40,100966,5,4,0:0:0:0:
205,137,101222,2,0,B|150:137|121:195,1,91
307,137,101735,2,0,B|362:137|391:195,1,91
312,266,102248,1,0,0:0:0:0:
402,327,102504,1,8,0:0:0:0:
479,249,102761,2,0,B|480:141,1,91,0|0,0:0|0:0,0:0:0:0:
402,80,103274,1,0,0:0:0:0:
295,59,103530,1,0,0:0:0:0:
185,59,103787,2,0,B|87:46|43:168,1,182,0|4,0:0|0:0,0:0:0:0:
86,259,104556,1,8,0:0:0:0:
184,305,104812,1,2,0:0:0:0:
256,220,105069,6,0,B|216:192|212:136,1,91,0|0,0:0|0:0,0:0:0:0:
248,48,105581,1,0,0:0:0:0:
146,60,105838,2,0,B|49:121,1,91
35,212,106351,1,0,0:0:0:0:
133,257,106607,1,8,0:0:0:0:
215,331,106863,2,0,B|257:350|257:350|298:334,1,91,0|0,0:0|0:0,0:0:0:0:
379,257,107376,1,0,0:0:0:0:
477,212,107633,1,0,0:0:0:0:
477,102,107889,2,0,B|460:54|421:22|363:18|318:47,1,182,0|4,0:0|0:0,0:0:0:0:
254,126,108658,1,8,0:0:0:0:
254,235,108915,1,2,0:0:0:0:
331,312,109171,5,0,0:0:0:0:
331,312,109428,2,0,B|372:312|406:296|439:264|452:226|452:161,2,182,0|0|0,0:0|0:0|0:0,0:0:0:0:
300,207,110710,2,0,B|256:227|208:206,1,91,8|0,0:0|0:0,0:0:0:0:
181,312,111222,1,0,0:0:0:0:
181,312,111479,2,0,B|140:312|106:296|73:264|60:226|60:161,2,182,0|0|4,0:0|0:0|0:0,0:0:0:0:
258,234,112761,1,8,0:0:0:0:
258,343,113017,1,2,0:0:0:0:
352,287,113274,6,0,B|400:288|444:328,1,91
257,192,113787,1,0,0:0:0:0:
160,287,114043,2,0,B|112:288|77:320,1,91,0|0,0:0|0:0,0:0:0:0:
256,343,114556,1,0,0:0:0:0:
256,343,114812,2,0,B|256:236,1,91,8|0,0:0|0:0,0:0:0:0:
333,174,115325,2,0,B|333:229|353:274|396:302|471:302,1,182
179,174,116094,2,0,B|179:229|159:274|116:302|41:302,1,182,0|4,0:0|0:0,0:0:0:0:
29,199,116863,1,12,0:0:0:0:
77,100,117120,1,2,0:0:0:0:
183,78,117376,5,4,0:0:0:0:
256,165,117633,2,0,B|256:267,1,91
333,333,118146,1,0,0:0:0:0:
333,333,118402,2,0,B|333:236,1,91
333,132,118915,1,8,0:0:0:0:
255,54,119171,1,0,0:0:0:0:
180,132,119428,1,0,0:0:0:0:
99,53,119684,2,0,B|50:64|25:119,1,91
84,203,120197,2,0,B|104:307|211:342,1,182,0|4,0:0|0:0,0:0:0:0:
302,307,120966,1,8,0:0:0:0:
354,214,121222,1,2,0:0:0:0:
431,136,121479,6,0,B|394:94|325:112,1,91
257,169,121992,1,0,0:0:0:0:
163,107,122248,2,0,B|118:94|81:136,1,91,0|0,0:0|0:0,0:0:0:0:
46,236,122761,1,0,0:0:0:0:
123,313,123017,1,8,0:0:0:0:
208,245,123274,2,0,B|320:245,1,91
353,150,123787,1,0,0:0:0:0:
450,102,124043,1,0,0:0:0:0:
450,211,124299,2,0,B|409:304|295:346,1,182,0|4,0:0|0:0,0:0:0:0:
244,257,125069,1,8,0:0:0:0:
166,179,125325,2,0,B|87:266,1,91,2|0,0:0|0:0,0:0:0:0:
179,321,125838,6,0,B|152:218|50:176,2,182
210,214,127120,2,0,B|256:200|256:200|308:218,1,91,8|0,0:0|0:0,0:0:0:0:
333,321,127633,1,0,0:0:0:0:
333,321,127889,2,0,B|360:218|462:176,2,182,0|0|4,0:0|0:0|0:0,0:0:0:0:
255,243,129171,1,8,0:0:0:0:
207,144,129428,1,0,0:0:0:0:
254,117,129556,1,0,0:0:0:0:
305,144,129684,1,0,0:0:0:0:
368,244,129940,6,0,B|395:291|467:303,1,91
144,140,130453,2,0,B|117:93|45:81,1,91,0|0,0:0|0:0,0:0:0:0:
368,140,130966,2,0,B|395:93|467:81,1,91,0|8,0:0|0:0,0:0:0:0:
144,244,131479,2,0,B|117:291|45:303,1,91,0|4,0:0|0:0,0:0:0:0:
427,189,131992,5,2,0:0:0:0:
85,189,132248,1,4,0:0:0:0:
339,57,132504,1,8,0:0:0:0:
339,57,132633,1,8,0:0:0:0:
339,57,132761,2,0,B|291:94|291:166,1,91,2|4,0:0|0:0,0:0:0:0:
173,327,133274,1,8,0:0:0:0:
173,327,133402,1,4,0:0:0:0:
173,327,133530,2,0,B|221:290|221:218,1,91,2|4,0:0|0:0,0:0:0:0:
466,98,134299,5,8,0:0:0:0:
388,175,134556,2,0,B|403:262|284:263|299:174,1,182,0|0,0:0|0:0,0:0:0:0:
256,69,135325,1,8,0:0:0:0:
124,175,135581,2,0,B|109:262|228:263|213:174,1,182,0|0,0:0|0:0,0:0:0:0:
256,69,136351,1,8,0:0:0:0:
256,69,136607,2,0,B|256:274,1,182
178,328,137376,1,8,0:0:0:0:
287,328,137633,1,0,0:0:0:0:
340,323,137761,1,0,0:0:0:0:
387,298,137889,1,0,0:0:0:0:
414,191,138146,5,0,0:0:0:0:
256,36,138402,1,8,0:0:0:0:
98,191,138658,1,0,0:0:0:0:
175,268,138915,2,0,B|107:346,1,91
337,268,139428,2,0,B|405:346,1,91,8|0,0:0|0:0,0:0:0:0:
167,173,139940,2,0,B|256:208|346:172,2,182,0|8|0,0:0|0:0|0:0,0:0:0:0:
209,72,141222,2,0,B|256:95|306:69,1,91,0|8,0:0|0:0,0:0:0:0:
255,172,141735,1,0,0:0:0:0:
296,73,141992,6,0,B|351:163|457:167,1,182,4|8,0:0|0:0,0:0:0:0:
370,242,142761,1,0,0:0:0:0:
292,319,143017,2,0,B|108:319,1,182,0|8,0:0|0:0,0:0:0:0:
32,241,143787,1,0,0:0:0:0:
130,193,144043,2,0,B|91:196|34:157|30:98|56:49,1,182,6|10,0:0|0:0,0:0:0:0:
159,61,144812,1,0,0:0:0:0:
181,61,144940,1,0,0:0:0:0:
203,61,145069,2,0,B|302:61,2,91,2|0|10,0:0|0:0|0:0,0:0:0:0:
152,158,145838,1,0,0:0:0:0:
256,195,146094,5,6,0:0:0:0:
333,272,146351,2,0,B|356:326|412:344,1,91,0|10,0:0|0:0,0:0:0:0:
179,272,146863,2,0,B|156:326|100:344,1,91,0|2,0:0|0:0,0:0:0:0:
257,125,147376,2,0,B|257:24,2,91,0|10|0,0:0|0:0|0:0,0:0:0:0:
345,198,148146,1,8,0:0:0:0:
298,225,148274,1,8,0:0:0:0:
254,257,148402,1,8,0:0:0:0:
214,225,148530,1,8,0:0:0:0:
167,198,148658,1,4,0:0:0:0:
318,349,148915,1,4,0:0:0:0:
318,349,149171,2,0,B|308:277|201:277|190:350,1,182,10|6,0:0|0:0,0:0:0:0:
396,141,150197,6,0,B|401:69|359:23|301:40|278:85,1,182,4|10,0:0|0:0,0:0:0:0:
255,176,150966,1,0,0:0:0:0:
225,71,151222,2,0,B|211:40|153:23|111:69|116:141,1,182,2|10,0:0|0:0,0:0:0:0:
166,238,151992,1,0,0:0:0:0:
166,238,152248,2,0,B|366:238,1,182,2|10,0:0|0:0,0:0:0:0:
425,315,153017,1,0,0:0:0:0:
502,237,153274,2,0,B|503:177|444:145,1,91,2|0,0:0|0:0,0:0:0:0:
371,99,153787,1,10,0:0:0:0:
276,152,154043,1,0,0:0:0:0:
254,258,154299,6,0,B|168:334|77:312,1,182,2|10,0:0|0:0,0:0:0:0:
29,220,155069,1,0,0:0:0:0:
55,114,155325,2,0,B|155:91|220:170,1,182,2|10,0:0|0:0,0:0:0:0:
255,64,156094,1,0,0:0:0:0:
293,167,156351,2,0,B|357:91|457:114,1,182,2|10,0:0|0:0,0:0:0:0:
483,220,157120,1,0,0:0:0:0:
406,296,157376,2,0,B|455:330,2,45.5,2|8|0,0:0|0:0|0:0,0:0:0:0:
307,344,157889,1,10,0:0:0:0:
256,246,158146,2,0,B|256:137,1,91,0|4,0:0|0:0,0:0:0:0:
147,155,158658,5,0,0:0:0:0:
365,155,158915,1,10,0:0:0:0:
443,77,159171,2,0,B|490:151|490:151|490:259,1,182,4|0,0:0|0:0,0:0:0:0:
490,245,159940,1,10,0:0:0:0:
412,322,160197,1,0,0:0:0:0:
390,330,160325,1,0,0:0:0:0:
368,337,160453,5,4,0:0:0:0:
310,243,160710,1,0,0:0:0:0:
202,243,160966,1,10,0:0:0:0:
256,338,161222,1,4,0:0:0:0:
258,29,161607,2,0,B|201:71,1,45.5,8|2,0:0|0:0,0:0:0:0:
179,157,161992,1,10,0:0:0:0:
282,190,162248,1,0,0:0:0:0:
393,185,162504,6,0,B|413:224|397:284|359:314|289:314,1,182,6|10,0:0|0:0,0:0:0:0:
255,217,163274,1,0,0:0:0:0:
204,313,163530,2,0,B|153:314|115:284|99:224|119:185,2,182,2|10|6,0:0|0:0|0:0,0:0:0:0:
257,120,164812,6,0,B|257:2,1,91,0|10,0:0|0:0,0:0:0:0:
75,279,165325,2,0,B|-5:366,1,91,0|4,0:0|0:0,0:0:0:0:
437,279,165838,2,0,B|517:366,1,91,2|6,0:0|0:0,0:0:0:0:
30,50,166607,6,0,B|30:132|30:132|36:158|36:158|36:249,1,182,6|10,0:0|0:0,0:0:0:0:
145,231,167376,1,0,0:0:0:0:
167,338,167633,2,0,B|225:338|234:309|274:309|286:336|348:336,1,182,2|10,0:0|0:0,0:0:0:0:
367,231,168402,1,0,0:0:0:0:
476,231,168658,2,0,B|476:158|476:158|482:132|482:132|482:50,1,182,2|10,0:0|0:0,0:0:0:0:
372,49,169428,1,0,0:0:0:0:
344,154,169684,2,0,B|285:153|273:180|233:180|224:151|166:151,1,182,2|14,0:0|0:0,0:0:0:0:
257,89,170453,1,0,0:0:0:0:
257,89,170710,6,0,B|257:278,1,182,6|10,0:0|0:0,0:0:0:0:
179,348,171479,1,0,0:0:0:0:
101,270,171735,2,0,B|51:270|4:225|4:162|41:112,1,182,2|10,0:0|0:0,0:0:0:0:
104,58,172504,1,0,0:0:0:0:
164,151,172761,2,0,B|359:151,1,182,2|10,0:0|0:0,0:0:0:0:
442,202,173530,1,8,0:0:0:0:
458,218,173658,1,8,0:0:0:0:
474,234,173787,1,8,0:0:0:0:
396,311,174043,2,0,B|297:311,1,91,8|8,0:0|0:0,0:0:0:0:
256,202,174556,5,8,0:0:0:0:
256,179,174684,1,8,0:0:0:0:
256,156,174812,1,6,0:0:0:0:
178,78,175069,1,0,0:0:0:0:
81,128,175325,1,10,0:0:0:0:
43,230,175581,2,0,B|90:323|206:337,1,182,6|0,0:0|0:0,0:0:0:0:
256,257,176351,1,10,0:0:0:0:
333,334,176607,5,0,0:0:0:0:
386,323,176735,1,0,0:0:0:0:
409,273,176863,1,6,0:0:0:0:
331,195,177120,1,0,0:0:0:0:
257,114,177376,1,10,0:0:0:0:
330,39,177633,2,0,B|431:39|472:156,1,182,6|0,0:0|0:0,0:0:0:0:
466,140,178402,1,10,0:0:0:0:
466,249,178658,5,8,0:0:0:0:
443,249,178787,1,8,0:0:0:0:
420,249,178915,2,0,B|228:250,1,182,6|10,0:0|0:0,0:0:0:0:
32,43,179940,2,0,B|233:43,1,182,2|10,0:0|0:0,0:0:0:0:
255,144,180710,1,0,0:0:0:0:
298,43,180966,2,0,B|480:43,1,182,8|6,0:0|0:0,0:0:0:0:
257,235,181992,5,6,0:0:0:0:
334,312,182248,1,2,0:0:0:0:
437,275,182504,1,8,0:0:0:0:
453,258,182633,1,2,0:0:0:0:
458,236,182761,1,2,0:0:0:0:
458,126,183017,2,0,B|449:65|421:31|361:26|322:63,1,182,6|8,0:0|0:0,0:0:0:0:
46,128,184043,1,4,0:0:0:0:
46,128,184299,1,4,0:0:0:0:
16,233,184556,1,12,0:0:0:0:
16,233,184812,6,0,B|16:283|46:328|93:344|145:329,1,182,4|8,0:0|0:0,0:0:0:0:
160,325,185453,1,8,0:0:0:0:
180,315,185581,1,8,0:0:0:0:
293,325,185838,2,0,B|375:263|324:147,1,182,4|4,0:0|0:0,0:0:0:0:
407,84,186607,1,8,0:0:0:0:
423,100,186735,1,4,0:0:0:0:
439,116,186863,1,6,0:0:0:0:
439,225,187120,5,6,0:0:0:0:
379,316,187376,1,2,0:0:0:0:
273,344,187633,1,8,0:0:0:0:
171,304,187889,2,0,B|115:228|166:131,1,182,0|2,0:0|0:0,0:0:0:0:
257,73,188658,1,8,0:0:0:0:
272,180,188915,2,0,B|345:181|360:114|439:115,1,182,4|2,0:0|0:0,0:0:0:0:
439,225,189684,1,8,0:0:0:0:
439,334,189940,2,0,B|392:334|337:347|305:287|305:210,1,182,0|2,0:0|0:0,0:0:0:0:
256,146,190710,1,8,0:0:0:0:
256,146,190966,6,0,B|60:146,1,182,4|2,0:0|0:0,0:0:0:0:
74,255,191735,1,8,0:0:0:0:
164,328,191992,2,0,B|349:328,1,182,0|2,0:0|0:0,0:0:0:0:
438,255,192761,1,8,0:0:0:0:
466,149,193017,2,0,B|378:188|282:147,1,182,4|2,0:0|0:0,0:0:0:0:
289,149,193787,1,8,0:0:0:0:
211,75,194043,5,0,0:0:0:0:
191,86,194171,1,8,0:0:0:0:
174,102,194299,1,8,0:0:0:0:
164,122,194428,1,8,0:0:0:0:
157,143,194556,1,8,0:0:0:0:
151,165,194684,1,8,0:0:0:0:
151,187,194812,1,8,0:0:0:0:
156,209,194940,1,2,0:0:0:0:
163,230,195069,1,2,0:0:0:0:
256,286,195325,6,0,B|49:346,1,182,6|10,0:0|0:0,0:0:0:0:
18,246,196094,1,0,0:0:0:0:
18,246,196351,2,0,B|18:136,1,91,4|0,0:0|0:0,0:0:0:0:
74,56,196863,1,10,0:0:0:0:
74,56,197120,2,0,B|261:56,1,182,4|0,0:0|0:0,0:0:0:0:
256,165,197889,1,10,0:0:0:0:
256,274,198146,1,0,0:0:0:0:
333,351,198402,2,0,B|434:351,2,91,4|0|10,0:0|0:0|0:0,0:0:0:0:
256,39,199428,6,0,B|256:250,1,182,4|8,0:0|0:0,0:0:0:0:
107,241,200197,2,0,B|160:257|177:306,1,91,0|0,0:0|0:0,0:0:0:0:
405,241,200710,2,0,B|352:257|335:306,1,91,0|10,0:0|0:0,0:0:0:0:
257,191,201479,5,12,0:0:0:0:
155,74,201735,1,6,0:0:0:0:
357,74,201992,1,10,0:0:0:0:
85,191,202248,1,10,0:0:0:0:
427,191,202504,1,12,0:0:0:0:
155,310,202761,1,12,0:0:0:0:
357,310,203017,1,12,0:0:0:0:
257,189,203274,2,0,B|257:108,2,45.5,8|8|4,0:0|0:0|0:0,0:0:0:0:
256,40,217633,5,4,0:0:0:0:
512,350,218402,1,8,0:0:0:0:
0,350,218915,1,8,0:0:0:0:
256,40,219428,1,10,0:0:0:0:
193,342,219940,5,8,0:0:0:0:
319,342,220197,1,8,0:0:0:0:
145,287,220453,1,8,0:0:0:0:
367,287,220710,1,8,0:0:0:0:
191,230,220966,1,8,0:0:0:0:
321,230,221222,1,8,0:0:0:0:
257,30,221479,1,8,0:0:0:0:
257,52,221607,1,8,0:0:0:0:
257,74,221735,1,8,0:0:0:0:
257,96,221863,1,8,0:0:0:0:
257,118,221992,6,0,B|257:318,1,182,6|10,0:0|0:0,0:0:0:0:
162,243,222761,1,0,0:0:0:0:
64,193,223017,2,0,B|64:76|186:76,1,182,2|10,0:0|0:0,0:0:0:0:
254,149,223787,1,0,0:0:0:0:
337,76,224043,2,0,B|448:76|448:193,1,182,2|10,0:0|0:0,0:0:0:0:
360,264,224812,1,0,0:0:0:0:
257,301,225069,1,2,0:0:0:0:
257,301,225325,2,0,B|257:181,2,91,0|10|0,0:0|0:0|0:0,0:0:0:0:
156,345,226094,6,0,B|156:257|107:257|107:152,1,182,2|10,0:0|0:0,0:0:0:0:
185,94,226863,1,0,0:0:0:0:
79,63,227120,2,0,B|19:63,2,45.5,2|8|0,0:0|0:0|0:0,0:0:0:0:
185,94,227633,1,10,0:0:0:0:
219,195,227889,1,0,0:0:0:0:
219,195,228146,2,0,B|175:278|334:277|293:194,1,182,2|10,0:0|0:0,0:0:0:0:
370,117,228915,1,0,0:0:0:0:
421,99,229043,1,8,0:0:0:0:
471,124,229171,2,0,B|505:157|505:216,1,91,2|0,0:0|0:0,0:0:0:0:
416,275,229684,1,10,0:0:0:0:
347,192,229940,2,0,B|304:212|248:192,1,91,0|6,0:0|0:0,0:0:0:0:
144,136,230453,5,0,0:0:0:0:
255,301,230710,1,10,0:0:0:0:
256,302,230966,2,0,B|51:302,1,182,6|0,0:0|0:0,0:0:0:0:
41,197,231735,1,10,0:0:0:0:
91,96,231992,1,0,0:0:0:0:
136,66,232120,1,0,0:0:0:0:
188,50,232248,1,6,0:0:0:0:
219,168,232504,2,0,B|276:175|317:143,1,91,0|10,0:0|0:0,0:0:0:0:
257,52,233017,1,6,0:0:0:0:
257,332,233402,2,0,B|296:288,1,45.5,8|2,0:0|0:0,0:0:0:0:
396,297,233787,1,10,0:0:0:0:
338,204,234043,1,0,0:0:0:0:
432,150,234299,6,0,B|431:80|403:47|345:25|289:25,1,182,6|10,0:0|0:0,0:0:0:0:
257,109,235069,1,0,0:0:0:0:
257,218,235325,2,0,B|257:320,1,91,2|0,0:0|0:0,0:0:0:0:
152,341,235838,2,0,B|125:341|71:321|43:288|43:219,1,182,10|6,0:0|0:0,0:0:0:0:
92,122,236607,2,0,B|144:109|162:42,1,91,0|10,0:0|0:0,0:0:0:0:
264,37,237120,1,8,0:0:0:0:
286,37,237248,1,8,0:0:0:0:
308,37,237376,1,8,0:0:0:0:
330,37,237504,1,4,0:0:0:0:
352,37,237633,1,4,0:0:0:0:
461,37,237889,1,6,0:0:0:0:
343,312,238402,6,0,B|257:265|167:312,1,182,6|10,0:0|0:0,0:0:0:0:
91,233,239171,1,0,0:0:0:0:
46,133,239428,2,0,B|95:72|144:112|144:112|209:65,1,182,2|10,0:0|0:0,0:0:0:0:
255,166,240197,1,0,0:0:0:0:
312,72,240453,2,0,B|368:112|368:112|417:72|466:133,1,182,2|10,0:0|0:0,0:0:0:0:
421,233,241222,1,0,0:0:0:0:
421,233,241479,2,0,B|343:289|240:268,1,182,2|14,0:0|0:0,0:0:0:0:
299,173,242248,1,0,0:0:0:0:
318,65,242504,6,0,B|485:153,1,182,6|10,0:0|0:0,0:0:0:0:
442,252,243274,1,0,0:0:0:0:
339,214,243530,2,0,B|277:201|238:268|156:278,1,182,2|10,0:0|0:0,0:0:0:0:
127,175,244299,1,0,0:0:0:0:
21,146,244556,2,0,B|-1:103|14:49|64:25|120:42,1,182,2|10,0:0|0:0,0:0:0:0:
212,89,245325,2,0,B|259:27,2,45.5,0|8|2,0:0|0:0|0:0,0:0:0:0:
255,189,245838,1,0,0:0:0:0:
306,284,246094,1,10,0:0:0:0:
326,275,246222,1,8,0:0:0:0:
346,264,246351,1,8,0:0:0:0:
362,247,246479,1,8,0:0:0:0:
373,227,246607,5,6,0:0:0:0:
475,124,246863,1,0,0:0:0:0:
347,52,247120,1,10,0:0:0:0:
244,154,247376,1,6,0:0:0:0:
116,327,247761,2,0,B|76:302,1,45.5,8|2,0:0|0:0,0:0:0:0:
43,198,248146,1,10,0:0:0:0:
97,103,248402,1,0,0:0:0:0:
135,64,248530,1,0,0:0:0:0:
188,53,248658,5,6,0:0:0:0:
327,95,248915,1,0,0:0:0:0:
288,235,249171,1,10,0:0:0:0:
150,187,249428,1,6,0:0:0:0:
335,301,249812,2,0,B|389:312,1,45.5,8|2,0:0|0:0,0:0:0:0:
399,259,250069,2,0,B|460:275,1,45.5,8|10,0:0|0:0,0:0:0:0:
443,125,250453,5,8,0:0:0:0:
420,125,250581,1,8,0:0:0:0:
397,125,250710,2,0,B|208:125,1,182,6|10,0:0|0:0,0:0:0:0:
414,340,251735,1,2,0:0:0:0:
304,340,251992,2,0,B|184:340,1,91,0|10,0:0|0:0,0:0:0:0:
100,340,252504,1,8,0:0:0:0:
100,340,252633,1,8,0:0:0:0:
100,340,252761,2,0,B|100:143,1,182,8|6,0:0|0:0,0:0:0:0:
379,66,253787,5,2,0:0:0:0:
456,143,254043,1,4,0:0:0:0:
452,252,254299,1,8,0:0:0:0:
440,271,254428,1,4,0:0:0:0:
417,282,254556,1,2,0:0:0:0:
393,287,254684,1,2,0:0:0:0:
366,289,254812,5,4,0:0:0:0:
256,289,255069,1,0,0:0:0:0:
146,289,255325,1,8,0:0:0:0:
174,184,255581,2,0,B|256:119|343:187,1,182
418,107,256351,1,8,0:0:0:0:
495,182,256607,2,0,B|404:209|374:324,1,182
268,310,257376,2,0,B|230:211,1,91,8|0,0:0|0:0,0:0:0:0:
157,302,257889,2,0,B|122:202,1,91
119,194,258274,1,10,0:0:0:0:
110,172,258402,1,8,0:0:0:0:
102,150,258530,1,4,0:0:0:0:
93,128,258658,1,2,0:0:0:0:
256,34,258915,5,4,0:0:0:0:
256,350,259171,1,4,0:0:0:0:
484,191,259428,1,8,0:0:0:0:
28,191,259684,1,4,0:0:0:0:
256,34,260197,5,4,0:0:0:0:
256,34,260453,1,2,0:0:0:0:
256,34,260710,2,0,B|256:266,1,227.5,4|0,0:0|0:0,0:0:0:0:
200,356,262248,5,4,0:0:0:0:
309,356,262504,1,2,0:0:0:0:
256,262,262761,1,4,0:0:0:0:
256,192,262889,12,4,265710,0:0:0:0:
