osu file format v8

[General]
AudioFilename: K-On_-_No_Thank_You.mp3
AudioLeadIn: 0
PreviewTime: 64241
Countdown: 0
SampleSet: Normal
StackLeniency: 0.7
Mode: 0
LetterboxInBreaks: 0

[Editor]
Bookmarks: 22805,44021,65236,83800,94408,115623,135844,136839,155402,179269,200485,220374,241590,252198
DistanceSpacing: 0.8
BeatDivisor: 4
GridSize: 8

[Metadata]
Title:NO, Thank You!
Artist:HTT
Creator:CDFA
Version:Collab
Source:K-ON!!
Tags:Emdyion Ari-Chan Rukarioman pieguy1372 Derekku fartownik Mafiamaster SteRRuM NatsumeRin Doomsday wmfchris

[Difficulty]
HPDrainRate:3
CircleSize:4
OverallDifficulty:8
ApproachRate:8
SliderMultiplier:2
SliderTickRate:2

[Events]
//Background and Video events
0,0,"K-On-Mio-Wallpaper-k-on-8350124-1024-768.jpg"
//Break Periods
2,83999,93656
2,155601,157304
//Storyboard Layer 0 (Background)
//Storyboard Layer 1 (Fail)
//Storyboard Layer 2 (Pass)
//Storyboard Layer 3 (Foreground)
Sprite,Foreground,Centre,"Storyboard\CDFA.png",320,240 M,1,10871,11203,-93,373,93,373 F,0,22473,22805,1,0
Sprite,Foreground,Centre,"Storyboard\Emdyion.png",320,240 M,1,22805,23136,-122,368,124,368 F,0,43689,44020,1,0
Sprite,Foreground,Centre,"Storyboard\Ari-chan.png",320,240 M,1,44020,44352,-117,373,118,372 F,0,64904,65236,1,0
Sprite,Foreground,Centre,"Storyboard\Rukarioman.png",320,240 M,1,65236,65567,-152,371,155,370 F,0,83468,83799,1,0
Sprite,Foreground,Centre,"Storyboard\pieguy1372.png",320,240 M,1,94407,94739,-161,372,163,371 F,0,114628,114960,1,0
Sprite,Foreground,Centre,"Storyboard\Derekku.png",320,240 M,1,114960,115291,-119,369,119,368 F,0,135512,135844,1,0
Sprite,Foreground,Centre,"Storyboard\fartownik.png",320,240 M,1,135844,136175,-127,372,129,371 F,0,155070,155402,1,0
Sprite,Foreground,Centre,"Storyboard\Mafiamaster.png",320,240 M,1,158054,158385,-166,373,170,373 F,0,178938,179269,1,0
Sprite,Foreground,Centre,"Storyboard\SteRRuM.png",320,240 M,1,179269,179601,-133,373,136,372 F,0,200153,200484,1,0
Sprite,Foreground,Centre,"Storyboard\NatsumeRin.png",320,240 M,1,200484,200816,-161,370,163,370 F,0,220043,220374,1,0
Sprite,Foreground,Centre,"Storyboard\Doomsday.png",320,240 M,1,220374,220705,-128,371,131,370 F,0,241258,241589,1,0
//Storyboard Sound Samples
//Background Colour Transformations
3,100,163,162,255

[TimingPoints]
10871,331.491712707182,4,1,0,81,1,0
65236,-100,4,1,0,81,0,1
82473,-100,4,1,0,81,0,0
94075,-200,4,2,0,81,0,0
96893,-100,4,1,0,80,0,0
115540,-100,4,1,0,100,0,0
115705,-100,4,1,0,80,0,0
118192,-100,4,1,0,100,0,0
118357,-100,4,1,0,80,0,0
120844,-100,4,1,0,100,0,0
121009,-100,4,1,0,80,0,0
123496,-100,4,1,0,100,0,0
123661,-100,4,1,0,80,0,0
126147,-100,4,1,0,100,0,0
126313,-100,4,1,0,80,0,0
128799,-100,4,1,0,100,0,0
128965,-100,4,1,0,80,0,0
131451,-100,4,1,0,100,0,0
131617,-100,4,1,0,80,0,0
132777,-100,4,1,0,100,0,0
132943,-100,4,1,0,80,0,0
133772,-100,4,1,0,100,0,0
133938,-100,4,1,0,0,0,0
135429,-100,4,1,0,100,0,0
135595,-100,4,1,0,80,0,0
136838,-100,4,1,0,80,0,1
155402,-100,4,1,0,80,0,0
157722,-200,4,2,0,81,0,0
171147,-200,4,1,0,60,0,0
172639,-100,4,2,0,60,0,0
172971,-100,4,1,0,60,0,0
173136,-100,4,2,0,60,0,0
177860,-100,4,1,0,81,0,0
178192,-100,4,2,0,81,0,0
178440,-100,4,1,0,81,0,0
204380,-100,4,2,0,100,0,0
205705,-100,4,1,0,81,0,0
209683,-100,4,2,0,100,0,0
211009,-100,4,1,0,81,0,0
214987,-100,4,2,0,100,0,0
216230,-100,4,1,0,81,0,0
218551,-200,4,1,0,81,0,0
218882,-100,4,1,0,81,0,0
223026,-100,4,1,0,81,0,1
241589,-100,4,1,0,81,0,0

[Colours]
Combo1 : 168,81,255
Combo2 : 238,252,69
Combo3 : 43,255,213
Combo4 : 224,20,35
Combo5 : 255,174,53

[HitObjects]
160,112,10871,1,2
352,112,11037,1,2
256,288,11203,1,2
256,192,11368,1,8
256,192,11451,1,8
256,192,11534,6,2,B|256:128|320:128,2,100
256,288,12031,1,8
199,344,12197,6,0,B|149:366|96:339,1,100,4|0
45,285,12529,1,8
101,228,12694,1,0
101,228,12777,1,0
101,228,12860,2,0,B|149:209|205:229,1,100
256,288,13192,1,8
312,231,13357,5,0
312,231,13440,1,0
312,231,13523,2,0,B|336:187|316:131,1,100,4|0
256,80,13855,1,8
199,23,14020,1,0
199,23,14103,1,0
199,23,14186,2,0,B|166:63|190:118,1,100
224,192,14518,1,8
256,272,14683,5,0
256,272,14766,1,0
256,272,14849,2,0,B|272:320|352:320,1,100,4|0
416,319,15181,1,8
472,262,15346,1,0
500,233,15429,1,0
471,204,15512,2,0,B|446:158|470:107,1,100
469,27,15844,1,8
388,27,16009,5,0
359,55,16092,1,0
330,83,16175,2,0,B|304:127|346:128|320:186,1,100,4|0
266,236,16507,1,8
209,292,16672,1,0
128,292,16837,6,2,B|56:211,1,100
162,217,17169,2,2,B|90:136,1,100,2|2
480,192,17501,6,0,B|426:221|385:189,1,100,4|0
329,132,17833,1,8
272,75,17998,1,0
243,46,18081,1,0
215,73,18164,2,0,B|187:117|206:171,1,100,0|0
262,225,18496,1,8
318,281,18661,5,0
346,309,18744,1,0
318,336,18827,2,0,B|272:363|221:338,1,100,4|0
165,281,19159,1,8
108,224,19324,1,0
79,195,19407,1,0
106,167,19490,2,0,B|136:124|111:68,1,100,0|0
55,14,19822,1,8
0,70,19987,5,0
27,98,20070,1,0
54,125,20153,2,0,B|106:104|164:129,1,100,4|0
208,181,20484,1,8
256,112,20650,1,0
284,83,20733,1,0
311,110,20816,2,0,B|340:153|319:210,1,100,0|0
263,262,21147,1,8
263,342,21313,5,0
291,370,21396,1,0
318,342,21479,2,0,B|317:264|381:264,1,100,4|0
446,265,21810,1,8
502,208,21976,1,0
424,191,22142,6,2,B|319:191,1,100
88,191,22473,6,2,B|193:191,1,100
256,144,22805,5,4
120,64,23136,1,8
48,104,23302,1,0
120,144,23468,1,0
192,104,23634,1,0
192,184,23799,1,8
120,216,23965,1,0
48,184,24131,2,0,B|48:296|48:296|152:296,1,200,0|8
216,296,24628,1,0
296,296,24794,1,0
376,296,24960,2,0,B|488:296,1,100,0|8
480,216,25291,2,0,B|368:216,1,100,0|4
144,192,25954,5,2
64,192,26120,1,0
104,264,26286,1,2
216,144,26617,1,2
256,72,26783,1,0
296,144,26949,1,2
408,264,27280,1,0
448,192,27446,1,2
368,192,27612,1,8
304,240,27777,2,0,B|200:240,1,100,2|8
144,192,28109,1,4
176,32,28440,5,8
256,32,28606,1,0
336,32,28772,1,0
432,160,29103,1,8
400,320,29435,1,0
256,248,29766,1,8
112,320,30098,1,0
80,160,30429,1,8
224,80,30761,6,0,B|128:32,2,100,0|2|8
256,152,31258,1,2
288,80,31424,2,0,B|384:32,2,100,0|2|8
256,152,31921,1,2
176,152,32087,2,8,B|72:152,2,100,0|2|8
256,152,32584,1,0
336,152,32750,2,0,B|456:152,1,100,2|0
440,232,33081,2,0,B|312:232,1,100,10|0
256,232,33413,5,4
144,344,33744,1,8
256,232,34076,1,0
368,344,34407,1,8
448,344,34573,1,0
408,272,34739,2,0,B|512:216,1,100
424,192,35070,1,8
424,112,35235,2,0,B|488:112|488:40,2,100
384,48,35733,1,8
256,152,36065,5,0
312,96,36230,1,2
368,40,36396,1,8
312,96,36562,1,2
256,152,36728,1,0
200,96,36893,1,2
144,40,37059,1,8
64,40,37225,1,2
64,119,37390,2,0,B|0:119|0:47,2,100,0|0|8
88,192,37888,1,0
160,232,38054,2,0,B|56:288,1,100,2|0
120,344,38385,2,0,B|224:288,1,100,10|0
256,232,38717,5,4
128,136,39048,1,8
184,80,39214,1,0
256,48,39380,1,0
328,80,39545,1,0
384,136,39711,1,8
352,296,40043,2,0,B|256:344|152:296,1,200,0|8
160,216,40540,2,0,B|257:171|353:219,1,200,0|0
408,272,41037,1,8
432,200,41203,1,0
384,136,41368,5,0
328,80,41534,1,2
256,48,41700,1,8
184,80,41865,1,2
128,136,42031,1,0
200,176,42197,1,2
256,120,42363,1,8
312,176,42529,1,2
256,232,42694,5,0
184,272,42860,1,0
152,248,42943,1,0
144,208,43026,2,0,B|112:168|112:168|160:120,1,100,0|0
216,176,43357,6,0,B|248:136|248:136|200:88,1,100
176,32,43689,2,0,B|120:16|120:16|56:56,1,100
48,112,44020,6,2,L|80:152|48:192,1,100,0|0
104,272,44352,1,8
176,344,44518,1,0
240,272,44683,2,2,L|280:240|320:272,1,100,0|0
392,208,45015,1,8
472,144,45181,1,8
392,80,45346,2,2,L|304:32,1,100,0|0
216,80,45678,2,0,L|304:128,1,100,8|0
280,224,46009,2,2,L|192:176|184:176|184:176|96:128,2,200,0|0|0
456,320,47004,5,8
368,272,47170,1,0
280,320,47335,1,0
368,272,47501,2,0,L|368:160,2,100,0|8|0
312,192,47998,1,0
256,104,48164,2,0,L|256:208,2,100,0|8|0
168,56,48661,1,0
168,56,48827,1,8
88,112,48993,2,0,L|56:152|96:200,1,100,8|0
168,256,49324,6,2,B|160:336|216:352|272:336|264:248,1,200,0|8
344,200,49822,1,0
344,200,49987,2,2,B|336:120|392:104|448:120|440:208,1,200,0|8
392,288,50484,1,0
392,288,50650,2,2,B|392:72,1,200,0|8
304,32,51147,1,0
224,88,51313,2,2,L|144:152,1,100,0|0
48,128,51645,2,0,L|136:56,1,100,8|0
240,184,51975,2,2,L|161:246|158:253|158:253|79:315,1,200,0|0
168,384,52473,1,0
256,328,52639,5,0
344,272,52805,1,0
424,328,52971,1,8
344,272,53136,1,0
344,272,53219,1,0
344,272,53302,2,0,L|344:168,1,100
432,72,53634,2,2,L|432:176,1,100,8|0
248,168,53965,2,0,L|248:64,2,100,0|8|8
72,264,54462,1,0
72,264,54628,6,2,B|144:264|144:328|184:328|256:328,1,200,0|8
320,256,55125,2,0,B|352:208|320:160,1,100,8|0
424,176,55457,2,0,B|392:128|424:80,1,100,0|8
336,40,55788,1,0
248,80,55954,2,2,B|280:128|248:176,2,100,0|0|8
152,152,56451,2,2,B|120:200|152:248,2,100,8|0|0
56,128,56949,2,2,B|96:80|56:24,1,100,0|0
0,80,57280,2,2,B|208:80,1,200,0|0
256,192,57777,1,0
256,192,57943,12,0,59269
256,32,59601,5,0
256,352,59932,2,2,B|144:352|80:240,1,200,0|8
256,32,60595,2,2,B|368:32|432:144,2,200,0|8|0
56,48,61589,2,2,B|144:120,1,100,8|8
136,208,61921,2,0,B|56:144,1,100
64,248,62252,2,2,L|144:312|224:248,1,200,8|0
256,192,62750,12,0,63744
256,192,63910,5,4
256,192,64075,1,0
256,192,64241,1,4
256,352,64572,5,0
256,32,64903,1,0
184,344,65235,6,0,B|272:152,1,200,2|0
183,200,65732,1,8
104,240,65898,2,0,B|192:48,1,200,2|0
280,64,66395,5,0
280,152,66561,2,0,B|280:216|336:256|392:216|392:152,1,200,2|0
336,80,67058,2,0,B|336:16|392:-24|448:16|448:80,1,200,2|0
256,192,67721,12,4,69213
72,192,69544,5,0
440,192,69876,1,0
72,192,70207,1,0
440,120,70539,6,0,B|440:56|384:16|328:56|328:120,1,200,2|0
384,192,71036,1,8
328,264,71202,2,0,B|328:328|384:368|440:328|440:264,1,200,2|0
384,192,71699,5,0
296,192,71865,2,0,B|64:192,1,200,2|0
144,264,72362,1,0
8,192,72693,2,0,B|128:320|128:40|264:200,1,300,0|4
256,104,73356,6,0,B|256:0,1,100,8|0
344,192,73688,2,8,B|456:192,1,100
256,280,74019,2,0,B|256:384,1,100,8|0
168,192,74351,2,0,B|64:192,2,100,8|0|8
256,192,74848,5,0
32,192,75180,1,0
256,192,75511,1,0
384,192,75677,1,0
432,192,75760,1,0
480,192,75843,6,0,B|480:-16,1,200,2|0
408,48,76340,1,0
408,136,76506,2,0,B|192:136,1,200,2|0
120,136,77003,1,0
168,56,77169,2,0,B|376:56,1,200,2|0
368,160,77666,2,0,B|456:248|368:336,1,200,4|4
32,192,78329,6,0,B|32:120|128:136,1,100,0|8
256,352,78826,2,0,B|328:352|312:256,1,100,2|8
32,192,79323,1,0
315,289,79655,2,0,B|259:97|43:137,1,300,0|4
192,32,80483,6,0,B|200:80|256:152|328:72|320:16,1,200,2|2
256,352,81146,1,2
416,192,81478,1,0
256,192,81644,1,0
96,192,81809,1,0
320,192,82141,2,0,B|312:240|256:312|184:232|192:176,1,200,0|4
208,32,82638,5,0
328,80,82804,1,0
256,192,82970,1,0
184,304,83136,1,0
304,352,83301,1,0
304,352,83384,1,0
304,352,83467,1,0
304,352,83550,1,0
304,352,83633,1,0
304,352,83716,1,0
304,352,83799,1,4
256,48,94406,6,0,C|256:152,1,100,4|2
256,178,94903,1,2
256,208,95069,1,2
256,272,95401,1,2
256,336,95732,1,2
136,232,96064,1,2
256,128,96395,1,2
376,232,96727,1,2
256,336,97058,6,0,B|128:368|80:248,1,200,4|8
152,192,97555,1,0
87,118,97721,2,0,B|128:16|256:48,1,200,0|8
336,232,98384,6,0,B|440:192|456:80,1,200,0|8
352,88,98881,1,0
312,112,98964,1,0
280,152,99047,2,0,B|384:152,1,100,0|0
320,72,99379,2,0,B|216:72,1,100,8|0
112,192,99710,5,0
256,328,100042,2,0,B|256:224,2,100,8|0|0
256,48,100704,5,8
160,328,101036,1,0
408,152,101367,1,8
104,152,101699,1,0
352,328,102030,1,8
256,40,102362,6,0,B|168:128|80:40,1,200,0|8
256,144,102859,1,0
256,144,103025,2,0,B|344:56|432:144,1,200,0|8
256,240,103522,1,0
256,240,103688,2,0,B|168:328|80:240,1,200,0|8
80,144,104185,5,0
120,112,104268,1,0
168,112,104351,2,0,B|272:112,1,100,0|0
200,192,104682,2,0,B|96:192,1,100,8|0
56,56,105014,5,4
56,56,105180,1,0
56,56,105345,1,8
256,56,105677,1,0
256,56,105843,2,0,B|312:152|256:248,1,200
176,192,106340,1,0
368,128,106671,5,8
456,176,106837,1,0
456,272,107003,1,0
368,320,107169,1,0
280,272,107334,1,8
280,176,107500,1,0
368,224,107666,5,0
368,224,107832,1,0
368,224,107997,1,8
168,224,108329,1,0
168,224,108495,2,0,B|112:128|168:32,1,200
248,88,108992,1,0
144,256,109323,5,8
56,208,109489,1,0
56,112,109655,1,0
144,64,109821,1,0
232,112,109986,1,8
232,208,110152,1,0
144,160,110318,6,0,B|117:111|144:64,1,100
232,112,110649,1,8
432,112,110981,2,0,B|432:216,1,100
384,296,111312,1,8
384,296,111478,1,0
330,211,111644,6,0,B|330:107,1,100
256,48,111975,2,0,B|168:104,1,100,8|0
16,152,112307,2,0,B|104:208,1,100,0|0
256,256,112638,2,0,B|168:312,1,100,8|0
16,256,112970,2,0,B|104:200,1,100,0|0
200,202,113301,1,8
368,88,113633,5,0
368,88,113798,2,0,B|424:184|368:280,1,200
272,296,114296,2,0,B|120:296,1,150
88,256,114627,1,8
88,152,114793,1,0
152,72,114960,5,2
80,352,115291,1,8
352,288,115623,2,0,B|424:288|480:240|512:152|512:64,1,300,4|8
296,245,116286,2,0,B|274:176|304:108|379:52|463:26,1,300,2|8
352,288,116949,2,0,B|424:288|480:240|512:152|512:64,1,300,0|8
296,245,117611,21,2
96,72,117943,1,8
40,344,118275,2,0,B|72:360|72:360|104:344|104:344|136:360|136:360|168:344|168:344|200:360|200:360|232:344|232:344|264:360|264:360|296:344|296:344|328:352,1,300,4|8
418,359,118938,1,2
458,271,119103,1,0
387,193,119269,1,8
296,245,119435,1,0
210,186,119600,1,0
143,259,119766,1,0
50,217,119932,1,8
60,118,120097,1,0
161,92,120263,5,2
312,348,120595,1,8
24,344,120926,2,0,B|0:192|0:192|112:56,1,300,4|8
93,359,121589,2,0,B|187:237|187:237|155:64,1,300,2|8
24,344,122252,2,0,B|0:192|0:192|112:56,1,300,0|8
93,359,122915,5,2
360,280,123247,1,8
160,88,123578,2,0,B|161:59|161:59|136:46|136:46|137:17|137:17|73:17|73:17|40:73|40:73|66:86|66:86|64:115|64:115|90:128|90:128|94:134,1,300,4|8
72,272,124241,2,0,B|104:296|104:296|88:312|88:312|128:336,1,100,2|0
312,368,124573,2,0,B|350:356|350:356|340:335|340:335|386:327,1,100,8|0
424,168,124904,2,0,B|408:131|408:131|430:125|430:125|407:84,1,100
208,56,125236,2,0,B|169:67|169:67|179:88|179:88|133:96,1,100,8|0
72,272,125567,37,2
344,272,125899,1,8
208,56,126230,2,0,B|150:116|148:192|148:192|81:156|0:176,1,300,4|8
136,288,126893,2,0,B|216:312|256:376|256:376|296:312|376:288,1,300,2|8
508,175,127556,2,0,B|430:156|363:192|363:192|361:116|304:56,1,300,0|8
256,112,128219,38,0,B|256:320,1,200,2|8
384,152,128882,2,0,B|304:244|208:244|128:152,1,300,4|8
80,104,129545,2,2,B|0:200|64:408|256:477|448:408|512:200|432:104,1,800,2|2
256,312,131203,53,8
168,24,131534,1,4
416,200,131866,1,8
96,200,132197,1,2
344,24,132529,1,8
480,288,132860,53,4
256,112,133192,1,8
32,288,133523,1,2
256,192,133855,1,4
256,192,133938,12,0,135181
256,272,135511,21,4
144,104,135843,5,2
368,104,136174,1,2
256,272,136506,2,0,C|256:336,4,50,2|0|0|0|4
352,288,137003,5,0
448,256,137169,1,8
472,160,137334,2,0,B|472:80|376:80,1,100,0|0
352,160,137666,1,0
256,120,137832,1,8
176,200,137997,2,0,B|120:232|72:216,1,100,0|2
160,112,138329,6,2,B|208:88|272:96,1,100
376,168,138660,2,2,B|328:200|264:192,1,100
368,80,138992,2,0,B|424:64|480:64,1,100,0|2
480,160,139323,1,0
480,160,139489,6,0,B|480:224|424:240,1,100,8|0
328,224,139821,2,0,B|248:232|216:296,1,100,8|0
144,304,140152,2,0,B|80:304|56:256,1,100,8|0
144,216,140483,1,8
72,144,140649,1,0
168,104,140815,1,8
240,176,140981,5,8
240,176,141064,1,8
240,176,141146,1,8
336,184,141312,2,0,B|384:200|456:176,2,100,4|2|6
312,280,141809,1,2
216,312,141975,1,0
120,304,142141,6,0,B|88:256|8:240,1,100,4|0
72,152,142472,1,8
136,72,142638,1,0
232,80,142804,2,8,B|288:120|352:56,1,100,0|0
352,176,143135,1,8
448,200,143301,1,0
392,280,143467,6,2,B|344:320|280:304,1,100,2|2
192,336,143798,2,2,B|136:344|88:320,1,100,2|2
160,232,144130,2,2,B|176:176|128:128,1,100,2|2
264,136,144461,2,0,B|232:88|256:24,1,100,0|2
392,104,144793,6,0,B|400:176|480:176,1,100,8|0
408,256,145124,2,0,B|412:315|484:331,1,100,4|0
328,312,145456,2,0,B|304:256|232:256,1,100,8|0
270,169,145787,2,0,B|262:105|174:113,1,100,4|0
112,152,146119,1,8
64,240,146285,1,0
152,288,146450,5,8
368,272,146616,1,0
400,72,146782,1,8
184,96,146948,1,0
272,208,147113,1,8
272,208,147279,1,4
272,208,147445,6,0,B|312:176|400:192,1,100,14|0
464,192,147776,1,0
424,280,147942,1,2
328,296,148108,2,0,B|288:336|208:312,1,100,10|0
160,256,148439,1,0
64,288,148605,1,0
72,192,148771,6,0,B|80:136|24:104,1,100,10|0
120,64,149102,1,0
184,144,149268,2,0,B|224:192|320:192|376:136,1,200,10|0
272,104,149765,1,10
272,104,149931,1,0
368,64,150097,6,0,B|438:69|448:144,1,100,10|0
440,224,150428,1,0
352,280,150594,2,0,B|305:327|209:327|169:279,1,200,10|8
256,96,151257,1,8
168,184,151423,6,0,B|104:208|56:168,1,100,4|0
344,200,151754,2,0,B|408:176|456:216,1,100
352,280,152086,1,8
256,312,152251,1,0
160,272,152417,1,8
64,312,152583,6,0,B|0:312,2,50,0|0|8
160,192,152914,2,0,B|120:160|200:120|144:80,1,100,4|0
448,72,153246,2,0,B|512:72,2,50,0|0|8
352,192,153577,2,0,B|392:224|312:264|368:304,1,100,4|0
256,160,154075,5,4
256,160,154240,1,4
256,160,155401,5,4
176,200,158054,6,0,B|280:144|280:240|384:200,1,200,2|0
448,192,159048,1,0
496,256,159380,2,0,B|528:232|552:192|528:152|496:128,2,150,2|0|2
464,280,160540,1,0
432,304,160705,6,0,B|328:360|328:264|224:304,1,200,2|0
160,312,161700,1,0
80,328,162031,2,0,B|80:264|32:240|32:240|80:216|80:152,1,200,2|2
96,88,163026,1,0
168,56,163357,6,0,B|192:96|192:96|176:112|176:112|200:160,1,100,2|0
321,140,164020,2,0,B|336:112|336:112|320:96|320:96|344:56,1,100
256,40,164683,2,0,B|256:192,2,150
336,32,166009,6,0,B|384:72|360:144,1,100,2|0
176,32,166672,2,0,B|128:72|152:144,1,100
208,176,167335,2,0,B|320:176,1,100
256,136,167833,1,0
256,120,167915,1,0
256,104,167998,1,0
256,24,168330,1,0
112,256,168661,5,2
160,344,168993,1,0
256,376,169324,1,2
352,344,169656,1,0
400,256,169987,1,2
352,168,170319,1,0
352,168,170484,1,0
160,168,170816,1,0
160,168,170982,1,0
224,240,171313,6,0,B|208:248|168:280|208:312|224:320,1,100,0|0
291,318,171810,2,0,B|304:312|344:280|304:248|288:240,1,100
256,176,172308,2,0,B|256:72,2,100,0|2|0
256,280,173302,1,4
208,368,173634,1,0
256,384,173799,1,0
304,368,173965,1,2
360,288,174297,5,0
152,288,174628,1,0
384,192,174960,1,0
128,192,175291,1,2
216,16,175954,5,0
176,48,176120,1,0
176,96,176286,1,4
296,16,176617,1,0
336,48,176783,1,0
336,96,176949,1,4
256,32,177280,5,0
256,56,177363,1,0
256,80,177446,1,0
256,128,177612,1,4
256,176,177777,1,0
256,280,177943,5,0
256,280,178109,1,0
256,384,178275,1,0
88,248,178606,5,0
64,232,178689,1,0
48,208,178772,1,0
40,176,178855,1,0
40,144,178938,1,0
48,112,179020,1,0
64,88,179103,1,0
88,72,179186,1,0
112,64,179269,6,0,B|224:64,1,100,0|2
272,144,179601,2,0,B|144:144,1,100,0|2
80,320,180098,1,0
80,320,180263,1,2
272,272,180595,6,0,B|272:160,1,100,0|2
368,152,180926,2,0,B|368:280,1,100,0|2
448,64,181424,1,0
448,64,181589,1,2
248,48,181921,5,0
200,56,182004,1,0
168,96,182087,1,2
144,192,182252,1,0
128,240,182335,1,0
80,264,182418,2,0,B|64:336|152:320,1,100,2|0
224,272,182750,1,0
224,272,182915,1,2
384,152,183247,5,0
336,144,183330,1,0
328,96,183413,1,2
232,96,183578,1,0
216,144,183661,1,0
168,152,183744,1,2
88,336,183910,6,0,B|88:224,1,100,4|0
256,144,184241,2,0,B|256:248,1,100,4|0
424,336,184573,6,0,B|424:224,1,100,2|0
424,136,184904,1,0
320,128,185070,1,2
160,248,185402,1,0
160,248,185567,1,2
112,56,185899,5,0
160,48,185982,1,0
200,80,186065,1,2
272,152,186230,1,0
312,176,186313,1,0
360,168,186396,1,2
432,240,186562,2,0,B|400:336,1,100
400,334,186893,1,2
400,334,187059,1,0
320,272,187225,5,0
272,248,187308,1,0
224,256,187391,1,2
136,208,187556,1,0
104,160,187639,1,0
136,112,187722,1,2
200,56,187888,2,0,B|320:48,1,100
384,104,188219,1,2
304,160,188385,1,0
392,208,188551,5,0
392,208,188634,1,0
392,208,188717,1,2
312,264,188882,1,0
312,264,188965,1,0
312,264,189048,1,2
216,288,189214,6,0,B|96:216,1,100,4|0
208,168,189545,2,0,B|160:48,1,100,4|0
272,88,189877,5,0
320,80,189960,1,0
368,88,190043,1,0
408,112,190125,1,0
440,152,190208,2,2,B|424:264,1,100
328,256,190540,1,0
328,256,190705,1,0
328,256,190871,1,0
136,192,191203,5,2
136,168,191286,1,0
136,144,191368,1,0
240,96,191534,1,2
240,120,191617,1,0
240,144,191700,1,0
344,192,191866,1,2
344,168,191949,1,0
344,144,192031,1,0
448,96,192197,1,0
448,120,192280,1,0
448,144,192363,1,0
488,240,192529,6,0,B|408:304,1,100
328,240,192860,2,0,B|248:304,1,100,0|2
176,232,193192,5,0
136,200,193275,1,0
136,152,193357,1,0
176,120,193440,1,0
224,128,193523,1,0
280,208,193689,1,0
304,304,193855,5,0
336,344,193938,1,0
384,344,194020,1,0
416,304,194103,1,0
408,256,194186,1,0
376,160,194352,1,0
320,72,194518,2,0,B|352:32,7,50
320,72,195181,6,0,B|208:72,1,100
152,144,195512,2,0,B|256:144,1,100,0|2
288,184,195761,1,0
336,184,195844,1,0
376,216,195926,1,0
424,216,196009,1,0
376,304,196175,1,0
280,272,196341,1,0
232,272,196424,1,0
192,240,196507,1,0
144,240,196589,1,0
104,208,196672,1,0
104,104,196838,5,4
304,104,197170,1,4
504,104,197501,1,4
384,264,197833,5,4
320,336,197998,1,0
288,248,198164,1,0
288,248,198330,5,4
328,160,198496,1,0
232,168,198661,1,0
232,168,198827,5,4
136,176,198993,1,0
176,88,199159,1,0
176,88,199324,5,4
272,80,199490,1,0
368,40,199656,1,0
424,232,199822,5,4
368,40,200153,1,4
424,232,200484,6,0,B|352:240|280:164|297:85,1,200,0|8
368,40,200982,1,0
399,134,201147,2,0,B|364:191|289:226|220:212,1,200,0|8
194,117,201645,1,0
294,108,201810,2,0,B|305:174|301:244|256:313,1,200,0|8
182,362,202308,1,0
172,262,202473,6,0,B|202:216|203:164,1,100,0|0
124,104,202805,2,0,B|117:162|97:205,1,100,8|0
76,298,203136,2,0,B|100:346|148:380|230:362|259:316,1,200,0|8
329,276,203634,1,0
420,237,203799,2,0,B|480:235|512:285,2,100,0|0|8
426,337,204297,1,0
504,160,204462,5,2
433,88,204628,1,0
433,88,204711,1,2
433,88,204794,1,8
348,141,204960,1,0
260,188,205125,2,0,B|215:224|156:212,1,100,2|0
125,56,205457,2,0,B|170:20|229:32,1,100,4|2
294,95,205788,6,0,B|66:158,1,200,0|8
200,164,206286,1,0
296,188,206451,2,0,B|68:251,1,200,0|8
202,257,206949,1,0
298,281,207114,2,0,B|70:344,1,200,0|8
204,350,207612,1,0
251,262,207777,5,0
313,339,207943,1,0
349,246,208109,1,8
413,322,208275,1,0
448,228,208440,2,0,B|417:154|334:131|283:174,1,200,0|8
200,227,208938,1,0
115,279,209103,2,0,B|69:308|9:300,2,100,0|0|8
200,227,209601,1,0
19,301,209766,5,2
50,205,209932,1,0
50,205,210015,1,2
50,205,210098,1,8
116,279,210263,1,0
200,227,210429,2,0,B|227:279|195:342,1,100,2|0
50,205,210761,2,0,B|11:248|21:317,1,100,4|6
116,279,211092,6,0,B|160:202|121:138|121:138|187:138,1,200,0|8
173,138,211589,1,0
307,69,211755,2,0,B|408:69|408:69|358:140|426:139,1,200,0|8
422,139,212252,1,0
475,279,212418,2,0,B|423:344|423:344|397:278|306:278,1,200,0|8
332,279,212915,1,0
208,193,213081,5,0
344,130,213247,1,8
332,279,213413,1,8
344,130,213578,1,0
208,193,213744,2,0,B|84:194,2,100,0|0|8
208,193,214241,1,0
358,193,214407,2,0,B|460:194,2,100,0|0|8
358,193,214904,1,0
256,256,215070,5,4
166,175,215236,1,2
220,67,215402,1,12
338,79,215567,1,4
358,193,215733,2,0,B|384:244|367:307,1,100,0|4
256,256,216065,6,0,B|220:199|222:116|263:56,1,200,4|4
456,192,216728,1,0
255,318,217059,1,4
56,192,217391,1,0
256,24,217722,5,4
496,192,218054,1,4
256,360,218385,1,4
16,192,218717,2,0,B|128:192,1,100,4|0
208,192,219214,1,0
400,248,219380,1,0
304,248,219545,1,0
112,312,219711,5,0
208,312,219876,1,0
232,312,219960,1,0
256,312,220043,2,0,B|256:208,1,100
256,112,220374,5,4
256,112,220540,1,4
256,112,220705,1,4
176,256,221037,1,0
336,256,221368,1,0
256,280,221534,5,4
256,280,221700,1,4
256,280,221866,1,4
256,280,222031,2,0,B|256:72,1,200
256,80,222529,1,0
256,80,222612,1,0
256,80,222694,1,0
256,80,222777,1,0
256,80,222860,1,0
256,80,222943,1,4
256,80,223026,6,0,B|192:64|112:104|112:208,1,200,0|8
184,216,223523,1,0
256,248,223689,2,0,B|257:327|192:376|113:351,1,200,0|8
56,304,224186,1,0
132,278,224352,6,0,B|196:238|196:134|108:94,1,200,4|8
96,192,224849,1,0
96,192,225181,1,0
96,192,225512,6,0,B|104:56|192:0|321:7|408:56|416:216,1,500,4|0
336,224,226507,5,0
256,208,226672,1,8
176,224,226838,1,0
96,192,227004,1,0
240,120,227335,1,8
240,272,227667,1,0
96,192,227998,1,8
256,80,228330,6,0,B|320:64|400:104|400:208,1,200,4|8
328,216,228827,1,0
256,248,228993,2,0,B|254:327|328:376|398:351,1,200,0|8
456,304,229490,1,0
380,278,229656,6,0,B|316:238|312:128|404:94,1,200,4|8
416,192,230153,1,0
416,192,230485,1,0
416,192,230816,1,0
464,128,230982,6,0,B|416:96|363:104|304:160|356:250,1,200,4|8
256,224,231479,1,0
171,213,231645,2,0,B|184:152|144:112|88:96|32:144,1,200,4|8
96,192,232142,1,0
121,267,232308,5,4
177,322,232473,1,0
256,320,232639,1,8
335,322,232805,1,0
393,267,232971,1,4
320,248,233136,1,0
320,248,233219,1,0
320,248,233302,1,8
256,208,233468,1,8
192,248,233634,6,0,B|112:224|96:112|192:80,1,200,4|8
242,113,234131,1,0
320,136,234297,2,0,B|400:160|416:272|320:304,1,200,0|8
269,270,234794,1,0
192,296,234960,6,0,B|112:312|48:248|80:152,1,200,4|8
32,112,235457,1,0
176,48,235788,1,0
160,208,236120,1,0
168,288,236286,6,0,B|216:344|304:344|360:272,1,200,4|8
400,344,236783,1,4
504,240,237114,1,4
479,81,237446,2,0,B|431:25|384:8|295:25|327:105|263:121|183:120|207:25|135:-8|63:17|7:120,1,500,4|0
136,192,238606,1,0
80,344,238938,6,0,B|160:368|232:336|272:256,1,200,4|8
217,212,239434,1,0
297,212,239600,1,0
256,143,239765,1,0
256,143,239848,1,0
256,143,239931,1,8
217,67,240097,1,0
297,67,240262,1,0
256,192,240429,12,4,241589
