osu file format v12

[General]
AudioFilename: Listen!! (TV Size).mp3
AudioLeadIn: 2000
PreviewTime: 44825
Countdown: 1
SampleSet: Soft
StackLeniency: 0.7
Mode: 0
LetterboxInBreaks: 1
WidescreenStoryboard: 1

[Editor]
DistanceSpacing: 1.3
BeatDivisor: 4
GridSize: 4

[Metadata]
Title:Listen!! (TV Size)
TitleUnicode:Listen!! (TV Size)
Artist:HTT
ArtistUnicode:HTT
Creator:UnitedWeSin
Version:Insane
Source:
Tags:kakifly kyoto animation houkago tea time ho-kago keion ending alacat uws
BeatmapID:302800
BeatmapSetID:117553

[Difficulty]
HPDrainRate:7
CircleSize:4
OverallDifficulty:7
ApproachRate:9
SliderMultiplier:1.9
SliderTickRate:1

[Events]
//Background and Video events
Video,0,"video_out.flv"
0,0,"bg1.jpg",0,0
//Break Periods
//Storyboard Layer 0 (Background)
//Storyboard Layer 1 (Fail)
//Storyboard Layer 2 (Pass)
//Storyboard Layer 3 (Foreground)
//Storyboard Sound Samples
//Background Colour Transformations
3,100,163,162,255

[TimingPoints]
-346,342.857142857143,4,2,1,50,1,0
511,-100,4,2,1,30,0,0
1025,-100,4,2,1,60,0,0
11996,-111.111111111111,4,2,1,50,0,0
22968,-100,4,2,1,50,0,0
33921,342.857142857143,4,2,1,50,1,0
44903,342.857142857143,4,2,1,60,1,1
44903,-90.9090909090909,4,2,1,60,0,1
55788,-90.9090909090909,4,2,1,60,0,0
55874,-90.9090909090909,4,2,1,60,0,1
65988,-166.666666666667,4,2,2,60,0,0
66503,-166.666666666667,4,2,1,60,0,0
66845,-90.9090909090909,4,2,1,60,0,1
66931,-90.9090909090909,4,2,1,60,0,0
76445,-90.9090909090909,4,2,2,30,0,0
77817,-90.9090909090909,4,2,1,50,0,0
79188,-100,4,2,1,60,0,1
79274,-100,4,2,1,60,0,0

[Colours]
Combo1 : 253,0,126
Combo2 : 236,118,0
Combo3 : 0,139,206

[HitObjects]
212,48,339,5,2,0:0:0:0:
308,108,511,1,0,1:0:0:0:
312,120,596,1,0,1:0:0:0:
316,132,682,1,0,1:0:0:0:
320,144,768,1,0,1:0:0:0:
324,156,854,1,0,1:0:0:0:
328,168,939,1,0,1:0:0:0:
332,180,1025,6,0,B|348:224|348:224|384:256,1,95,4|0,0:0|0:0,0:0:0:0:
248,356,1368,2,0,B|232:312|232:312|196:280,1,95,0|0,1:0|0:0,0:0:0:0:
48,272,1711,2,0,L|12:384,1,95,2|2,0:0|0:0,0:0:0:0:
144,148,2054,2,0,P|123:103|80:65,1,95,0|0,1:0|0:0,0:0:0:0:
192,256,2396,5,2,0:0:0:0:
344,176,2568,1,0,0:0:0:0:
208,68,2739,1,0,1:0:0:0:
244,264,2911,1,2,0:0:0:0:
296,280,3254,5,2,0:0:0:0:
380,328,3425,1,0,1:0:0:0:
376,228,3596,1,0,0:0:0:0:
224,352,3768,6,0,L|128:352,1,95,2|0,0:0|0:0,0:0:0:0:
32,240,4111,2,0,L|127:240,1,95,0|0,1:0|0:0,0:0:0:0:
264,80,4454,1,2,0:0:0:0:
260,176,4625,1,2,0:0:0:0:
104,96,4796,2,0,P|88:48|96:-8,1,95,0|0,1:0|0:0,0:0:0:0:
156,188,5139,5,2,0:0:0:0:
340,128,5311,1,0,0:0:0:0:
304,320,5482,1,0,1:0:0:0:
388,128,5654,1,0,0:0:0:0:
160,284,5996,6,0,B|256:252|256:324|352:284,1,190,4|0,0:0|0:0,0:0:0:0:
416,224,6425,5,0,0:0:0:0:
416,224,6511,2,0,L|432:124,1,95,4|0,0:0|0:0,0:0:0:0:
248,32,6854,2,0,L|272:132,1,95,0|0,1:0|0:0,0:0:0:0:
224,352,7196,2,0,L|192:244,1,95,2|2,0:0|0:0,0:0:0:0:
0,120,7539,2,0,B|34:154|34:154|85:172,1,95,0|0,1:0|0:0,0:0:0:0:
208,136,7882,5,2,0:0:0:0:
96,268,8054,1,0,0:0:0:0:
80,88,8225,1,0,1:0:0:0:
140,304,8396,1,2,0:0:0:0:
192,324,8739,5,2,0:0:0:0:
264,260,8911,1,0,1:0:0:0:
332,196,9082,1,0,0:0:0:0:
420,332,9254,6,0,P|373:317|343:277,1,95,2|0,0:0|0:0,0:0:0:0:
404,36,9596,2,0,L|400:144,1,95,0|0,1:0|0:0,0:0:0:0:
212,184,9939,1,2,0:0:0:0:
184,92,10111,1,2,0:0:0:0:
80,240,10282,2,0,P|69:288|88:332,1,95,0|0,1:0|0:0,0:0:0:0:
312,240,10625,5,2,0:0:0:0:
212,184,10796,1,0,0:0:0:0:
356,136,10968,1,0,1:0:0:0:
148,280,11139,1,2,0:0:0:0:
352,80,11482,6,0,B|256:112|256:40|160:80,1,190,4|0,0:0|0:0,0:0:0:0:
88,140,11911,5,0,0:0:0:0:
88,140,11996,2,0,L|64:224,1,85.4999973907472,4|0,0:0|0:0,0:0:0:0:
244,344,12339,2,0,L|220:261,1,85.4999973907472,0|0,1:0|0:0,0:0:0:0:
360,164,12682,1,2,0:0:0:0:
400,241,12854,1,2,0:0:0:0:
464,84,13025,2,0,P|476:40|472:-8,1,85.4999973907472,0|0,1:0|0:0,0:0:0:0:
320,88,13368,5,2,0:0:0:0:
324,240,13539,2,0,P|300:280|260:300,1,85.4999973907472,0|0,0:0|1:0,0:0:0:0:
108,256,13882,2,0,P|154:256|191:281,1,85.4999973907472,2|0,0:0|0:0,0:0:0:0:
388,356,14225,2,0,P|341:355|304:330,1,85.4999973907472,2|0,0:0|1:0,0:0:0:0:
184,144,14568,5,0,0:0:0:0:
184,144,14739,2,0,P|136:168|92:168,1,85.4999973907472,2|0,0:0|0:0,0:0:0:0:
120,72,15082,1,0,1:0:0:0:
252,216,15254,1,0,0:0:0:0:
352,80,15425,2,0,B|442:93|412:151|505:158,1,170.999994781494,2|0,0:0|1:0,0:0:0:0:
496,68,15939,1,0,0:0:0:0:
464,264,16111,5,2,0:0:0:0:
348,172,16282,1,0,0:0:0:0:
204,208,16454,1,0,1:0:0:0:
204,208,16625,2,0,P|192:160|151:122,1,85.4999973907472,4|0,0:0|0:0,0:0:0:0:
244,312,16968,2,0,B|300:320|343:283|343:283|392:328,1,170.999994781494,2|0,0:0|0:0,0:0:0:0:
468,364,17396,5,0,0:0:0:0:
468,364,17482,2,0,P|496:332|504:288,1,85.4999973907472,2|0,0:0|0:0,0:0:0:0:
356,120,17825,2,0,L|340:216,1,85.4999973907472,0|0,1:0|0:0,0:0:0:0:
168,352,18168,1,2,0:0:0:0:
140,272,18339,1,2,0:0:0:0:
0,360,18511,2,0,L|88:336,1,85.4999973907472,0|0,1:0|0:0,0:0:0:0:
228,188,18854,5,2,0:0:0:0:
140,124,19025,2,0,P|120:82|124:39,1,85.4999973907472,0|0,0:0|1:0,0:0:0:0:
248,292,19368,2,0,B|292:312|292:312|360:272|416:324,1,170.999994781494,2|2,0:0|0:0,0:0:0:0:
348,384,19882,1,0,1:0:0:0:
296,200,20054,1,0,0:0:0:0:
160,292,20225,6,0,P|120:272|100:232,1,85.4999973907472,2|0,0:0|0:0,0:0:0:0:
208,48,20568,2,0,L|228:152,1,85.4999973907472,0|0,1:0|0:0,0:0:0:0:
376,308,20911,1,2,0:0:0:0:
352,216,21082,1,2,0:0:0:0:
452,128,21254,2,0,P|492:148|512:188,1,85.4999973907472,0|0,1:0|0:0,0:0:0:0:
512,360,21596,1,2,0:0:0:0:
312,328,21768,6,0,B|276:316|276:316|248:320|248:320|220:308,1,85.4999973907472,0|0,0:0|1:0,0:0:0:0:
48,284,22111,2,0,B|36:319|36:319|36:367,1,85.4999973907472,6|0,0:0|0:0,0:0:0:0:
168,184,22454,2,0,B|158:138|158:138|112:96,1,85.4999973907472,6|0,0:0|1:0,0:0:0:0:
112,108,22711,1,0,0:0:0:0:
96,104,22796,1,0,0:0:0:0:
248,256,22968,6,0,P|304:252|348:228,1,95,4|0,0:0|0:0,0:0:0:0:
348,72,23311,2,0,P|292:76|248:100,1,95,0|0,1:0|0:0,0:0:0:0:
380,336,23654,2,0,B|440:299|440:226|440:226|436:152,1,190,2|0,0:0|1:0,0:0:0:0:
432,64,24168,1,0,0:0:0:0:
308,160,24339,5,2,0:0:0:0:
164,104,24511,2,0,P|121:135|96:183,1,95,0|0,0:0|1:0,0:0:0:0:
248,268,24854,2,0,P|228:224|188:188,1,95,2|0,0:0|0:0,0:0:0:0:
104,324,25196,2,0,B|172:312|226:357|226:357|288:344,1,190,2|0,0:0|0:0,0:0:0:0:
360,288,25625,5,0,0:0:0:0:
360,288,25711,2,0,B|372:240|372:240|360:184,1,95,2|0,0:0|0:0,0:0:0:0:
280,240,26054,1,0,1:0:0:0:
460,192,26225,1,0,0:0:0:0:
312,104,26396,2,0,B|231:44|210:112|132:45,1,190,0|0,0:0|1:0,0:0:0:0:
36,16,26911,1,0,0:0:0:0:
112,160,27082,5,2,0:0:0:0:
16,288,27254,1,0,0:0:0:0:
176,304,27425,1,0,1:0:0:0:
176,304,27596,2,0,P|219:275|242:228,1,95,4|0,0:0|0:0,0:0:0:0:
260,56,27939,2,0,B|272:152|272:152|315:168|336:224,1,190,4|0,0:0|0:0,0:0:0:0:
344,308,28368,5,0,0:0:0:0:
344,308,28454,2,0,B|388:332|388:332|432:336,1,95,2|0,0:0|0:0,0:0:0:0:
448,144,28796,2,0,L|428:248,1,95,0|0,1:0|0:0,0:0:0:0:
264,316,29139,1,2,0:0:0:0:
184,188,29311,1,2,0:0:0:0:
68,296,29482,2,0,P|17:282|-18:247,1,95,0|0,1:0|0:0,0:0:0:0:
184,188,29825,5,2,0:0:0:0:
292,240,29996,2,0,P|336:216|360:168,1,95,0|0,0:0|1:0,0:0:0:0:
152,104,30339,2,0,P|108:128|84:176,1,95,2|0,0:0|0:0,0:0:0:0:
264,120,30682,5,2,0:0:0:0:
264,120,30768,1,0,0:0:0:0:
264,120,30854,1,0,1:0:0:0:
212,40,31025,1,0,0:0:0:0:
352,96,31196,6,0,B|404:108|404:108|452:96,1,95,2|0,0:0|0:0,0:0:0:0:
472,252,31539,2,0,B|420:267|420:267|385:302,1,95,0|0,1:0|0:0,0:0:0:0:
216,352,31882,2,0,P|184:308|184:256,1,95,2|2,0:0|0:0,0:0:0:0:
88,72,32225,2,0,L|60:168,1,95,0|0,1:0|0:0,0:0:0:0:
112,320,32568,5,0,0:0:0:0:
240,220,32739,1,2,0:0:0:0:
296,368,32911,1,4,0:0:0:0:
408,276,33082,1,0,0:0:0:0:
283,133,33254,5,0,1:0:0:0:
306,146,33339,1,0,1:0:0:0:
324,168,33425,1,0,1:0:0:0:
336,194,33511,1,0,1:0:0:0:
340,220,33596,1,0,1:0:0:0:
460,64,33921,5,4,1:2:0:0:
240,220,34092,1,0,1:0:0:0:
412,212,34263,1,0,1:0:0:0:
292,60,34435,1,0,1:0:0:0:
328,336,34606,1,0,1:0:0:0:
60,340,34949,5,0,1:0:0:0:
8,144,35121,1,0,1:0:0:0:
144,224,35292,1,0,1:0:0:0:
24,112,35463,1,0,1:0:0:0:
196,44,35635,1,0,1:0:0:0:
444,220,35978,5,0,1:0:0:0:
360,88,36149,1,0,1:0:0:0:
320,248,36321,1,0,1:0:0:0:
512,172,36492,1,0,1:0:0:0:
364,328,36663,6,0,B|316:340|316:340|268:324,1,95,4|0,0:0|0:0,0:0:0:0:
200,144,37006,2,0,B|234:179|234:179|244:229,1,95,0|0,1:0|0:0,0:0:0:0:
48,148,37349,1,2,0:0:0:0:
92,64,37521,1,2,0:0:0:0:
4,256,37692,2,0,B|13:301|13:301|47:336,1,95,0|0,1:0|0:0,0:0:0:0:
176,240,38035,5,2,0:0:0:0:
240,77,38206,1,0,0:0:0:0:
345,223,38378,1,0,1:0:0:0:
400,40,38549,1,2,0:0:0:0:
256,288,38892,6,0,B|288:192|216:192|256:96,1,190,4|0,0:0|0:0,0:0:0:0:
316,40,39321,5,0,0:0:0:0:
316,40,39406,1,4,1:2:0:0:
464,224,39578,1,0,1:0:0:0:
464,32,39749,1,0,1:0:0:0:
332,196,39921,1,0,1:0:0:0:
512,120,40092,1,0,1:0:0:0:
248,232,40435,5,0,1:0:0:0:
84,136,40606,1,0,1:0:0:0:
280,132,40778,1,0,1:0:0:0:
160,260,40949,1,0,1:0:0:0:
96,60,41121,1,0,1:0:0:0:
266,302,41463,5,0,1:0:0:0:
429,288,41635,1,0,1:0:0:0:
220,207,41806,1,0,1:0:0:0:
458,183,41978,1,0,1:0:0:0:
348,352,42149,6,0,B|341:277|341:277|363:237|363:237|357:164,1,190,4|0,0:0|1:0,0:0:0:0:
260,8,42663,2,0,L|268:107,1,95,0|2,0:0|0:0,0:0:0:0:
280,208,43006,1,2,0:0:0:0:
360,64,43178,1,0,1:0:0:0:
172,52,43349,6,0,P|132:57|85:91,1,95,4|0,0:0|0:0,0:0:0:0:
392,240,43692,2,0,B|421:200|421:200|437:155,1,95,4|0,0:0|0:0,0:0:0:0:
100,264,44035,2,0,B|91:304|91:304|102:359,1,95,4|0,0:0|0:0,0:0:0:0:
256,248,44378,5,0,1:0:0:0:
256,216,44463,1,0,1:0:0:0:
256,184,44549,1,0,1:0:0:0:
256,152,44635,1,0,1:0:0:0:
256,120,44721,1,0,1:0:0:0:
256,88,44806,1,0,1:0:0:0:
256,56,44903,6,0,P|316:40|364:52,1,104.500003189087,4|0,0:0|0:0,0:0:0:0:
440,152,45245,1,0,1:0:0:0:
256,248,45417,2,0,P|196:264|148:252,1,104.500003189087,2|0,0:0|0:0,0:0:0:0:
60,84,45760,2,0,L|84:208,1,104.500003189087,0|0,0:0|1:0,0:0:0:0:
268,356,46103,6,0,B|320:352|320:352|372:328,1,104.500003189087,0|2,0:0|0:0,0:0:0:0:
400,144,46445,2,0,P|373:194|372:248,1,104.500003189087,0|0,0:0|1:0,0:0:0:0:
504,104,46788,2,0,P|476:56|432:32,1,104.500003189087,2|0,0:0|0:0,0:0:0:0:
284,160,47131,1,2,0:0:0:0:
468,212,47303,1,0,1:0:0:0:
272,248,47474,1,0,0:0:0:0:
308,52,47645,6,0,P|273:96|232:120,1,104.500003189087,2|0,0:0|0:0,0:0:0:0:
68,264,47988,1,0,1:0:0:0:
68,264,48160,2,0,B|92:312|92:312|140:340,1,104.500003189087,2|0,0:0|0:0,0:0:0:0:
324,284,48503,2,0,B|282:249|282:249|227:243,1,104.500003189087,0|0,0:0|1:0,0:0:0:0:
396,384,48845,6,0,P|442:349|463:292,1,104.500003189087,2|2,0:0|0:0,0:0:0:0:
420,116,49188,2,0,B|404:232,1,104.500003189087,0|0,0:0|1:0,0:0:0:0:
300,384,49531,2,0,P|244:376|208:344,1,104.500003189087,2|0,0:0|0:0,0:0:0:0:
68,280,49874,1,2,0:0:0:0:
68,280,50045,2,0,B|59:328|59:328|68:384,1,104.500003189087,0|0,1:0|0:0,0:0:0:0:
268,248,50388,6,0,B|304:180|256:120|256:120|304:68,1,209.000006378174,2|0,0:0|1:0,0:0:0:0:
464,104,50903,2,0,P|412:132|364:132,1,104.500003189087,2|0,0:0|0:0,0:0:0:0:
80,196,51245,2,0,L|188:196,1,104.500003189087,0|0,0:0|1:0,0:0:0:0:
380,384,51588,6,0,P|335:354|310:303,1,104.500003189087,0|2,0:0|0:0,0:0:0:0:
132,384,51931,2,0,P|176:354|201:303,1,104.500003189087,0|0,0:0|1:0,0:0:0:0:
256,84,52274,2,0,L|256:212,1,104.500003189087,2|0,0:0|0:0,0:0:0:0:
372,152,52617,1,2,0:0:0:0:
140,168,52788,1,0,1:0:0:0:
356,224,52960,1,0,0:0:0:0:
176,248,53131,6,0,B|133:261|133:261|106:252|106:252|64:266,1,104.500003189087,2|0,0:0|0:0,0:0:0:0:
192,112,53474,1,0,1:0:0:0:
328,280,53645,2,0,P|376:308|428:300,1,104.500003189087,2|0,0:0|0:0,0:0:0:0:
512,172,53988,1,0,0:0:0:0:
444,32,54160,1,0,1:0:0:0:
390,233,54331,6,0,L|372:336,1,104.500003189087,0|2,0:0|0:0,0:0:0:0:
140,336,54674,2,0,L|121:233,1,104.500003189087,2|0,0:0|1:0,0:0:0:0:
256,16,55017,2,0,L|256:120,1,104.500003189087,0|4,0:0|0:0,0:0:0:0:
238,301,55360,5,0,1:0:0:0:
244,267,55445,1,0,1:0:0:0:
259,236,55531,1,0,1:0:0:0:
286,213,55617,1,0,1:0:0:0:
316,198,55703,1,0,1:0:0:0:
351,194,55788,1,0,1:0:0:0:
388,200,55874,6,0,P|438:207|490:194,1,104.500003189087,4|0,0:0|0:0,0:0:0:0:
512,64,56217,1,0,1:0:0:0:
348,28,56388,2,0,P|297:20|245:33,1,104.500003189087,2|0,0:0|0:0,0:0:0:0:
124,296,56731,2,0,P|155:255|170:203,1,104.500003189087,0|0,0:0|1:0,0:0:0:0:
92,32,57074,6,0,P|58:71|44:123,1,104.500003189087,0|2,0:0|0:0,0:0:0:0:
124,296,57417,2,0,B|176:288|176:288|228:300,1,104.500003189087,0|0,0:0|1:0,0:0:0:0:
432,380,57760,2,0,L|462:279,1,104.500003189087,2|0,0:0|0:0,0:0:0:0:
448,144,58103,1,2,0:0:0:0:
344,280,58274,1,0,1:0:0:0:
412,48,58445,1,0,0:0:0:0:
292,192,58617,6,0,B|239:183|239:183|181:148,1,104.500003189087,2|0,0:0|0:0,0:0:0:0:
128,40,58960,1,0,1:0:0:0:
304,84,59131,2,0,B|352:92|352:92|404:124,1,104.500003189087,2|0,0:0|0:0,0:0:0:0:
244,344,59474,2,0,L|134:348,1,104.500003189087,0|0,0:0|1:0,0:0:0:0:
0,140,59817,6,0,P|4:188|32:236,1,104.500003189087,0|2,0:0|0:0,0:0:0:0:
244,344,60160,2,0,P|240:296|212:248,1,104.500003189087,0|0,0:0|1:0,0:0:0:0:
32,52,60503,2,0,B|67:122|146:131|146:131|164:197,1,209.000006378174,2|2,0:0|0:0,0:0:0:0:
144,24,61017,1,0,0:0:0:0:
268,160,61188,1,0,1:0:0:0:
408,36,61360,6,0,B|411:85|411:85|398:138,1,104.500003189087,4|0,0:0|0:0,0:0:0:0:
280,340,61703,2,0,L|302:230,1,104.500003189087,0|0,1:0|0:0,0:0:0:0:
500,248,62045,2,0,L|482:144,1,104.500003189087,2|0,0:0|0:0,0:0:0:0:
320,72,62388,1,0,1:0:0:0:
200,312,62560,6,0,B|142:217|220:200|156:108,1,209.000006378174,4|0,0:0|0:0,0:0:0:0:
0,0,63074,2,0,P|-4:52|17:105,1,104.500003189087,0|0,1:0|0:0,0:0:0:0:
88,232,63417,1,0,0:0:0:0:
224,160,63588,1,2,0:0:0:0:
96,84,63760,5,0,3:0:0:0:
200,312,63931,1,0,1:0:0:0:
420,96,64274,5,2,0:0:0:0:
368,328,64445,2,0,L|393:226,1,104.500003189087,2|0,0:0|0:0,0:0:0:0:
344,28,64788,5,2,0:0:0:0:
296,260,64960,2,0,L|321:158,1,104.500003189087,2|0,0:0|0:0,0:0:0:0:
188,344,65303,6,0,B|133:351|84:324|84:324|36:280|45:214,1,209.000006378174,4|0,0:0|0:0,0:0:0:0:
104,136,65817,5,0,0:0:0:0:
104,136,65988,2,0,P|152:112|184:48,1,113.999996520996,2|0,0:0|0:0,0:0:0:0:
268,56,66503,2,0,L|280:-8,1,56.9999982604981,2|0,0:0|0:0,0:0:0:0:
368,236,66845,6,0,L|348:344,1,104.500003189087,4|0,0:0|0:0,0:0:0:0:
164,336,67188,2,0,P|200:296|252:284,1,104.500003189087,0|0,1:0|0:0,0:0:0:0:
484,248,67531,2,0,P|448:288|396:300,1,104.500003189087,2|0,0:0|0:0,0:0:0:0:
224,148,67874,2,0,P|274:161|310:202,1,104.500003189087,0|0,1:0|0:0,0:0:0:0:
96,316,68217,6,0,B|56:276|56:276|43:226,1,104.500003189087,4|0,0:0|0:0,0:0:0:0:
172,20,68560,2,0,L|156:128,1,104.500003189087,0|0,1:0|0:0,0:0:0:0:
343,359,68903,2,0,L|328:256,1,104.500003189087,2|0,0:0|0:0,0:0:0:0:
388,44,69245,1,0,1:0:0:0:
432,140,69417,1,0,0:0:0:0:
252,108,69588,6,0,P|196:100|144:112,1,104.500003189087,4|0,0:0|0:0,0:0:0:0:
208,332,69931,2,0,P|260:310|299:274,1,104.500003189087,0|0,1:0|0:0,0:0:0:0:
464,144,70274,2,0,L|356:172,1,104.500003189087,2|0,0:0|0:0,0:0:0:0:
108,208,70617,2,0,P|159:212|203:240,1,104.500003189087,0|0,1:0|0:0,0:0:0:0:
464,352,70960,6,0,B|420:320|420:320|400:268,1,104.500003189087,4|0,0:0|0:0,0:0:0:0:
260,64,71303,2,0,B|276:115|276:115|262:169,1,104.500003189087,0|0,1:0|0:0,0:0:0:0:
104,300,71645,1,2,0:0:0:0:
60,156,71817,1,0,0:0:0:0:
144,292,71988,1,0,1:0:0:0:
192,116,72160,1,0,0:0:0:0:
320,280,72331,6,0,P|368:256|392:212,1,104.500003189087,4|0,0:0|0:0,0:0:0:0:
260,64,72674,2,0,P|256:117|282:160,1,104.500003189087,0|0,1:0|0:0,0:0:0:0:
468,40,73017,2,0,L|380:100,1,104.500003189087,2|0,0:0|0:0,0:0:0:0:
216,348,73360,2,0,L|240:240,1,104.500003189087,0|0,1:0|0:0,0:0:0:0:
64,44,73703,6,0,L|76:156,1,104.500003189087,2|0,0:0|0:0,0:0:0:0:
116,368,74045,1,0,1:0:0:0:
324,304,74217,1,0,0:0:0:0:
224,168,74388,2,0,P|208:116|212:64,1,104.500003189087,2|0,0:0|0:0,0:0:0:0:
328,104,74731,1,0,1:0:0:0:
140,204,74903,1,0,0:0:0:0:
340,280,75074,6,0,L|452:308,1,104.500003189087,2|0,0:0|0:0,0:0:0:0:
172,280,75417,2,0,L|60:308,1,104.500003189087,0|0,1:0|0:0,0:0:0:0:
256,52,75760,1,2,0:0:0:0:
255,220,75931,5,0,3:0:0:0:
256,244,76017,1,0,3:0:0:0:
256,272,76103,1,0,3:0:0:0:
256,300,76188,1,0,3:0:0:0:
256,324,76274,1,0,3:0:0:0:
256,352,76360,1,0,3:0:0:0:
256,380,76445,5,2,0:0:0:0:
172,380,76788,1,2,0:0:0:0:
96,340,77131,1,2,0:0:0:0:
56,268,77474,1,2,0:0:0:0:
196,64,77817,5,8,3:0:0:0:
196,64,77903,1,0,3:0:0:0:
196,64,77988,2,0,L|180:116,3,52.2500015945435,0|0|0|0,3:0|3:0|3:0|3:0,0:0:0:0:
312,148,78331,5,8,3:0:0:0:
312,148,78417,1,0,3:0:0:0:
312,148,78503,2,0,L|328:200,3,52.2500015945435,0|0|0|0,3:0|3:0|3:0|3:0,0:0:0:0:
360,324,78845,6,0,L|316:352,1,52.2500015945435,0|0,1:0|1:0,0:0:0:0:
192,348,79017,2,0,L|148:320,1,52.2500015945435,0|0,1:0|1:0,0:0:0:0:
64,244,79188,6,0,B|56:196|56:196|68:144,1,95,4|0,0:0|0:0,0:0:0:0:
192,48,79531,2,0,B|200:96|200:96|188:148,1,95,0|0,1:0|0:0,0:0:0:0:
304,352,79874,2,0,L|320:248,1,95
424,24,80217,2,0,P|429:76|410:114,1,95,0|0,1:0|0:0,0:0:0:0:
248,196,80560,5,2,0:0:0:0:
428,232,80731,1,0,0:0:0:0:
216,232,80903,1,0,1:0:0:0:
256,36,81074,1,2,0:0:0:0:
204,40,81417,5,2,0:0:0:0:
144,112,81588,1,0,1:0:0:0:
116,20,81760,1,0,0:0:0:0:
172,200,81931,6,0,P|172:248|152:292,1,95,2|0,0:0|0:0,0:0:0:0:
292,360,82274,2,0,P|320:321|362:297,1,95,0|0,1:0|0:0,0:0:0:0:
496,228,82617,1,2,0:0:0:0:
512,332,82788,1,2,0:0:0:0:
292,360,82960,2,0,L|288:265,1,95,0|0,1:0|0:0,0:0:0:0:
280,44,83303,5,2,0:0:0:0:
348,196,83474,1,0,0:0:0:0:
512,140,83645,1,0,1:0:0:0:
368,296,83817,1,2,0:0:0:0:
356,244,84160,5,2,0:0:0:0:
276,292,84331,1,0,1:0:0:0:
196,344,84503,1,0,0:0:0:0:
48,256,84674,6,0,L|40:148,1,95,2|0,0:0|0:0,0:0:0:0:
232,36,85017,2,0,L|228:136,1,95,0|0,1:0|0:0,0:0:0:0:
80,344,85360,2,0,P|31:345|-14:325,1,95,2|2,0:0|0:0,0:0:0:0:
172,256,85703,2,0,B|224:248|224:248|272:212,1,95,0|0,1:0|0:0,0:0:0:0:
104,52,86045,1,2,0:0:0:0:
64,168,86217,5,0,3:0:0:0:
64,168,86303,1,0,3:0:0:0:
64,168,86388,2,0,P|92:175|114:175,1,47.5,0|0,1:0|3:0,0:0:0:0:
216,72,86560,2,0,P|208:104|196:124,1,47.5,0|0,3:0|3:0,0:0:0:0:
208,224,86731,5,0,3:0:0:0:
232,249,86817,1,0,3:0:0:0:
262,267,86903,1,0,3:0:0:0:
297,273,86988,1,0,3:0:0:0:
332,271,87074,2,0,P|360:256|392:248,1,47.5,0|0,3:0|3:0,0:0:0:0:
480,212,87245,2,0,P|461:204|436:190,1,47.5,0|0,3:0|3:0,0:0:0:0:
400,76,87417,5,4,0:0:0:0:
256,192,87503,12,0,88788,0:0:0:0:
