osu file format v9

[General]
AudioFilename: 11 - Houkago Tea Time.mp3
AudioLeadIn: 2500
PreviewTime: 57541
Countdown: 0
SampleSet: Soft
StackLeniency: 0.7
Mode: 0
LetterboxInBreaks: 1
SkinPreference:Default

[Editor]
DistanceSpacing: 1
BeatDivisor: 4
GridSize: 4

[Metadata]
Title:Houkago Tea Time
Artist:HTT
Creator:indyinyou
Version:Easy
Source:K-ON!!
Tags:toyosaki aki hikasa youko satou satomi kotobuki minako taketatsu ayana hirasawa yui akiyama mio tainaka ritsu kotobuki tsumugi nakano asuza regenz ho-kago

[Difficulty]
HPDrainRate:2
CircleSize:3
OverallDifficulty:1
ApproachRate:2
SliderMultiplier:1
SliderTickRate:1

[Events]
//Background and Video events
0,0,"k_onbg.jpg"
//Break Periods
2,87129,98430
2,155701,167002
2,207945,217614
//Storyboard Layer 0 (Background)
//Storyboard Layer 1 (Fail)
//Storyboard Layer 2 (Pass)
//Storyboard Layer 3 (Foreground)
//Storyboard Sound Samples
//Background Colour Transformations
3,100,0,0,0

[TimingPoints]
399,408.163265306122,4,1,2,50,1,0
57541,-100,4,1,2,55,0,1
86929,-100,4,1,0,50,0,0
99786,-100,4,1,2,50,0,0
126113,-100,4,1,2,55,0,1
155501,-100,4,1,0,50,0,0
168358,-100,4,1,2,40,0,0
181419,-100,4,1,2,50,0,0
207745,-100,4,2,0,25,0,0
218970,-100,4,1,2,50,0,0
220807,-100,4,1,2,55,0,1
250194,-100,4,1,0,60,0,0

[Colours]
Combo1 : 255,45,150
Combo2 : 0,240,120
Combo3 : 0,234,234
Combo4 : 236,224,0

[HitObjects]
256,89,2031,1,4
256,188,2439,1,8
156,188,2847,2,0,B|47:188,2,100,0|8|0
206,276,4072,1,8
305,276,4480,1,0
353,188,4888,2,0,B|465:189,1,100,8|4
456,89,5705,5,8
356,89,6113,2,0,B|250:89,1,100,0|8
256,188,6929,1,0
322,263,7337,2,0,B|322:318|257:363|188:315|188:264,1,200,8|8
256,188,8562,5,4
154,164,8970,2,0,B|154:101|215:78,1,100,8|0
302,83,9786,2,0,B|358:107|359:183,1,100,8|0
256,188,10603,1,8
256,188,10807,1,0
149,81,11419,5,8
78,151,11827,2,0,B|78:209|17:242,1,100,4|8
101,304,12643,2,0,B|128:248|176:248,1,100,0|8
247,318,13460,2,0,B|334:319|360:224,1,150,0|0
357,134,14480,6,0,B|329:79,1,50,0|8
256,150,15092,1,4
172,96,15501,2,0,B|146:156,1,50,8|4
152,241,16113,2,0,B|152:305,1,50,8|4
256,192,16725,12,4,18358
256,298,19582,6,0,B|256:192,1,100,8|0
326,127,20399,2,0,B|326:70|256:40|189:73|189:129,1,200,8|8
118,194,21623,5,4
167,280,22031,1,8
256,325,22439,2,0,B|256:205,1,100,0|8
344,280,23256,1,0
393,194,23664,1,8
256,47,24480,2,0,B|256:166,1,100,8|4
256,246,25296,5,8
155,246,25705,2,0,B|154:365,1,100,0|8
254,345,26521,1,0
353,345,26929,2,0,B|353:236,1,100,8|0
256,246,27745,1,8
256,145,28154,5,0
355,145,28562,2,0,B|424:145,1,50,8|0
504,145,29174,2,0,B|504:203,1,50,0|8
476,291,29786,1,0
376,291,30194,2,0,B|315:231|261:354|191:279,1,200,8|8
91,279,31419,5,4
91,179,31827,2,0,B|151:179|191:134,1,100,8|0
257,78,32643,1,8
333,143,33052,1,0
432,143,33460,2,0,B|432:263|299:288,1,200,8|8
253,207,34684,5,4
197,290,35092,2,0,B|76:265|75:135,1,200,8|8
175,151,36317,1,0
125,67,36725,1,8
256,207,37541,2,0,B|256:93,1,100,8|4
343,152,38358,5,8
432,105,38766,2,0,B|490:106|501:46,2,100,0|8|0
432,204,39990,2,0,B|493:205|511:267,2,100,8|0|8
341,251,41215,5,0
256,305,41623,2,0,B|257:101,1,200,8|8
157,105,42847,2,0,B|49:105,1,100,4|8
57,205,43664,2,0,B|57:262|0:296,2,100,0|8|4
156,205,44888,5,4
226,275,45296,2,0,B|316:298|381:242,1,150,0|4
475,145,46521,2,0,B|498:199|472:254,2,100,2|2|2
375,145,47745,5,4
304,74,48154,1,4
204,74,48562,2,0,B|116:101|124:206,1,150,0|4
229,292,49786,2,0,B|320:347,2,100,2|2|2
229,191,51011,5,4
299,120,51419,2,0,B|411:120|461:229,1,200,8|8
386,292,52643,1,0
456,362,53052,1,8
314,220,53868,1,8
253,298,54276,5,4
153,298,54684,2,0,B|95:298|36:245|36:152,1,200,8|8
136,160,55909,2,0,B|171:121|171:121|219:152|219:152|253:122|253:122|289:150|289:150|325:117|325:117|370:160,1,300,4|8
432,222,57541,5,4
361,292,57950,2,0,B|247:292,1,100,8|0
161,292,58766,2,0,B|91:292|46:246|46:150,1,200,8|8
146,157,59990,2,0,B|146:46,2,100,0|8|4
216,227,61215,5,8
286,156,61623,1,0
356,85,62031,2,0,B|463:118|452:249,1,200,8|8
352,240,63256,2,0,B|352:339,2,100,0|8|4
256,212,64480,6,0,B|256:93,1,100,8|0
185,41,65296,2,0,B|126:41|93:94,1,100,8|0
99,184,66113,2,0,B|99:242,1,50,8|0
205,340,66929,5,8
275,269,67337,1,4
374,269,67745,2,0,B|434:269|449:208,1,100,8|0
447,113,68562,1,8
376,42,68970,1,0
276,42,69378,2,0,B|201:35|129:75|129:164,1,200,8|8
200,216,70603,5,4
270,145,71011,2,0,B|333:145|363:201,1,100,8|0
426,259,71827,1,8
355,329,72235,1,0
284,258,72643,1,8
355,188,73052,2,0,B|383:143|455:143,1,100,0|8
440,43,73868,5,4
340,43,74276,1,8
269,113,74684,2,0,B|240:168|177:167,2,100,0|8|0
198,42,75909,2,0,B|70:78|105:214,1,200,8|8
200,191,77133,5,4
270,261,77541,2,0,B|327:240|327:175,1,100,8|0
397,115,78358,2,0,B|460:116|484:175,1,100,8|0
478,263,79174,2,0,B|414:263,1,50,8|0
306,352,79990,5,8
206,352,80398,1,4
256,265,80807,2,0,B|256:154,1,100,8|0
185,94,81623,1,8
114,164,82031,2,0,B|71:226|104:308,1,150,0|0
203,307,83052,6,0,B|239:354,1,50,0|8
333,346,83664,1,4
403,275,84072,2,8,B|362:220,1,50,8|4
273,234,84684,2,0,B|239:181,1,50,8|4
256,192,85296,12,4,86929
61,216,99990,5,4
61,315,100398,2,0,B|187:315|187:181,1,200,8|8
257,121,101623,1,0
327,191,102031,2,0,B|327:318|451:318,1,200,8|8
447,217,103256,5,4
447,117,103664,2,0,B|459:36|348:0|305:79,1,200,8|8
360,156,104888,1,0
260,156,105296,1,8
306,350,106113,2,0,B|306:251,1,100,8|4
206,250,106929,6,0,B|154:249|114:304,1,100,8|0
50,224,107745,1,8
120,153,108154,1,0
190,82,108562,2,0,B|225:194|351:193,1,200,8|8
409,263,109786,5,4
479,333,110194,2,0,B|566:246|476:159,1,200,8|8
376,159,111419,2,0,B|309:159|287:220,1,100,0|8
293,305,112235,2,0,B|335:351|403:350,2,100,0|8|4
222,234,113460,5,4
122,234,113868,2,0,B|42:201|42:107,1,150,0|4
192,117,115092,2,0,B|295:117,2,100,2|2|2
192,217,116317,6,0,B|227:266|279:265,1,100,4|4
345,335,117133,2,0,B|418:294|418:209,1,150,0|4
311,106,118358,2,0,B|419:106,2,100,2|2|2
257,190,119582,6,0,B|257:309,2,100,4|8|0
186,119,120807,1,8
115,189,121215,2,0,B|-5:189,2,100,0|8|0
185,259,122439,1,8
257,190,122847,5,4
327,260,123256,2,0,B|445:248|473:143,1,200,8|8
402,73,124480,2,0,B|363:136|306:151|318:69|239:40|166:87|170:180,1,300,4|8
99,229,126113,5,4
99,328,126521,2,0,B|206:330,1,100,8|0
298,329,127337,2,0,B|418:330|457:223,1,200,8|8
454,128,128562,2,0,B|454:28,2,100,0|8|4
383,198,129786,5,8
312,127,130194,1,0
241,56,130603,2,8,B|162:151|243:248,1,200,8|8
306,309,131827,2,0,B|421:309,2,100,0|8|4
205,309,133052,6,0,B|96:309,1,100,8|0
34,238,133868,2,0,B|-4:185|48:139,1,100,8|4
109,76,134684,2,0,B|180:76,1,50,8|0
159,226,135501,5,8
258,226,135909,1,4
258,126,136317,2,0,B|355:70|458:128,1,200,8|8
448,223,137541,1,0
448,323,137950,2,0,B|356:383|256:320,1,200,8|8
258,226,139174,5,4
357,226,139582,1,8
427,155,139990,1,0
356,84,140398,2,0,B|247:84,1,100,8|0
155,84,141215,2,0,B|33:85|21:206,1,200,8|8
121,202,142439,5,4
220,202,142847,1,8
290,131,143256,1,0
389,131,143664,2,0,B|474:233|388:327,1,200,8|8
329,242,144888,2,0,B|247:308,2,100,0|8|4
329,141,146113,6,0,B|292:95|292:95|245:95,1,100,8|0
180,165,146929,2,0,B|128:164|128:164|106:115,1,100,8|0
179,49,147745,1,8
179,49,147950,1,0
328,49,148562,5,8
254,116,148970,1,4
254,215,149378,2,0,B|254:324,1,100,8|0
353,315,150194,1,8
453,315,150603,2,0,B|508:244|454:178,1,150,0|0
383,107,151623,6,0,B|332:107,1,50,0|8
255,169,152235,1,4
325,239,152643,2,0,B|302:291,1,50,8|4
204,284,153256,2,0,B|185:238,1,50,8|4
256,192,153868,12,4,155501
259,191,168562,6,0,B|205:154|150:201,2,100,4|8|0
259,290,169786,2,0,B|362:346|466:285,1,200,8|8
450,193,171011,2,0,B|481:138|445:93,1,100,0|8
349,98,171827,6,0,B|238:98,2,100,4|8|0
449,98,173052,2,0,B|515:198|450:295,2,200,8|8|8
378,168,175092,6,0,B|355:218|293:226,1,100,4|8
229,153,175909,2,0,B|168:163|149:234,1,100,0|8
155,313,176725,1,0
55,313,177133,2,0,B|-6:220|62:120,1,200,8|8
129,54,178358,6,0,B|193:54|220:112,1,100,4|8
142,169,179174,2,0,B|167:221|222:221,1,100,0|8
291,150,179990,1,0
361,79,180398,2,0,B|454:161|380:266,1,200,8|8
285,257,181623,5,4
185,257,182031,1,4
114,186,182439,2,0,B|128:98|214:70,1,150,8|4
352,74,183664,2,0,B|456:74,2,100,2|2|2
281,144,184888,5,4
281,243,185296,1,4
351,313,185705,2,0,B|428:278|446:186,1,150,8|4
336,94,186929,2,0,B|442:118,2,100,2|2|2
235,94,188154,5,4
135,94,188562,2,0,B|71:94,1,50,8|4
14,164,189174,2,0,B|-3:237|68:259,1,100,8|4
196,250,190194,1,8
266,320,190603,2,0,B|363:248|347:144,1,200,8|4
276,78,191827,1,8
256,192,192235,12,4,194684
256,199,195501,6,0,B|256:112|328:72,1,150,8|4
430,180,196725,2,0,B|495:265,2,100,2|2|2
359,109,197950,5,4
288,179,198358,1,4
358,249,198766,2,0,B|333:338|244:336,1,150,8|4
144,229,199990,2,0,B|77:136,2,100,2|2|2
244,229,201215,5,4
244,129,201623,2,0,B|340:62|444:151,1,200,8|8
428,238,202847,1,0
357,308,203256,2,0,B|293:308,1,50,8|0
207,308,203868,2,0,B|152:307,1,50,0|8
86,236,204480,6,0,B|74:133|160:120,1,150,4|4
253,121,205501,2,0,B|301:145,1,50,0|8
256,192,206113,12,2,207745
205,113,219174,5,8
105,113,219582,2,0,B|22:205|89:299,1,200,8|8
186,294,220807,5,4
256,364,221215,1,8
326,293,221623,1,0
255,222,222031,2,0,B|255:105|368:69,1,200,8|8
433,141,223256,2,0,B|433:244,2,100,0|8|4
362,70,224480,6,0,B|248:70,1,100,8|0
262,169,225296,2,0,B|156:169,1,100,8|0
91,96,226113,1,8
20,166,226521,1,0
90,236,226929,2,0,B|90:340,1,100,8|4
189,336,227745,6,0,B|238:328|266:272,1,100,8|0
193,204,228562,2,0,B|224:149|278:148,1,100,8|0
341,219,229378,2,0,B|341:274,1,50,8|0
341,119,230194,5,8
257,64,230603,1,4
174,120,231011,1,8
255,179,231419,1,0
204,263,231827,2,0,B|204:370,2,100,8|0|8
304,263,233052,2,0,B|305:370,2,100,0|8|4
204,263,234276,5,8
403,263,235092,1,8
305,88,235909,1,8
305,187,236317,2,0,B|305:297,2,100,0|8|4
205,187,237541,5,8
4,187,238358,1,8
104,361,239174,1,8
104,261,239582,2,0,B|104:141,2,100,0|8|4
204,261,240807,6,0,B|259:247|285:180,1,100,8|0
206,126,241623,2,0,B|238:75|291:66,1,100,8|0
383,67,242439,1,8
383,67,242643,1,0
383,217,243256,5,8
312,146,243664,1,4
241,75,244072,2,0,B|124:88|112:220,1,200,8|8
13,206,245296,2,0,B|15:287|94:329,1,150,0|0
189,326,246317,6,0,B|230:286,1,50,0|8
154,220,246929,1,4
224,149,247337,2,0,B|276:99,1,50,8|4
330,185,247950,2,0,B|284:231,1,50,8|4
256,192,248562,12,4,250194
