osu file format v9

[General]
AudioFilename: 03. Honey sweet tea time.mp3
AudioLeadIn: 0
PreviewTime: 122706
Countdown: 0
SampleSet: Normal
StackLeniency: 0.7
Mode: 0
LetterboxInBreaks: 1

[Editor]
DistanceSpacing: 1
BeatDivisor: 4
GridSize: 4

[Metadata]
Title:Honey sweet tea time
Artist:HTT
Creator:Sumisola
Version:Sweet
Source:K-ON!!
Tags:Kotobuki Tsumugi K-ON ho-kago hokago tea time Disoy

[Difficulty]
HPDrainRate:6
CircleSize:5
OverallDifficulty:6
ApproachRate:7
SliderMultiplier:1.5
SliderTickRate:2

[Events]
//Background and Video events
0,0,"Sweet.jpg"
//Break Periods
2,74925,85462
2,149107,158916
//Storyboard Layer 0 (Background)
//Storyboard Layer 1 (Fail)
//Storyboard Layer 2 (Pass)
//Storyboard Layer 3 (Foreground)
//Storyboard Sound Samples
//Background Colour Transformations
3,100,163,162,255

[TimingPoints]
544,363.636363636364,4,1,0,60,1,0
12171,-100,4,2,0,80,0,0
34797,-100,4,1,0,71,0,0
35343,-100,4,2,0,81,0,0
37625,-100,4,1,0,55,0,0
38080,-100,4,2,0,80,0,0
39353,-100,4,1,0,50,0,0
39716,-100,4,2,0,81,0,0
40535,-100,4,1,0,51,0,0
40989,-100,4,2,0,80,0,0
46262,-100,4,2,0,82,0,0
46898,-100,4,2,0,70,0,0
47262,-100,4,2,0,80,0,0
47625,-100,4,2,0,90,0,0
48535,-100,4,2,0,100,0,1
59535,-100,4,2,1,100,0,1
59716,-100,4,2,0,100,0,1
59989,-100,4,1,0,85,0,1
60161,-100,4,2,0,100,0,1
73080,-100,4,1,0,80,0,1
73444,-100,4,1,0,80,0,1
73989,-100,4,1,0,80,0,0
86353,-100,4,2,0,80,0,0
89716,-100,4,2,0,81,0,0
92989,-100,4,2,0,81,0,0
109525,-100,4,2,0,61,0,0
121989,-100,4,1,0,61,0,0
122716,-100,4,2,0,100,0,1
133706,-100,4,1,0,79,0,1
134343,-100,4,2,0,100,0,1
147262,-100,4,1,0,72,0,1
148171,-100,4,1,0,70,0,0
159706,-100,4,2,0,61,0,0
160161,-100,4,1,0,61,0,0
160525,-100,4,2,0,61,0,0
163161,-100,4,1,0,60,0,0
163434,-100,4,2,0,61,0,0
168797,-100,4,2,0,61,0,0
168979,-100,4,2,0,82,0,0
170716,-100,4,1,0,79,0,0
173625,-100,4,2,0,100,0,0
179535,-100,4,2,1,100,0,0
179716,-100,4,2,0,100,0,0
196353,-100,4,1,0,80,0,0
196898,-100,4,2,0,100,0,1
196898,-100,4,2,0,100,0,1
220171,-100,4,2,0,100,0,0

[Colours]
Combo1 : 255,128,0
Combo2 : 52,203,181
Combo3 : 30,157,225
Combo4 : 255,128,128

[HitObjects]
152,92,12180,2,0,B|236:92,1,75,0|0
228,168,12543,2,0,B|304:168,1,75,2|0
380,168,12907,2,0,B|424:244|380:312,1,150,0|2
304,312,13453,1,0
176,236,13816,1,0
176,312,13998,1,2
268,192,14362,6,0,B|348:192,2,75,0|0|2
228,128,14907,2,0,B|156:192|232:260,1,150
304,256,15453,1,2
364,212,15634,1,0
384,140,15816,1,0
256,64,16180,5,2
208,124,16362,2,2,B|132:184|212:248,1,150
252,184,16907,1,2
328,184,17089,1,0
404,184,17271,2,2,B|484:184,2,75,0|0|6
352,324,17998,6,0,B|252:324|252:224,2,150,0|2|0
356,172,19089,1,2
356,96,19271,1,0
420,136,19453,1,0
420,212,19634,1,0
356,248,19816,1,2
224,172,20180,1,4
72,172,20543,6,0,B|36:200|36:252,2,75,2|0|0
224,172,21271,1,2
224,172,21634,1,4
376,172,21998,6,0,B|424:152|424:96,1,75,2|0
380,56,22362,2,0,B|296:56,1,75,0|0
232,56,22725,1,2
232,56,23089,1,0
264,124,23271,1,0
304,188,23453,1,2
256,332,23816,6,0,B|292:360|328:328,2,75,0|0|2
288,264,24362,1,0
224,224,24544,2,0,B|296:152|376:244,1,150,0|2
360,300,25089,1,0
360,300,25271,2,0,B|444:300,2,75,0|0|2
208,300,25998,1,4
80,220,26362,2,0,B|144:176,1,75,2|0
76,144,26725,2,0,B|140:100,1,75,0|0
200,60,27089,1,2
352,60,27453,1,4
276,188,27816,6,0,B|276:268,2,75,2|0|0
276,112,28362,1,0
332,64,28544,2,2,B|400:112|400:192,1,150,2|0
332,220,29089,2,2,B|336:136|256:100,1,150,0|0
136,192,29634,5,0
256,336,29998,1,2
372,192,30362,1,0
256,48,30725,1,2
256,124,30907,2,0,B|256:200,2,75,0|0|0
192,88,31453,2,0,B|128:28|56:92,1,150,2|4
128,224,32180,6,0,B|128:144,1,75,2|0
192,192,32544,2,0,B|192:108,1,75,0|0
256,76,32907,1,2
256,76,33271,1,4
256,224,33634,5,2
256,148,33816,2,0,B|336:148,2,75,0|0|0
180,152,34362,2,0,B|112:216|184:284,1,150,2|0
256,280,34907,1,0
256,280,34998,1,0
256,280,35089,1,0
332,280,35271,1,0
332,204,35453,5,0
256,72,35816,1,2
188,204,36180,2,0,B|264:204,2,75,0|0|2
144,264,36725,6,0,B|64:200|152:132,2,150
232,192,37634,1,0
220,80,37816,1,0
316,140,37998,1,0
408,76,38180,5,0
404,192,38362,1,0
108,192,38725,1,2
256,352,39089,1,0
256,32,39453,5,0
256,32,39634,2,0,B|256:180,1,150
96,116,40180,1,2
184,188,40362,1,0
156,80,40543,1,0
116,184,40725,1,0
212,124,40907,1,0
356,336,41271,6,0,B|356:256,1,75,0|0
460,280,41634,2,0,B|396:220,1,75,2|0
488,148,41998,2,0,B|412:172,1,75,0|0
352,192,42362,1,2
276,192,42543,6,0,B|200:232|200:316,1,150
124,316,43089,1,2
124,240,43271,2,0,B|124:156,2,75,0|0|0
188,276,43816,1,2
252,316,43998,5,0
276,308,44089,1,0
296,292,44180,2,0,B|360:224|288:156,2,150,0|2|0
256,228,45089,2,0,B|180:228,2,75,0|2|0
332,228,45634,2,0,B|356:192|328:152,2,75,0|0|2
232,284,46180,1,0
120,276,46362,5,8
212,212,46543,1,0
120,160,46725,1,2
140,240,46907,5,0
240,184,47089,1,8
148,124,47271,1,0
164,200,47453,5,2
268,148,47634,1,0
180,92,47816,1,8
256,208,47998,5,0
304,144,48180,1,2
320,72,48362,1,0
236,60,48543,6,0,B|164:124|236:192,1,150,4|8
308,188,49089,1,0
348,124,49271,2,0,B|420:192|348:256,1,150,0|8
296,300,49816,1,0
252,240,49998,2,0,B|168:240,2,75,0|0|8
328,236,50543,2,0,B|408:236,1,75,0|0
400,160,50907,2,0,B|308:160,1,75,8|8
120,192,51271,5,0
120,192,51453,2,0,B|144:120|240:120,1,150,0|8
392,192,51998,1,0
392,192,52180,2,0,B|368:120|272:120,1,150,0|8
256,292,52725,5,0
320,256,52907,2,0,B|272:196,1,75,0|0
192,256,53271,2,0,B|240:196,1,75,8|0
324,160,53634,2,0,B|276:100,1,75,0|0
192,160,53998,2,0,B|240:100,1,75,8|8
256,32,54362,5,4
256,32,54725,1,8
256,32,55089,2,0,B|336:32,2,75,0|0|8
204,84,55634,2,0,B|120:84,2,75,0|0|0
256,140,56180,1,8
304,84,56362,2,0,B|360:164|272:216,1,150
204,212,56907,1,8
156,156,57089,1,0
200,96,57271,6,0,B|112:60|80:148,1,150,0|8
80,220,57816,1,0
80,296,57998,1,0
80,296,58362,1,4
228,300,58725,2,0,B|228:212|128:212,1,150,0|8
72,260,59271,1,2
132,304,59453,2,0,B|220:304|220:204,1,150,0|8
148,192,59998,5,0
160,168,60089,1,0
176,148,60180,2,0,B|328:148,1,150,0|8
388,192,60725,1,0
328,240,60907,2,0,B|256:280,1,75,0|0
332,308,61271,2,0,B|248:356,1,75,8|0
204,308,61634,6,0,B|192:208|304:216,1,150,0|8
276,288,62180,2,0,B|380:284|392:160|280:136,1,225,0|8
256,80,62907,1,0
148,112,63089,6,0,B|208:164,1,75,2|0
148,268,63453,2,0,B|216:216,1,75,8|0
268,128,63816,2,0,B|340:168,1,75,2|0
264,256,64180,2,0,B|360:212,1,75,8|0
440,192,64543,5,2
368,268,64725,1,0
332,160,64907,1,8
416,164,65089,5,0
344,240,65271,1,2
308,132,65453,1,0
396,136,65634,5,8
324,212,65816,1,0
288,104,65998,1,4
288,104,66362,1,8
76,72,66725,2,0,B|88:72|88:72|96:60|96:60|96:84|96:84|104:72|104:72|116:72|116:72|124:60|124:60|124:84|124:84|132:72|132:72|180:72,1,150,0|8
304,72,67453,2,0,B|392:72,2,75,0|0|8
228,72,67998,2,0,B|228:168|344:168,1,150,0|2
396,168,68543,5,8
360,232,68725,1,0
284,236,68907,1,0
148,168,69271,1,8
148,168,69453,2,0,B|64:168,2,75,0|0|0
200,116,69998,1,8
256,168,70180,6,0,B|256:248,2,75,0|0|0
332,168,70725,1,8
408,172,70907,2,0,B|408:192|408:192|424:204|424:204|392:204|392:204|408:216|408:216|408:352,1,225,0|8
336,332,71634,1,0
292,272,71816,5,0
164,192,72180,2,0,B|76:192,2,75,8|0|0
316,192,72907,1,8
256,240,73089,1,0
256,88,73453,1,0
256,116,73543,1,0
256,140,73634,1,8
204,192,73816,1,0
304,192,73998,1,0
256,332,74362,1,4
256,332,74725,1,0
172,120,86362,6,0,B|88:120,2,75,0|0|2
324,120,87089,1,8
312,268,87453,1,2
272,204,87634,2,0,B|200:264|276:340,1,150
344,332,88180,2,0,B|428:332,2,75,2|0|8
404,192,88907,5,2
440,124,89089,2,0,B|480:148|480:192,2,75,0|0|0
404,56,89634,1,2
256,56,89998,1,4
128,136,90362,5,2
180,192,90543,2,0,B|264:192,1,75,0|0
332,192,90907,1,0
368,128,91089,2,2,B|440:192|368:256,1,150,2|0
332,192,91634,2,2,B|252:192,2,75,0|2|0
288,276,92180,5,0
164,192,92543,1,0
256,72,92907,1,4
344,192,93271,1,2
420,192,93453,2,0,B|392:296|272:252,1,150
160,288,93998,1,2
264,180,94180,1,0
220,324,94362,1,0
164,184,94543,1,0
284,276,94725,6,0,B|364:276,2,75,2|0|0
208,276,95271,1,0
132,276,95453,1,2
260,184,95816,1,4
380,84,96180,1,2
380,164,96362,2,0,B|448:204,1,75,0|0
380,252,96725,2,0,B|416:328,1,75,0|2
256,256,97271,1,0
256,100,97634,1,4
128,192,97998,6,0,B|168:276,1,75,0|0
232,260,98362,2,0,B|260:192,1,75,2|0
336,192,98725,2,0,B|360:276,1,75,0|0
432,264,99089,2,0,B|456:192,1,75,2|0
388,84,99453,5,0
276,144,99634,1,0
372,176,99816,1,2
292,52,99998,1,0
372,176,100180,1,0
292,52,100362,1,0
208,148,100543,1,2
256,264,100725,1,0
328,160,100907,6,0,B|400:196,1,75,0|0
328,228,101271,2,0,B|364:296,1,75,2|0
288,300,101634,1,4
184,192,101998,5,2
184,192,102180,2,0,B|264:192,2,75,0|0|0
136,136,102725,1,2
256,44,103089,1,0
256,44,103271,2,2,B|256:76|256:76|268:84|268:84|244:84|244:84|256:92|256:92|256:168,1,150,0|0
256,232,103816,6,0,B|208:232|208:232|184:216|160:200|160:200|108:200,1,150,0|2
116,352,104543,2,0,B|164:352|164:352|188:336|212:320|212:320|264:320,1,150,0|2
320,276,105089,1,0
320,124,105453,1,0
320,124,105634,2,0,B|400:124,2,75,2|0|4
168,124,106362,5,2
256,228,106543,1,0
144,152,106725,1,0
156,288,106907,1,0
100,164,107089,1,2
44,288,107271,1,0
56,152,107453,1,4
352,100,107816,5,2
352,100,107998,2,0,B|408:168|344:256,1,150
224,168,108543,1,2
224,168,108907,2,0,B|300:168,1,75,0|0
260,232,109271,2,0,B|332:276,1,75,2|0
256,304,109634,6,0,B|172:304,2,75,0|0|2
256,304,110362,1,8
356,192,110725,1,2
320,128,110907,2,0,B|256:64|188:128,1,150
148,192,111453,1,2
224,192,111634,2,0,B|292:152,1,75,0|0
288,228,111998,2,0,B|360:260,1,75,8|8
300,308,112362,5,0
224,308,112543,1,0
152,296,112725,1,0
132,280,112816,1,0
120,256,112907,1,2
156,192,113089,2,0,B|240:192,2,75,0|0|0
156,116,113634,5,2
220,76,113816,2,0,B|152:8|88:80,1,150
156,116,114362,2,0,B|156:196,2,75,2|0|0
88,152,114907,1,8
220,152,115089,1,8
420,320,115453,5,0
256,48,115816,1,2
92,320,116180,1,0
372,172,116543,5,2
372,172,116725,2,0,B|320:172|300:152|280:132|224:132,1,150
184,192,117271,1,2
140,252,117453,2,0,B|104:224|116:180,2,75,0|0|0
216,252,117998,1,2
216,252,118180,1,0
264,196,118362,6,0,B|320:272|236:328,3,150,0|2|0|2
168,308,119634,1,0
124,248,119816,2,0,B|124:152|244:152,1,150,4|2
220,228,120362,1,0
296,228,120543,2,0,B|372:228,1,75,4|0
336,160,120907,2,0,B|408:128,1,75,2|0
344,88,121271,5,4
196,64,121634,1,6
152,208,121998,1,4
176,224,122089,1,0
200,232,122180,1,0
228,232,122271,1,0
252,228,122362,1,0
276,216,122453,1,0
292,196,122543,1,0
304,172,122634,1,0
308,148,122725,6,0,B|304:120|300:96|280:72|248:56|216:60|192:68|180:88,1,150,0|8
160,128,123271,1,0
208,192,123453,2,0,B|288:192,1,75,0|0
248,128,123816,2,0,B|328:128,1,75,8|0
364,64,124180,6,0,B|428:132|360:200,1,150,0|8
324,132,124725,2,0,B|256:196|332:268,1,150,0|8
326,262,125271,1,8
460,192,125634,1,0
380,64,125998,1,8
228,64,126362,6,0,B|228:152|320:172,1,150,0|8
372,124,126907,1,0
432,172,127089,2,0,B|432:252,2,75,0|0|8
432,96,127634,2,0,B|380:40,1,75,0|0
356,112,127998,2,0,B|276:104,1,75,0|8
256,252,128543,1,4
256,104,128907,1,8
256,104,129271,6,0,B|256:184,2,75,0|0|8
188,72,129816,1,0
120,104,129998,1,0
120,180,130180,1,0
188,144,130362,1,8
188,144,130543,2,0,B|200:152|200:152|216:148|216:148|204:168|204:168|220:164|220:164|280:216,1,150
304,144,131089,1,8
212,252,131271,1,0
280,216,131453,6,0,B|372:216|388:308,1,150,0|8
336,356,131998,1,0
444,356,132180,1,0
384,96,132543,1,8
256,316,132907,6,0,B|256:288|256:288|240:288|240:288|256:272|256:272|272:256|272:256|256:256|256:256|256:184,1,150,0|8
256,136,133453,1,2
192,100,133634,1,0
232,36,133816,1,0
256,28,133907,1,0
280,36,133998,1,0
320,100,134180,1,0
320,176,134362,6,0,B|256:240|180:168,1,150,0|8
256,136,134907,1,0
320,96,135089,6,0,B|256:32|180:104,1,150,0|8
136,152,135634,1,0
200,192,135816,2,0,B|288:192,2,75,0|0|8
136,228,136362,2,0,B|164:304|272:304,1,150,0|8
328,300,136907,1,8
328,148,137271,5,2
252,148,137453,1,0
224,148,137543,1,0
200,148,137634,1,8
160,84,137816,1,0
104,132,137998,1,2
144,204,138180,2,0,B|112:236,2,37.5,0|0|8
224,224,138543,1,0
300,224,138725,6,0,B|376:224,1,75,2|0
336,160,139089,2,0,B|404:120,1,75,8|0
336,80,139453,1,2
228,48,139634,1,0
276,148,139816,1,8
292,36,139998,1,0
216,116,140180,1,4
88,192,140543,5,8
88,192,140907,2,0,B|108:192|108:192|120:216|120:216|144:172|144:172|156:192|156:192|196:192|196:192,1,150,0|8
336,192,141634,2,0,B|336:268,2,75,0|0|8
400,152,142180,2,0,B|336:76|272:152,1,150,0|0
236,212,142725,5,8
176,256,142907,1,0
104,284,143089,2,0,B|24:216|112:156,1,150,0|8
180,160,143634,2,0,B|336:160,1,150,0|8
360,228,144180,1,8
416,280,144362,5,0
364,332,144543,2,0,B|280:332,1,75,0|0
236,280,144907,2,0,B|160:280,1,75,8|0
108,228,145271,1,0
144,160,145453,1,0
160,140,145543,1,0
184,132,145634,1,8
256,108,145816,1,0
256,184,145998,2,0,B|348:172|328:72,1,150,0|8
268,36,146543,5,0
200,68,146725,2,0,B|124:68,2,75,0|0|8
200,144,147271,1,0
340,192,147634,1,0
328,216,147725,1,0
308,232,147816,1,8
256,288,147998,1,0
256,212,148180,1,0
212,152,148362,1,0
256,88,148543,1,4
256,88,148907,1,0
200,192,159816,6,0,B|232:168|272:168|304:192,1,112.5
316,211,160180,1,8
314,234,160271,1,0
301,252,160362,1,0
280,264,160453,1,0
256,264,160543,6,0,B|224:240|256:192|256:192,3,75,0|0|8|0
316,152,161271,1,0
256,104,161453,1,0
184,124,161634,6,0,B|152:156|184:196|184:196,3,75,8|0|0|0
256,192,162362,1,2
256,192,162543,1,2
312,244,162725,6,0,B|312:332,2,75,0|0|8
364,188,163271,1,0
364,188,163362,1,0
364,188,163453,6,2,B|364:148|324:124|324:124,3,75,2|2|2|2
256,148,164180,1,0
256,224,164362,1,0
252,300,164543,6,2,B|204:284|180:244|180:244,3,75,2|0|2|2
256,224,165271,1,8
256,224,165453,5,0
164,164,165634,1,2
256,20,165907,1,2
348,164,166180,1,2
256,192,166362,12,2,168907
217,53,169089,5,0
140,52,169271,2,0,B|108:68|84:124|108:180|140:196,1,150,0|8
200,184,169816,1,0
164,252,169998,2,0,B|188:300|220:332|300:340|300:340,1,150,0|8
408,336,170725,5,4
384,240,170998,1,4
344,152,171271,1,4
288,104,171453,5,4
184,56,171725,1,4
64,40,171998,1,4
256,192,172180,12,4,173634
256,152,173816,5,0
312,100,173998,2,0,B|344:128|388:168,2,75,8|0|0
256,48,174543,1,0
184,152,174725,1,8
328,152,174907,1,0
256,48,175089,6,0,B|216:48|176:64|152:112|152:160,1,150,0|8
160,232,175634,2,0,B|160:272|176:328|224:352|256:352,1,150,0|8
234,222,176180,1,8
80,256,176362,1,0
80,256,176543,6,0,B|48:224|40:184|48:144|80:120,3,150,0|8|0|8
132,72,177816,1,0
184,128,177998,2,0,B|216:144|256:160|304:144|336:120,1,150,0|8
400,120,178543,2,0,B|416:152|432:192|416:240|392:272,1,150
336,304,179089,1,8
272,264,179271,1,0
256,192,179453,2,0,B|312:192|360:176|384:144|400:112,1,150,0|8
472,208,180180,6,0,B|472:288|472:288,2,75,2|2|8
468,132,180725,2,0,B|444:116|404:100|356:84|308:100|268:116|252:132,1,225,0|8
312,184,181453,2,0,B|280:208|240:224|200:208|160:184,1,150
192,120,181998,1,8
140,241,182180,1,0
216,78,182362,2,0,B|256:62|304:78|304:78,2,75,0|0|8
144,104,182907,1,0
216,80,183089,1,0
216,152,183271,2,0,B|216:232|216:232,1,75,2|2
320,336,183816,2,0,B|360:336|408:336|408:336,2,75,0|0|8
248,336,184362,1,0
272,256,184543,2,0,B|244:256|184:256,2,75,0|0|8
344,128,185271,6,0,B|328:96|288:80,1,75,2|0
212,80,185634,1,8
156,128,185816,1,0
156,204,185998,2,0,B|172:236|212:252,1,75,2|0
288,252,186362,1,8
332,192,186543,1,0
352,120,186725,6,0,B|432:144,2,75,2|0|8
272,120,187271,2,0,B|208:192|176:80|144:192|112:120|72:216|72:216,1,225,4|8
216,264,188180,6,0,B|256:280|296:264,1,75,2|0
336,208,188543,1,8
290,267,188725,1,0
264,192,188907,6,0,B|232:152|272:104,1,75,2|0
320,80,189271,1,8
260,121,189453,1,0
328,160,189634,6,0,B|368:136|408:160,1,75,2|0
400,224,189998,1,8
400,155,190180,1,0
408,80,190362,6,0,B|376:48|336:80,1,75,2|0
272,80,190725,1,8
341,76,190907,1,2
304,136,191089,2,0,B|344:136|344:192|400:192|456:192,1,150,0|8
437,192,191634,1,0
304,104,191816,6,0,B|256:112|208:136|192:192,1,150,4|8
268,192,192362,1,0
344,192,192543,2,0,B|336:240|312:288|256:304,1,150,0|8
256,304,193089,1,0
160,192,193453,5,2
200,128,193634,1,2
256,80,193816,1,2
312,128,193998,2,0,B|344:152|352:192|344:232|304:272,1,150,0|8
336,336,194543,2,0,B|304:352|256:360|208:352|176:336,1,150
136,288,195089,1,8
92,228,195271,5,0
96,152,195453,2,0,B|120:112|160:88|200:72|240:72,1,150,0|8
256,140,195998,1,2
256,140,196362,5,0
256,156,196453,1,0
256,172,196543,1,8
256,188,196634,1,0
256,204,196725,1,0
256,220,196816,1,0
256,236,196907,6,0,B|216:212|184:188|168:148|168:108,3,150,4|8|0|8
236,84,198180,1,0
312,96,198362,2,0,B|360:112|384:152|384:216|384:240|384:240,3,150,0|8|0|8
308,224,199634,1,0
328,296,199816,6,0,B|296:328|256:336|216:328|192:296,3,150,0|8|0|8
148,240,201089,1,0
148,164,201271,2,0,B|180:148|220:132|268:148|300:172,1,150,0|8
240,224,201816,2,0,B|272:240|312:256|360:240|392:216,1,150
428,160,202362,1,8
372,112,202543,1,0
312,160,202725,2,0,B|288:176|240:184|200:176|168:160,1,150,0|8
132,228,203271,5,0
132,228,203362,1,0
132,228,203453,1,2
100,160,203634,1,2
132,92,203816,1,2
208,104,203998,2,0,B|288:64,2,75
224,176,204543,1,0
240,252,204725,2,0,B|296:252|296:212|360:212|360:212|400:212,1,150
416,144,205271,1,8
344,120,205453,1,0
320,192,205634,6,0,B|272:192|224:192|136:192,1,150,0|8
112,128,206180,1,0
188,124,206362,2,0,B|252:52|252:52|252:52,2,75,0|0|8
152,188,206907,5,0
136,260,207089,2,0,B|160:308|208:332|272:300,1,150,0|8
312,248,207634,1,0
292,176,207816,2,0,B|340:112,2,75,0|0|8
232,224,208362,1,0
160,248,208543,6,0,B|128:224|120:184,1,75,4|0
128,112,208907,1,8
188,68,209089,1,0
264,72,209271,6,0,B|296:88|312:128,1,75
352,192,209634,1,8
312,256,209816,1,0
256,208,209998,2,0,B|208:272,2,75,0|0|8
216,144,210543,2,0,B|264:104|328:120|376:176|344:248,1,225,0|8
184,152,211453,6,0,B|168:192|184:232,1,75,2|0
181,225,211816,1,8
181,225,211998,1,0
224,288,212180,6,2,B|264:320|312:280,1,75,2|0
294,292,212543,1,8
294,292,212725,1,0
328,232,212907,6,2,B|352:192|328:152,1,75,2|0
333,161,213271,1,8
333,161,213453,1,0
288,88,213634,6,2,B|256:56|216:88,1,75,2|0
222,85,213998,1,8
222,85,214180,1,0
160,128,214362,2,0,B|128:160|112:192|128:224|160:264,1,150,0|8
128,328,214907,1,0
192,288,215089,6,0,B|232:336|280:336|328:280,1,150,0|8
256,248,215634,1,0
208,192,215816,2,0,B|216:144|240:96|296:80,1,150,0|8
296,80,216362,1,4
368,200,216725,5,2
332,264,216907,1,2
264,296,217089,1,2
200,256,217271,2,0,B|168:232|160:192|168:152|208:112,1,150,2|0
176,48,217816,2,0,B|212:32|256:28|308:36|336:56,1,150
372,100,218362,1,8
424,156,218543,5,0
428,232,218725,2,0,B|404:272|364:296|324:312|284:312,1,150,0|8
208,312,219271,2,0,B|152:280|480:264|152:240|80:200|200:192|312:192|256:160|176:120,1,300
184,123,220180,1,4
