osu file format v9

[General]
AudioFilename: Gohan wa Okazu(Full ver.).mp3
AudioLeadIn: 0
PreviewTime: 30705
Countdown: 0
SampleSet: Normal
StackLeniency: 0.7
Mode: 0
LetterboxInBreaks: 1

[Editor]
DistanceSpacing: 1
BeatDivisor: 4
GridSize: 4

[Metadata]
Title:Gohan wa Okazu
Artist:HTT
Creator:Sumisola
Version:Insane
Source:K-ON!!
Tags:sherrie__fay sumi__fay siriru Shinki ho-kago tea time hirasawa yui toyosaki aki akiyama mio hikasa yoko tainaka ritsu satou satomi kotobuki tsumugi minako

[Difficulty]
HPDrainRate:8
CircleSize:4
OverallDifficulty:7
ApproachRate:8
SliderMultiplier:1.9
SliderTickRate:2

[Events]
//Background and Video events
0,0,"Insane.jpg"
//Break Periods
2,87826,95719
//Storyboard Layer 0 (Background)
//Storyboard Layer 1 (Fail)
//Storyboard Layer 2 (Pass)
//Storyboard Layer 3 (Foreground)
//Storyboard Sound Samples
//Background Colour Transformations
3,100,163,162,255

[TimingPoints]
469,315.789473684211,4,1,0,70,1,0
10574,-100,4,2,2,70,0,0
14363,-100,4,2,1,50,0,0
15153,-100,4,2,1,70,0,0
15626,-100,4,2,2,70,0,0
19416,-100,4,2,1,60,0,0
20205,-100,4,2,1,70,0,0
20679,-133.333333333333,4,2,1,80,0,0
25732,-100,4,2,1,90,0,0
26916,-100,4,2,1,70,0,0
27074,-100,4,2,1,90,0,0
30469,-100,4,2,1,70,0,0
30547,-100,4,2,1,80,0,0
30626,-100,4,2,1,90,0,0
30705,-100,4,2,1,100,0,0
30784,-100,4,2,2,95,0,1
30863,-100,4,2,1,95,0,0
38047,-100,4,2,1,80,0,0
38126,-100,4,2,1,87,0,0
38205,-100,4,2,1,93,0,0
38284,-100,4,2,1,100,0,0
38363,-100,4,2,1,80,0,0
38916,-100,4,2,1,100,0,0
39074,-100,4,2,1,80,0,0
39626,-100,4,2,1,95,0,0
42232,-100,4,2,1,88,0,0
42390,-100,4,2,1,95,0,0
43416,-100,4,2,1,90,0,0
45626,-100,4,2,1,70,0,0
45942,-100,4,2,1,95,0,0
46021,-100,4,2,1,100,0,0
50679,-100,4,2,1,70,0,0
50995,-100,4,2,2,95,0,0
51074,-100,4,2,1,95,0,0
55732,-100,4,2,1,80,0,0
55811,-100,4,2,1,87,0,0
55890,-100,4,2,1,93,0,0
55969,-100,4,2,1,100,0,0
56047,-100,4,2,1,70,0,0
65837,-133.333333333333,4,2,1,90,0,0
66784,-133.333333333333,4,2,1,90,0,0
71205,-100,4,2,1,90,0,0
71521,-100,4,1,1,70,0,0
71600,-100,4,2,1,90,0,0
76258,-100,4,1,1,80,0,1
76337,-100,4,2,1,95,0,0
86363,-100,4,2,1,70,0,0
96469,-100,4,1,2,70,0,0
116679,-200,4,1,1,70,0,0
117311,-133.333333333333,4,1,1,80,0,0
117942,-100,4,1,1,85,0,0
118574,-80,4,1,1,85,0,0
119205,-100,4,1,1,70,0,0
120469,-100,4,2,2,80,0,0
125047,-100,4,2,1,80,0,0
125521,-100,4,2,2,80,0,0
130100,-100,4,2,1,70,0,0
130574,-133.333333333333,4,2,1,80,0,0
135626,-100,4,2,1,90,0,0
140679,-100,4,2,1,100,0,0
141942,-100,4,2,1,90,0,0
142574,-100,4,2,1,100,0,0
143205,-100,4,2,2,80,0,1
143284,-100,4,2,2,80,0,0
158363,-100,4,2,1,80,0,0
178574,-100,4,2,1,90,0,0
182995,-100,4,1,1,80,0,0
186074,-100,4,1,1,5,0,0

[Colours]
Combo1 : 0,174,87
Combo2 : 238,185,2
Combo3 : 0,128,255
Combo4 : 186,117,255
Combo5 : 255,128,128

[HitObjects]
44,192,10574,2,0,B|92:216|136:192,1,95,4|0
212,136,10890,2,0,B|256:120|304:136,1,95,8|0
384,192,11205,2,0,B|352:288|256:324,1,190,0|8
72,280,11837,6,0,B|168:280,1,95,0|0
108,204,12153,2,0,B|208:204,2,95,8|0|0
76,112,12626,1,0
172,112,12784,1,8
352,48,13100,6,0,B|400:76|408:128,1,95,0|0
312,132,13416,2,0,B|328:184|376:208,1,95,8|0
456,164,13732,1,0
476,260,13890,2,0,B|496:304|476:352,1,95,0|8
476,352,14363,5,2
372,248,14521,1,2
260,292,14679,1,2
200,144,14837,1,2
200,144,15153,2,0,B|100:144,1,95,0|8
100,336,15626,6,0,B|4:336,2,95,4|0|8
196,336,16100,2,0,B|384:336,1,190,0|0
480,336,16574,1,8
372,180,16890,6,0,B|336:216|336:268,1,95,0|0
376,352,17205,1,8
416,264,17363,2,0,B|468:192|468:84,1,190
376,68,17837,1,8
144,180,18153,5,0
84,108,18311,1,0
144,36,18469,1,8
236,24,18626,2,0,B|268:116|236:212,1,190
160,268,19100,1,8
160,268,19416,5,2
68,192,19574,1,2
208,132,19732,1,2
36,28,19890,1,2
36,28,20205,2,0,B|36:128,1,95,8|8
36,123,20679,6,0,B|44:204|124:224,1,142.499995753169,4|0
188,156,21153,1,0
220,244,21311,2,0,B|296:244|348:188,1,142.499995753169,8|0
448,32,21784,5,8
448,32,22100,1,8
420,120,22258,1,0
348,180,22416,1,0
264,216,22574,2,0,B|112:216,1,142.499995753169,8|0
64,144,23047,1,0
156,144,23205,6,0,B|212:188|212:272,1,142.499995753169,4|0
212,364,23679,1,0
292,316,23837,2,0,B|291:234|347:190,1,142.499995753169,8|0
496,32,24311,5,8
496,32,24626,1,8
428,96,24784,1,0
496,160,24942,1,0
428,224,25100,2,0,B|280:224,1,142.499995753169,8|0
256,312,25574,1,0
176,360,25732,6,0,B|116:276|176:180,1,190,4|0
256,132,26205,1,0
256,228,26363,1,0
174,182,26521,2,0,B|74:182,2,95,2|2|2
272,184,26995,1,0
436,288,27311,6,0,B|344:328|248:292,1,190,8|0
92,192,27942,1,8
92,192,28100,1,0
164,128,28258,2,0,B|360:128,1,190,4|8
424,192,28732,1,0
356,256,28890,2,0,B|164:256,1,190,0|8
168,256,29521,6,0,B|138:300|168:344,1,95,8|2
288,300,29837,2,0,B|312:252|288:208,1,95,8|2
120,72,30153,2,0,B|92:120|120:164,1,95,8|2
188,228,30469,5,8
200,220,30547,1,0
208,208,30626,1,8
212,196,30705,1,0
212,180,30784,2,0,B|212:132|176:96,1,95,4|0
84,124,31100,2,0,B|56:172|88:220,1,95,8|0
160,276,31416,2,0,B|160:172,1,95,4|0
244,224,31732,2,0,B|244:120,1,95,8|0
300,52,32047,6,0,B|340:76|356:128|340:184|300:216,1,190,4|8
160,356,32521,2,0,B|120:332|104:280|120:224|160:192,1,190,4|8
336,236,32995,2,0,B|356:284|332:328,1,95,12|0
161,192,33311,6,0,B|256:192,1,95,4|0
208,272,33626,2,0,B|113:272,1,95,8|0
308,144,33942,2,0,B|332:192|308:236,1,95,4|0
228,184,34258,2,0,B|204:136|228:92,1,95,8|0
348,16,34574,6,0,B|456:16,2,95,4|0|8
256,16,35047,2,0,B|256:224,1,190,4|8
256,300,35521,1,12
32,192,35837,6,0,B|88:176|108:132,1,95,4|0
104,40,36153,2,0,B|148:20|196:40,1,95,8|0
324,132,36469,2,0,B|352:92|352:40,1,95,4|0
260,20,36784,6,0,B|228:64|228:120,1,95,8|0
316,144,37100,2,0,B|304:192|260:220,2,95,4|0|8
368,64,37574,2,0,B|424:92|420:200|364:232,1,190,4|8
292,280,38047,5,12
276,280,38126,1,0
260,280,38205,1,8
244,280,38284,1,0
228,280,38363,2,0,B|188:248|184:192,1,95,4|0
272,160,38679,2,0,B|312:192|316:244,1,95,8|0
364,132,38995,2,0,B|328:104|328:48,1,95,4|0
420,68,39311,2,0,B|452:108|452:156,1,95,8|0
380,220,39626,1,6
300,68,39784,5,0
300,68,40100,2,0,B|112:68,1,190,4|0
28,116,40574,2,0,B|84:128|96:180,1,95,12|0
20,236,40890,1,6
176,120,41047,5,0
176,120,41363,2,0,B|372:120,1,190,4|0
460,120,41837,1,12
366,120,41995,1,0
416,200,42153,2,0,B|416:296,2,95,6|0|0
412,104,42626,2,0,B|360:104|320:140|316:200|328:244,1,190,14|0
412,288,43100,1,12
412,288,43416,5,6
412,288,43574,1,0
312,192,43732,1,2
312,192,43890,1,2
152,192,44047,1,6
152,192,44205,1,0
228,72,44363,1,2
228,72,44521,1,2
256,164,44679,6,0,B|256:268,1,95,6|0
348,292,44995,2,0,B|348:196,1,95,6|0
352,36,45311,2,0,B|392:36|424:56|440:92|440:124|440:124|440:180,1,190,4|0
440,188,45705,1,8
440,204,45784,1,8
440,220,45863,1,8
440,236,45942,2,0,B|440:296|440:296|440:312|424:328|404:328,1,95,4|0
348,292,46258,5,8
348,292,46416,1,8
348,292,46574,1,0
348,292,46732,1,0
348,292,46890,1,8
348,292,47047,2,0,B|256:252|244:144,1,190,4|0
336,116,47521,5,8
336,116,47679,1,8
336,116,47837,1,0
336,116,47995,1,0
336,116,48153,1,8
336,116,48311,1,0
288,200,48469,6,0,B|244:232|192:212,1,95,4|0
104,236,48784,2,0,B|88:192|104:144,1,95,8|0
208,144,49100,1,4
188,248,49258,1,0
104,144,49416,1,8
256,16,49574,6,0,B|324:16|380:64|380:136,1,190,4|0
316,192,50047,2,0,B|316:256|368:308|448:308,1,190,12|0
488,232,50521,1,0
404,192,50679,5,8
388,192,50758,1,8
372,192,50837,1,8
356,192,50916,1,8
340,192,50995,2,0,B|232:192,1,95,4|0
244,192,51311,1,8
244,192,51469,1,8
244,192,51626,1,0
244,192,51784,1,0
244,192,51942,1,8
148,192,52100,6,0,B|160:88|256:44,1,190,4|0
304,128,52574,1,8
304,128,52732,1,8
304,128,52890,1,0
304,128,53047,1,0
304,128,53205,1,8
304,128,53363,1,0
364,204,53521,6,0,B|324:240|272:240,1,95,4|0
264,240,53758,1,0
248,240,53837,2,0,B|152:240,1,95,8|0
80,180,54153,2,0,B|40:216|60:272,2,95,4|0|8
216,48,54626,5,4
216,48,54942,2,0,B|272:60|288:116,1,95,0|4
220,176,55258,1,0
288,240,55416,2,0,B|388:240,1,95,4|0
480,240,55732,5,8
480,240,55811,1,0
480,240,55890,1,8
480,240,55969,1,0
480,240,56047,2,0,B|480:184|328:184|328:244,1,190,4|2
408,296,56521,2,0,B|408:352|256:352|256:296,1,190
276,204,56995,2,0,B|328:224|348:276,1,95,2|0
108,296,57311,6,0,B|36:296|36:160|100:160,1,190,0|2
168,92,57784,2,0,B|232:92|232:236|164:236,1,190
100,136,58258,2,0,B|72:88|100:44,1,95,2|0
304,192,58574,6,0,B|344:228|344:332|304:368,1,190,0|2
304,367,59047,1,0
207,367,59205,2,0,B|168:332|168:228|208:192,1,190,0|2
208,192,59679,1,0
304,32,59837,5,2
256,104,59995,1,0
352,104,60153,1,2
208,32,60311,1,2
208,32,60626,2,0,B|208:136,1,95,0|8
208,128,61100,6,0,B|297:176|392:128,1,190,4|2
416,64,61574,2,0,B|352:152|416:240,1,190
496,288,62047,1,2
496,288,62363,2,0,B|448:268|400:288,1,95,0|0
452,360,62679,2,0,B|404:384|356:360,1,95,2|0
320,288,62995,2,0,B|272:268|224:288,2,95,0|0|2
416,124,63626,6,0,B|380:88|328:64|272:88|248:124,1,190,0|2
328,192,64100,1,0
252,252,64258,2,0,B|216:288|164:312|108:288|84:252,1,190,0|2
87,254,64890,5,4
160,108,65047,1,0
312,192,65205,1,2
400,32,65363,1,6
400,32,65679,5,0
400,32,65837,2,0,B|400:184,1,142.499995753169,8|4
400,268,66311,5,0
476,320,66469,2,0,B|460:352|416:360,1,71.2499978765846
328,360,66784,2,0,B|180:360,1,142.499995753169,8|0
32,192,67258,5,12
32,192,67574,1,0
88,264,67732,2,0,B|132:328,1,71.2499978765846
188,252,68047,2,0,B|196:176|260:136,1,142.499995753169,8|0
344,276,68521,1,0
288,352,68679,2,0,B|232:308|264:192|336:184,1,213.749993629754,4|0
400,252,69311,2,0,B|445:184|401:116,1,142.499995753169,8|0
256,32,69784,5,12
256,32,70100,1,0
256,124,70258,2,0,B|256:196,1,71.2499978765846
256,288,70574,2,0,B|188:320|116:288,1,142.499995753169,8|0
64,212,71047,1,0
136,148,71205,6,0,B|240:148,1,95,4|0
352,232,71521,2,0,B|452:232,2,95,2|0|0
256,232,71995,1,8
312,156,72153,1,8
352,232,72311,2,0,B|320:328|204:328,1,190,8|0
160,244,72784,6,0,B|112:268|108:320,1,95,8|0
56,208,73100,2,0,B|100:184|116:128,1,95
200,92,73416,1,8
200,92,73574,1,0
296,108,73732,2,0,B|324:208|432:228,1,190,4|8
456,40,74363,1,0
444,136,74521,1,0
428,228,74679,1,8
288,340,74995,6,0,B|232:328|208:284,1,95,6|0
300,256,75311,2,0,B|248:232|240:176,1,95,2|0
160,136,75626,2,0,B|196:96|252:96,1,95,6|0
304,172,75942,5,8
304,172,76021,1,8
304,172,76100,1,8
304,172,76179,1,8
304,172,76258,2,0,B|264:208|264:264,2,95,4|0|8
380,108,76732,1,0
472,84,76890,2,0,B|508:52|508:0,2,95,6|0|8
380,108,77363,1,0
332,28,77521,5,6
272,100,77679,1,0
312,184,77837,1,8
268,268,77995,2,0,B|180:308|80:268,1,190,4|0
84,172,78469,1,4
84,172,78626,1,0
156,236,78784,6,0,B|253:275|341:235,1,190,6|8
428,192,79258,1,0
384,116,79416,2,0,B|287:154|199:114,1,190,6|8
128,76,79890,1,0
208,24,80047,2,0,B|304:24,2,95,6|0|8
256,108,80521,2,0,B|256:308,1,190,4|0
256,298,80995,1,12
440,344,81311,5,6
92,192,81626,1,0
440,40,81942,1,6
440,40,82258,2,0,B|440:144,1,95,8|0
356,88,82574,1,4
356,184,82732,2,0,B|356:284,1,95,2|0
312,364,83047,2,0,B|280:340|256:304|272:256|272:256|272:180,1,190,6|0
272,189,83521,1,12
108,96,83837,6,0,B|44:180|108:272,1,190,6|8
192,228,84311,1,0
188,324,84469,2,0,B|156:364|100:364,1,95,6|0
108,272,84784,2,0,B|104:324|48:344,1,95,8|0
16,256,85100,1,4
124,88,85258,5,2
124,88,85574,2,0,B|324:88,1,190,4|0
408,88,86047,1,12
256,320,86363,1,12
152,228,86574,2,0,B|80:228,4,63.3333333333333,8|8|8|8|4
292,136,87205,2,0,B|364:136,4,63.3333333333333,8|8|8|8|4
156,192,96469,6,0,B|188:248,11,63.3333333333333
156,192,97732,6,0,B|176:168|224:168|256:192|256:192|340:192,1,190,0|0
200,304,98363,6,0,B|176:328|132:328|100:304|100:304|16:304,1,190,0|0
124,156,98995,2,0,B|160:196|160:248,1,95,0|0
72,200,99311,2,0,B|60:252|12:268,1,95,0|0
20,152,99626,2,0,B|44:44|144:24,1,190,0|0
256,200,100258,6,0,B|212:180|212:52|256:32,1,190,4|0
384,32,100732,2,0,B|428:52|428:180|384:200,1,190
383,200,101205,1,0
256,364,101521,2,0,B|232:320|256:272,1,95
340,224,101837,1,0
344,320,101995,2,0,B|280:324|224:240|256:184,1,190
255,185,102469,1,0
468,104,102784,6,0,B|392:164|288:120,1,190,4|0
288,52,103258,2,0,B|304:156|224:224,1,190
226,222,103732,1,0
76,104,104047,6,0,B|48:160,8,63.3333333333333
76,104,104995,2,0,B|192:104,1,95
268,104,105311,2,0,B|268:160|180:220|124:184,1,190
268,312,105942,2,0,B|268:256|344:204|412:232,1,190
416,40,106574,5,0
492,96,106732,1,0
420,156,106889,1,0
492,216,107047,2,0,B|424:284|424:284|332:284,1,190
332,284,107521,1,0
152,228,107837,6,0,B|72:176|72:176|72:76,1,190,4|0
152,132,108311,2,0,B|255:132|255:132|328:84|328:84|452:84,2,285
80,192,109416,1,0
200,340,109732,1,0
288,300,109890,1,0
348,228,110047,1,0
232,76,110363,6,0,B|328:76|328:76|372:148|372:148|484:148,3,285,4|0|4|0
480,340,112100,5,0
408,280,112258,1,0
480,220,112416,1,0
408,160,112574,1,0
484,104,112732,1,0
412,44,112890,2,0,B|312:44|312:44|244:120,1,190,4|0
340,140,113363,2,0,B|272:208|272:208|176:208,1,190
236,132,113837,2,0,B|188:132|188:132|140:128|112:152|96:188|96:220|96:220|4:220,1,285
88,52,114626,5,0
184,52,114784,2,0,B|292:52,1,95
340,124,115100,2,0,B|240:124,1,95
148,124,115416,1,4
84,192,115574,1,0
84,212,115653,1,0
84,232,115732,1,0
12,296,115890,2,0,B|32:316|56:332|88:336|120:336|120:336|196:336,1,190
192,336,116363,1,0
340,276,116679,6,0,B|340:176,1,95,4|0
172,100,117311,6,0,B|172:256,1,142.499995753169,4|0
384,236,117942,6,0,B|384:46,1,190,4|0
100,92,118574,6,0,B|100:336,1,237.499996460974,4|0
256,296,119205,5,4
256,280,119284,1,0
256,264,119363,1,0
256,248,119442,1,0
256,232,119521,1,0
256,216,119600,1,0
256,200,119679,1,0
256,184,119758,1,0
256,168,119837,1,0
256,152,119916,1,0
256,136,119995,1,0
256,120,120074,1,0
256,104,120153,1,0
256,88,120232,1,0
256,72,120311,1,0
256,56,120390,1,0
256,40,120469,6,0,B|304:12|348:40|392:68|452:28,1,190,4|2
436,224,121100,1,0
384,144,121258,1,2
312,84,121416,2,0,B|268:124|284:212|356:240,1,190,2|4
460,80,122047,1,2
384,144,122205,2,0,B|335:187|335:271|396:308,1,190,0|2
395,307,122679,1,2
212,216,122995,6,0,B|116:216,2,95,4|0|2
256,300,123469,2,0,B|244:352|188:368,2,95,0|0|2
312,224,123942,2,0,B|364:236|380:288,1,95,2|0
292,324,124258,5,4
256,192,124416,1,0
132,240,124574,1,2
292,72,124732,5,6
292,324,125047,5,10
196,324,125205,2,0,B|196:128,1,190,0|4
152,48,125679,2,0,B|196:28|244:48,1,95
320,104,125995,1,0
320,104,126311,1,2
344,12,126469,2,0,B|408:16|448:112|420:160,1,190,2|4
412,252,126942,5,0
380,340,127100,1,2
308,280,127258,1,0
308,280,127574,1,2
224,324,127732,2,0,B|192:260|228:188|300:180,1,190,2|4
388,288,128363,5,2
388,288,128521,2,0,B|288:288,1,95
244,368,128837,1,2
192,288,128995,1,2
96,288,129153,1,0
148,204,129311,2,0,B|148:152|112:116,1,95,4|0
52,192,129626,1,2
204,80,129784,5,4
244,368,130100,5,8
192,288,130258,1,8
192,288,130574,6,0,B|40:288,2,142.499995753169,4|0|8
348,192,131521,1,8
348,192,131679,1,8
164,192,131995,1,8
164,192,132153,2,0,B|216:248,1,71.2499978765846
172,328,132469,2,0,B|76:216,1,142.499995753169,8|0
256,272,133100,6,0,B|360:380,2,142.499995753169,4|0|8
424,192,134047,2,0,B|472:244,1,71.2499978765846,8|8
300,316,134521,1,8
388,280,134679,2,0,B|440:332,2,71.2499978765846,0|0|8
256,148,135311,5,0
256,148,135626,2,0,B|304:232,1,95,4|0
184,172,135942,2,0,B|172:268,2,95
132,120,136416,2,0,B|36:124,2,95,8|0|0
204,96,136890,1,0
368,192,137205,6,0,B|408:168|408:168|408:64|408:64|448:32,1,190,8|0
438,39,137837,1,8
508,104,137995,1,0
512,196,138153,2,0,B|512:304|512:304|432:332,1,190,4|8
312,228,138784,2,0,B|216:248|216:248|176:332,1,190,0|8
176,332,139416,5,6
132,256,139574,1,0
84,172,139732,2,0,B|184:172,1,95
260,172,140047,5,12
216,88,140205,1,0
176,172,140363,1,2
216,256,140521,1,0
256,36,140679,5,4
256,344,140995,1,4
256,36,141311,1,4
256,344,141626,1,4
256,36,141942,6,0,B|184:100,1,95,4|0
256,164,142258,2,0,B|184:232,1,95
292,248,142574,6,0,B|340:228|348:176,1,95,4|0
348,80,142890,1,8
348,80,143047,1,0
256,36,143205,6,0,B|200:40|164:84|156:144|192:180,1,190,4|8
256,244,143679,1,0
323,175,143837,2,0,B|356:144|348:84|312:40|256:36,1,190,4|8
180,92,144311,1,0
96,136,144469,2,0,B|76:92|96:44,1,95,4|0
256,148,144784,1,8
338,295,144942,2,0,B|316:348|192:348|176:296,1,190,4|0
256,148,145416,2,4,B|256:248,1,95,12|0
412,192,145732,6,0,B|404:92|320:32,1,190,4|8
256,88,146206,1,0
191,32,146363,2,0,B|108:92|100:192,1,190,4|8
100,192,146837,1,0
160,264,146995,2,0,B|256:312|344:264,1,190,4|8
256,192,147469,1,4
100,64,147784,1,8
100,160,147942,1,12
312,348,148258,6,0,B|360:332|360:200|312:184,1,190,4|8
312,184,148732,1,0
264,99,148890,2,0,B|216:116|216:248|264:264,1,190,4|8
264,264,149363,1,0
352,64,149521,2,0,B|452:64,2,95,4|0|8
256,64,149995,2,0,B|176:124|176:228,1,190,4|8
256,280,150469,1,12
424,128,150784,6,0,B|442:83|422:35,1,95,4|0
332,144,151100,2,0,B|311:192|331:236,1,95,8|0
424,348,151416,2,0,B|444:303|423:255,1,95,4|0
332,144,151732,1,8
332,144,151890,1,0
208,192,152047,6,0,B|208:96|80:48,1,190,4|8
64,176,152521,2,0,B|64:272|192:320,1,190,4|0
256,264,152995,2,0,B|256:168,1,95,12|0
335,70,153311,6,0,B|448:112|448:208,1,190,4|8
416,329,153785,2,0,B|304:288|304:192,1,190,4|0
256,104,154258,2,0,B|256:8,1,95,12|0
128,96,154574,6,0,B|128:192|208:272,1,190,4|8
310,265,155047,2,0,B|384:192|384:96,1,190,4|0
256,128,155521,1,12
256,192,155837,12,0,158047
164,96,158363,6,0,B|164:200,1,95,4|0
164,288,158679,1,8
164,288,158837,1,8
80,244,158995,2,0,B|4:308,2,95,0|0|0
164,192,159469,6,0,B|256:152|348:192,1,190,4|0
424,248,159942,1,8
424,248,160100,1,8
348,304,160258,1,0
348,304,160416,1,0
348,208,160574,2,0,B|368:164|428:160,1,95
440,324,160890,6,0,B|392:312|368:264,1,95,4|0
276,284,161205,2,0,B|244:244|244:196,1,95,8|0
320,136,161521,2,0,B|272:216|152:196,1,190,4|8
204,36,161995,5,4
204,36,162311,2,0,B|228:132,1,95,0|12
204,316,162784,2,0,B|312:320|376:252,1,190,4|8
400,64,163416,6,0,B|444:93|448:149,1,95,4|0
352,148,163732,2,0,B|316:192|332:244,1,95,8|8
270,310,164047,2,0,B|226:290|210:230,2,95,0|0|8
396,344,164521,6,0,B|464:288|464:288|480:184,1,190,4|0
460,92,164995,2,0,B|436:136|376:128,1,95,8|0
288,100,165311,1,0
312,192,165469,1,0
332,216,165547,1,0
360,232,165626,1,8
444,276,165784,1,8
479,187,165942,6,0,B|434:166|418:118,1,95,4|0
362,35,166258,2,0,B|322:63|311:116,1,95,8|0
356,204,166574,1,4
296,280,166732,1,0
204,260,166890,1,8
152,48,167047,6,0,B|244:92|260:200,1,190,4|0
172,216,167521,2,0,B|208:112|308:92,1,190,12|4
332,280,168153,1,8
164,192,168469,6,0,B|272:192,1,95,4|0
356,192,168784,1,8
356,192,168942,1,8
456,192,169100,2,0,B|456:292,2,95,0|0|8
456,96,169574,6,0,B|368:56|260:100,1,190,4|0
272,192,170047,2,0,B|224:192,2,47.5,8|0|8
304,284,170363,2,0,B|352:264|368:216,1,95
392,124,170679,1,8
392,124,170837,1,8
464,192,170995,6,0,B|464:292,1,95,4|0
388,228,171311,2,0,B|388:324,1,95,8|0
312,264,171626,2,0,B|312:364,1,95,4|0
236,300,171942,1,8
216,120,172100,5,4
216,120,172416,2,0,B|216:220,1,95,0|12
368,340,172890,1,4
368,244,173047,1,8
368,340,173205,1,8
220,220,173521,6,0,B|240:168|296:152,1,95,4|0
220,288,173837,2,0,B|256:324|256:372,1,95,8|8
164,248,174153,2,0,B|120:228|104:176,2,95,0|0|8
276,248,174626,6,0,B|332:236|332:112|272:92,1,190,4|0
204,156,175100,1,8
204,156,175258,1,8
136,92,175416,2,0,B|96:60,2,47.5
228,68,175732,2,0,B|204:28,2,47.5
332,60,176047,6,0,B|392:80|392:204|332:216,1,190,4|8
284,136,176521,1,0
332,60,176679,2,0,B|392:64|424:108,1,95,12|0
424,192,176995,1,8
392,280,177153,6,0,B|436:368,1,95,12|0
336,360,177469,2,0,B|288:268,1,95,0|12
216,104,177942,1,4
136,156,178100,1,8
136,156,178179,1,0
136,156,178258,1,8
300,248,178574,6,0,B|280:352,1,95,8|0
372,236,178890,2,0,B|408:328,1,95,8|0
412,172,179205,2,0,B|504:188,1,95,8|0
412,100,179521,2,0,B|500:64,1,95,8|8
256,104,179837,6,0,B|168:48,1,95,8|0
212,160,180153,2,0,B|112:144,1,95,8|0
212,228,180469,2,0,B|120:264,1,95,8|0
248,288,180784,2,0,B|208:372,1,95,8|8
384,192,181100,6,0,B|432:284,1,95,8|0
424,132,181416,2,0,B|516:96,1,95,8|0
356,104,181732,2,0,B|316:12,1,95,8|0
320,168,182047,2,0,B|228:204,1,95,8|8
108,312,182363,6,0,B|108:216,1,95,8|0
188,168,182679,2,0,B|188:276,1,95,8|0
256,332,182995,1,0
272,332,183074,1,0
288,332,183153,1,0
304,332,183232,1,0
320,332,183311,1,0
376,256,183469,1,0
256,192,183626,12,0,186153
