osu file format v9

[General]
AudioFilename: Gohanhasuokazu.mp3
AudioLeadIn: 1500
PreviewTime: 143208
Countdown: 0
SampleSet: Normal
StackLeniency: 0.3
Mode: 0
LetterboxInBreaks: 1

[Editor]
DistanceSpacing: 1
BeatDivisor: 4
GridSize: 4

[Metadata]
Title:Gohan wa Okazu (Full Ver.)
Artist:HTT
Creator:kanpakyin
Version:Normal
Source:K-ON!!
Tags:ho-kago tea time Hirasawa Yui Toyosaki Aki Akiyama Mio Hikasa Yoko Tainaka Ritsu Satou Satomi Kotobuki Tsumugi Minako

[Difficulty]
HPDrainRate:3
CircleSize:4
OverallDifficulty:2
ApproachRate:4
SliderMultiplier:0.8
SliderTickRate:1

[Events]
//Background and Video events
0,0,"BG.jpg"
//Break Periods
2,87829,96415
//Storyboard Layer 0 (Background)
//Storyboard Layer 1 (Fail)
//Storyboard Layer 2 (Pass)
//Storyboard Layer 3 (Foreground)
//Storyboard Sound Samples
//Background Colour Transformations
3,100,163,162,255

[TimingPoints]
472,315.789473684211,4,1,1,40,1,0
7340,-100,4,2,1,40,0,0
7498,-100,4,1,1,40,0,0
7972,-100,4,2,1,40,0,0
8129,-100,4,1,1,40,0,0
9235,-100,4,2,1,40,0,0
9393,-100,4,1,1,40,0,0
9866,-100,4,2,1,40,0,0
10024,-100,4,1,1,40,0,0
12629,-100,4,2,1,40,0,0
12787,-100,4,1,1,40,0,0
14287,-100,4,2,1,40,0,0
14761,-100,4,1,1,40,0,0
19419,-100,4,1,1,50,0,0
26919,-100,4,2,1,50,0,0
27077,-100,4,1,1,50,0,0
27550,-100,4,2,1,50,0,0
27708,-100,4,1,1,50,0,0
30787,-100,4,1,1,61,0,1
38129,-100,4,2,1,61,0,1
38287,-100,4,1,2,61,0,1
38445,-100,4,1,1,61,0,1
42708,-100,4,1,2,41,0,1
43419,-100,4,1,1,40,0,0
45945,-100,4,1,1,50,0,0
50287,-100,4,2,1,50,0,0
50445,-100,4,1,1,50,0,0
50919,-100,4,2,1,50,0,0
51077,-100,4,1,1,50,0,0
65445,-100,4,1,2,50,0,0
65682,-100,4,1,1,50,0,0
69866,-100,4,2,1,50,0,0
70024,-100,4,1,1,50,0,0
70498,-100,4,2,1,50,0,0
70656,-100,4,1,1,50,0,0
72393,-100,4,2,1,50,0,0
72550,-100,4,1,1,50,0,0
73024,-100,4,2,1,50,0,0
73182,-100,4,1,1,50,0,0
76261,-100,4,1,1,61,0,1
78708,-100,4,2,1,61,0,1
78866,-100,4,1,1,61,0,1
79340,-100,4,2,1,61,0,1
79498,-100,4,1,1,61,0,1
83129,-100,4,2,1,61,0,1
83287,-100,4,1,1,61,0,1
85656,-100,4,1,2,41,0,1
86366,-100,4,1,1,40,0,0
97735,-100,4,2,1,50,0,0
120708,-100,4,1,1,50,0,0
124814,-100,4,2,1,50,0,0
124972,-100,4,1,1,50,0,0
126708,-100,4,2,1,50,0,0
126866,-100,4,1,1,50,0,0
127340,-100,4,2,1,50,0,0
127498,-100,4,1,1,50,0,0
141866,-100,4,2,1,50,0,0
142024,-100,4,1,1,50,0,0
142498,-100,4,2,1,50,0,0
142656,-100,4,1,1,50,0,0
143208,-100,4,1,1,60,0,1
145182,-100,4,2,1,60,0,1
145340,-100,4,1,1,60,0,1
147708,-100,4,2,1,60,0,1
147866,-100,4,1,1,60,0,1
155840,-100,4,1,1,50,0,0
163972,-100,4,2,1,50,0,0
164129,-100,4,1,1,50,0,0
164603,-100,4,2,1,50,0,0
164761,-100,4,1,1,50,0,0
172340,-100,4,2,1,50,0,0
172498,-100,4,1,1,50,0,0
174077,-100,4,2,1,50,0,0
174235,-100,4,1,1,50,0,0
174708,-100,4,2,1,50,0,0
174866,-100,4,1,1,50,0,0

[Colours]
Combo1 : 255,128,0
Combo2 : 40,205,31
Combo3 : 45,88,228

[HitObjects]
192,176,472,2,0,B|112:176,2,80,4|8|0
240,240,1419,1,8
240,240,1735,2,0,B|416:240,2,160,0|0|2
200,312,3313,1,8
200,312,3629,2,0,B|239:234|200:144,1,160,2|0
120,168,4577,1,8
120,168,4893,2,0,B|296:168,1,160,2|0
280,88,5840,6,0,B|360:88,2,80,8|0|8
304,168,6787,1,0
304,168,6945,1,2
304,168,7103,2,0,B|232:168|240:224|152:224,2,160,8|8|8
296,248,8682,1,0
296,248,8998,2,0,B|472:248,2,160,8|8|10
280,168,10577,6,0,B|192:176|104:168,2,160,4|0|0
312,96,12156,1,8
312,96,12314,2,0,B|372:79|442:100,1,120,2|8
408,168,13103,6,0,B|392:208|408:256,1,80,0|8
480,208,13735,1,0
480,208,14050,2,0,B|280:208,1,200,8|2
192,128,15314,5,2
192,128,15629,2,0,B|168:173|195:212,1,80,0|8
264,192,16261,2,0,B|283:237|261:278,1,80,0|8
192,232,16892,2,0,B|104:232,2,80,0|8|0
240,168,17840,1,8
240,168,18156,2,0,B|408:168,2,160,0|0|2
216,136,19577,2,0,B|160:136,2,40,2|2|2
408,200,20682,6,0,B|416:120|416:120|400:32,2,160,4|0|2
328,184,22261,1,8
328,184,22577,2,0,B|304:144|256:128,1,80
240,208,23208,2,0,B|72:208,2,160,0|0|2
210,282,24787,5,8
210,282,25103,2,0,B|380:283,2,160,0|4|0
219,202,26682,2,0,B|52:201,2,160,8|8|8
299,202,28261,1,0
379,202,28577,5,8
379,202,28892,2,0,B|468:202,2,80,0|8|0
364,123,29840,2,0,B|322:120|288:91,1,80,8|0
222,135,30471,2,0,B|218:178|163:195,1,80,8|4
140,117,31103,5,8
140,117,31419,2,0,B|50:117,2,80,0|8|2
132,197,32366,1,8
132,197,32524,1,2
132,197,32682,2,0,B|213:197|199:246|282:245,2,160
145,275,34261,1,8
145,275,34577,2,0,B|93:272,3,40,2|2|2|2
305,276,35840,6,0,B|310:231|310:231|291:187,1,80,4|8
226,238,36471,2,0,B|225:196|191:160,1,80,0|8
130,212,37103,2,0,B|115:168|58:154,1,80,0|8
54,236,37735,1,0
54,236,37892,2,0,B|54:370,1,120,2|8
127,322,38682,6,0,B|143:281|178:262,1,80,8|2
206,337,39314,1,8
206,337,39629,2,0,B|377:337,2,160
218,257,41208,1,8
218,257,41524,2,0,B|145:252|151:206|54:204,2,160,0|0|8
256,192,43419,12,4,45629
253,189,45945,6,0,B|267:271|267:271|250:355,2,160
172,189,47524,1,8
172,189,47840,2,0,B|86:189,2,80,0|8|0
237,143,48787,1,8
249,222,49103,2,0,B|249:302,2,80,0|8|0
315,177,50050,2,0,B|368:136|416:216|481:158,2,160,0|0|8
259,234,51629,6,0,B|277:281|257:326,1,80,0|8
190,275,52261,2,0,B|365:276,2,160,0|0|4
210,197,53840,1,8
210,197,54156,2,0,B|133:195|148:150|58:152,2,160,0|0|2
210,116,55735,5,8
210,116,56050,2,0,B|303:116,1,80,2|8
263,191,56682,2,0,B|424:192,2,160,0|0|0
302,260,58261,5,8
302,260,58577,2,0,B|353:234|353:148|293:123,1,160
223,143,59524,1,8
223,143,59840,2,0,B|179:144,3,40,2|2|2|2
350,253,61103,6,0,B|390:224|395:175,1,80,2|8
309,190,61735,2,0,B|336:149|318:98,1,80,0|8
249,140,62366,2,0,B|159:140,1,80,2|8
94,169,62998,2,0,B|72:212|99:259,1,80,0|8
167,217,63629,2,0,B|182:259|160:307,1,80,2|8
236,259,64261,2,0,B|67:259,2,160,0|2|8
259,100,66156,6,0,B|202:100|202:100|161:118|161:118|90:118,2,160,4|2|4
233,175,67735,1,8
233,175,68050,2,0,B|403:175,2,160,2|2|2
196,246,69629,2,0,B|139:246|139:246|96:224|96:224|29:225,2,160,8|8|8
258,196,71208,1,4
258,196,71524,2,0,B|311:196,2,40,8|2|0
214,128,72156,6,0,B|46:128,2,160,8|8|8
287,160,73735,2,0,B|287:203|288:251,1,80,2|10
363,235,74366,1,2
325,305,74682,1,8
245,307,74998,1,2
208,236,75314,6,0,B|35:236,2,160,2|2|2
188,158,76892,2,0,B|277:158,2,80,2|8|4
226,88,77840,1,8
145,90,78156,1,0
185,159,78472,6,0,B|176:217|176:217|198:258|198:258|199:316,2,160,8|8|8
259,186,80050,1,2
259,186,80208,2,0,B|305:186,2,40,2|2|2
92,75,81314,6,0,B|130:55|130:55|169:48,1,80,2|8
160,128,81945,2,0,B|203:113|241:117,1,80,0|8
216,194,82577,2,0,B|348:194,2,120,2|2|8
239,270,83840,2,0,B|196:270|169:308,1,80,0|8
90,300,84471,2,0,B|90:129,2,160,0|2|8
256,192,86366,12,4,87629
232,136,97735,6,0,B|104:136,2,120,4|2|8
201,209,98998,1,0
201,209,99156,1,2
201,209,99314,2,0,B|293:210,2,80,8|0|8
120,209,100261,6,0,B|54:195|-8:210,2,120,4|2|8
120,209,101524,1,2
156,280,101840,1,8
231,254,102156,1,2
200,179,102471,1,8
200,179,102787,6,0,B|200:139|200:139|218:109|218:109|218:60,2,120,4|2|8
279,182,104050,1,0
280,262,104366,1,8
353,229,104682,2,0,B|347:147|356:70,2,160,2|4|2
272,210,106261,1,8
272,210,106577,6,0,B|242:177|242:177|206:164,1,80,0|8
195,243,107208,2,0,B|160:220|113:212,1,80,0|8
121,293,107840,2,0,B|-1:293,2,120,4|2|8
195,323,109103,1,0
195,323,109261,1,2
253,267,109577,5,0
253,267,109735,2,0,B|341:287|422:269,2,160,2|4|2
249,346,111314,1,8
249,346,111472,2,0,B|262:269|262:269|247:177,2,160,2|2|0
249,346,112892,1,4
181,303,113208,5,2
181,303,113366,1,0
181,303,113524,2,0,B|15:305,2,160,2|8|2
240,249,115103,1,8
268,323,115419,2,0,B|353:322,2,80,4|8|2
293,247,116366,5,8
293,247,116682,2,0,B|236:247,2,40,0|2|8
346,187,117314,2,0,B|386:187,2,40,0|2|8
289,129,117945,2,0,B|242:129,2,40,0|2|8
348,75,118577,2,0,B|398:76,2,40,0|2|8
256,192,119208,12,4,120471
256,192,120787,5,8
256,192,121103,2,0,B|88:192,2,160,0|4|0
206,128,122682,1,8
206,128,122998,2,0,B|252:140|253:244|199:261,1,160,2|0
284,264,123945,1,8
284,264,124261,2,0,B|111:265,2,160,2|2|2
244,193,125840,5,8
324,195,126156,1,0
285,124,126471,2,0,B|351:125|351:125|383:107|383:107|449:108,2,160,8|8|8
298,45,128050,2,0,B|139:45,1,160,2|0
95,112,128998,1,0
175,112,129314,2,0,B|175:164,3,40
357,193,130577,6,0,B|390:124|390:124|442:60,2,160,4|2|4
277,202,132156,2,0,B|277:288,2,80,8|2|0
201,227,133103,2,0,B|177:309|177:309|112:371,2,160,2|4|2
253,166,134682,5,8
253,166,134998,1,0
253,166,135314,1,8
253,166,135629,2,0,B|336:168|323:119|404:121,2,160,4|0|0
267,87,137208,1,2
267,87,137524,2,0,B|176:87,1,80,0|2
188,167,138156,6,0,B|233:175|233:175|269:198,1,80,4|2
202,246,138787,2,0,B|243:275|240:319,1,80,0|2
159,316,139419,6,0,B|-3:318,2,160,4|2|2
215,258,140998,1,2
295,258,141313,1,2
258,186,141629,2,0,B|422:186,2,160,2|2|2
277,108,143208,6,0,B|193:106|211:165|114:165,2,160,4|2|2
343,62,144787,1,8
343,62,144945,2,0,B|367:126|341:188,1,120,2|8
425,194,145735,2,0,B|393:276|430:354,2,160,4|2|2
344,195,147313,1,8
344,195,147471,2,0,B|310:248|310:248|253:273,1,120,2|0
246,191,148261,6,0,B|207:218|157:217,1,80,0|8
176,136,148892,2,0,B|89:137,2,80,0|8|0
166,56,149840,1,8
166,56,149998,2,0,B|253:56,1,80,0|2
280,171,150787,6,0,B|324:137|324:137|375:138|375:138|431:111,2,160,2|0|4
261,206,152208,1,2
229,233,152366,2,0,B|229:314,2,80,8|0|8
150,215,153313,1,0
150,215,153471,2,0,B|150:123,1,80,2|0
265,103,154261,1,2
326,154,154577,1,0
326,154,154735,2,0,B|326:247,1,80,2|0
392,278,155366,1,0
392,278,155524,1,2
256,192,155840,12,4,157103
185,130,158050,5,2
185,130,158366,2,0,B|145:120|145:120|101:127,2,80,0|2|0
148,201,159313,1,2
148,201,159629,2,0,B|189:213|189:213|226:198,2,80,0|2|0
185,129,160577,5,2
185,129,160892,2,0,B|185:302,2,160,0|4|2
259,157,162471,1,8
259,157,162787,2,0,B|259:71,2,80,0|8|2
339,152,163735,6,0,B|425:149|412:206|490:203,2,160,8|8|8
353,230,165313,1,2
353,230,165629,2,0,B|353:320,2,80,8|2|8
272,236,166577,2,0,B|252:202|201:184,1,80,0|8
227,109,167208,2,0,B|267:128|304:157,1,80,4|8
302,65,167840,2,0,B|345:94|390:93,1,80,0|8
435,146,168471,6,0,B|435:315,1,160,6|0
360,277,169419,1,8
321,207,169735,1,0
244,224,170050,1,8
232,304,170366,1,0
304,336,170682,1,8
360,280,170998,6,0,B|390:281|390:281|413:269|413:269|450:267,2,80,4|8|0
368,200,171945,1,0
368,200,172103,2,0,B|246:201,1,120,2|0
201,136,172892,2,0,B|155:158|155:254|215:276,1,160,2|4
262,214,173840,2,0,B|318:225|322:326|261:339,2,160,8|8|8
192,253,175419,2,0,B|102:222|62:149,2,160,0|4|4
270,239,176998,5,8
270,239,177156,2,0,B|404:239,1,120,0|0
447,183,177945,1,4
310,116,178577,5,4
251,170,178893,1,8
177,139,179208,1,2
177,139,179524,2,0,B|82:139,2,80,8|2|8
145,212,180471,6,0,B|313:213,2,160,8|8|8
82,261,182050,1,0
82,261,182208,1,2
82,261,182366,2,0,B|99:306|77:352,2,80,0|0|2
162,258,183313,2,0,B|148:221|161:177,1,80,8|4
256,192,183787,12,0,186077
