osu file format v9

[General]
AudioFilename: Girls in Wonderland.mp3
AudioLeadIn: 1500
PreviewTime: 43192
Countdown: 0
SampleSet: Soft
StackLeniency: 0.7
Mode: 0
LetterboxInBreaks: 1

[Editor]
Bookmarks: 10895,43320,76256,108682,153618
DistanceSpacing: 1
BeatDivisor: 4
GridSize: 8

[Metadata]
Title:Girls in Wonderland
Artist:HTT
Creator:wcx19911123
Version:Insane
Source:K-ON!!
Tags:Toyosaki Aki Hikasa Yoko Youko Satou Satomi Kotobuki Minako Taketatsu Ayana Hirasawa Yui Akiyama Mio Tainaka Ritsu Kotobuki Tsumugi Nakano Asuza keion HTT HO-KAGO TEA TIME Afterschool Sumisola

[Difficulty]
HPDrainRate:7
CircleSize:4
OverallDifficulty:7
ApproachRate:8
SliderMultiplier:1.6
SliderTickRate:1

[Events]
//Background and Video events
0,0,"BG.jpg"
//Break Periods
2,68031,75506
2,137278,152868
//Storyboard Layer 0 (Background)
//Storyboard Layer 1 (Fail)
//Storyboard Layer 2 (Pass)
//Storyboard Layer 3 (Foreground)
//Storyboard Sound Samples
Sample,34895,0,"soft-hitclap.wav",65
//Background Colour Transformations
3,100,163,162,255

[TimingPoints]
427,255.31914893617,4,2,2,75,1,0
554,-100,4,2,1,90,0,0
682,-100,4,2,2,75,0,0
809,-100,4,2,1,90,0,0
937,-100,4,2,2,75,0,0
1065,-100,4,2,1,90,0,0
1192,-100,4,2,2,75,0,0
1320,-100,4,2,1,90,0,0
42299,-100,4,2,1,70,0,0
42554,-100,4,2,1,90,0,0
42682,-100,4,2,1,70,0,0
43065,-100,4,2,1,90,0,0
43192,-100,4,2,1,70,0,0
43320,-100,4,2,1,90,0,1
67831,-100,4,2,1,90,0,0
77405,-100,4,2,1,50,0,0
77788,-100,4,2,1,90,0,0
78044,-100,4,2,1,60,0,0
79448,-100,4,2,1,60,0,0
79831,-100,4,2,1,90,0,0
79958,-100,4,2,1,60,0,0
80086,-100,4,2,1,90,0,0
106129,-100,4,2,1,70,0,0
106639,-100,4,2,1,90,0,0
107661,-100,4,2,1,70,0,0
107916,-100,4,2,1,90,0,0
108044,-100,4,2,1,70,0,0
108426,-100,4,2,1,90,0,0
108554,-100,4,2,1,70,0,0
108682,-100,4,2,1,90,0,1
115831,-100,4,2,1,70,0,1
116086,-100,4,2,1,90,0,1
116214,-100,4,2,1,70,0,1
116597,-100,4,2,1,90,0,1
133192,-100,4,2,1,90,0,0
161788,-100,4,2,1,70,0,0
162044,-100,4,2,1,90,0,0
162171,-100,4,2,1,70,0,0
162554,-100,4,2,1,90,0,0
162682,-100,4,2,1,70,0,0
162809,-100,4,2,1,60,0,0
163065,-100,4,2,1,80,0,0
163192,-100,4,2,1,60,0,0
163575,-100,4,2,1,80,0,0
163703,-100,4,2,1,60,0,0
163831,-133.333333333333,4,2,1,90,0,0
169703,-133.333333333333,4,2,1,70,0,0
169958,-133.333333333333,4,2,1,90,0,0
171363,-133.333333333333,4,2,1,60,0,0
171490,-100,4,2,1,90,0,0
172001,-100,4,2,1,90,0,1
195044,-100,4,2,1,70,0,1
195235,-100,4,2,1,90,0,1
195299,-100,4,2,1,70,0,1
195490,-100,4,2,1,90,0,1
196512,-100,4,2,1,90,0,0
205703,-100,4,2,1,70,0,0
206214,-100,4,2,1,50,0,0
206724,-100,4,2,1,30,0,0
207235,-100,4,2,1,10,0,0
207746,-100,4,2,1,5,0,0

[Colours]
Combo1 : 255,9,77
Combo2 : 209,104,255
Combo3 : 40,142,255

[HitObjects]
128,40,427,2,0,B|65:102,1,80,8|8
208,88,682,2,0,B|185:173,1,80,8|8
304,88,937,2,0,B|326:173,1,80,8|8
384,40,1192,2,0,B|446:102,1,80,8|8
496,232,1448,6,0,B|408:232,1,80,0|0
496,312,1703,2,0,B|336:312,1,160
336,232,2086,2,0,B|176:232,1,160
176,312,2469,6,0,B|16:312,1,160,4|8
16,232,2852,2,0,B|104:232,1,80
96,152,3107,2,0,B|16:152,1,80,0|8
176,32,3490,6,0,B|176:120,2,80,0|0|8
256,32,3873,2,0,B|256:192,1,160
336,32,4256,2,0,B|336:120,1,80,8|0
496,152,4512,6,0,B|416:152,2,80,0|0|8
496,232,4895,2,0,B|336:232,1,160
336,312,5278,2,0,B|416:312,1,80,8|0
336,232,5533,6,0,B|336:152,2,80,0|0|8
256,232,5916,2,0,B|256:72,1,160
176,232,6299,2,0,B|176:144,1,80,8|0
176,312,6554,6,0,B|96:312,2,80,4|0|8
256,312,6937,2,0,B|416:312,1,160
496,312,7320,2,0,B|496:232,1,80,8|0
336,232,7575,6,0,B|416:232,2,80,0|0|8
256,232,7958,2,0,B|96:232,1,160
16,232,8341,2,0,B|16:152,1,80,8|0
176,152,8597,6,0,B|96:152,2,80,0|0|8
256,152,8980,2,0,B|416:152,1,160
496,152,9363,2,0,B|496:72,1,80,8|0
336,72,9618,6,0,B|416:72,1,80
176,72,9873,2,0,B|96:72,1,80,8|0
336,152,10129,2,0,B|416:152,1,80,8|8
176,152,10384,2,0,B|96:152,2,80,0|8|12
456,112,10895,6,0,B|456:272,2,160,8|0|8
416,40,11533,1,0
376,112,11661,1,0
336,40,11788,2,0,B|248:40,1,80,0|8
296,112,12044,2,0,B|136:112,1,160
176,40,12427,1,8
96,40,12554,1,0
56,112,12682,6,0,B|56:288,1,160,0|8
96,344,13065,1,0
136,272,13192,2,0,B|136:104,1,160,0|8
216,272,13703,2,0,B|216:104,1,160,0|8
256,40,14086,1,0
296,112,14214,2,0,B|296:272,2,160,0|8|0
376,272,14980,6,0,B|376:112,1,160,8|0
296,112,15363,1,0
336,40,15490,1,8
416,40,15618,1,0
456,112,15746,2,0,B|456:192,2,80,0|0|8
376,112,16129,2,0,B|376:272,1,160
456,272,16512,2,0,B|456:352,1,80,8|0
376,352,16767,6,0,B|208:352,1,160,0|8
376,272,17278,2,0,B|208:272,2,160,0|8|0
376,192,17916,2,0,B|296:192,1,80,0|8
40,352,18299,1,8
112,312,18426,1,8
40,272,18554,1,8
112,232,18682,1,8
40,192,18809,6,0,B|32:104|96:48,1,160,12|8
176,48,19192,1,0
136,120,19320,2,0,B|216:152|296:120,1,160,0|8
256,48,19703,1,0
336,48,19831,2,0,B|376:72|376:120,2,80,0|0|8
456,120,20214,2,0,B|448:208|384:272,1,160
504,232,20597,1,8
464,304,20724,1,0
392,344,20852,6,0,B|232:344,1,160,0|8
392,264,21363,2,0,B|224:264,1,160,0|8
160,304,21746,1,0
88,344,21873,2,0,B|88:184,1,160,0|8
8,344,22384,2,0,B|8:184,2,160,0|8|0
8,104,23150,6,0,B|8:56|48:32,1,80,8|0
88,104,23405,2,0,B|248:104,1,160,0|8
288,32,23788,1,0
288,32,23916,2,0,B|328:64|328:104,2,80,0|0|8
288,176,24299,2,0,B|120:176,1,160
248,248,24682,2,0,B|80:248,1,160,8|0
288,320,25192,5,8
488,248,25448,1,0
288,176,25703,1,8
488,104,25958,1,0
288,32,26214,1,8
288,32,26341,1,0
488,104,26597,1,0
488,104,26724,1,8
288,104,26980,6,0,B|192:104|152:24,1,160,4|8
80,64,27363,1,0
8,104,27490,2,0,B|8:272,1,160,0|8
80,304,27873,2,0,B|80:144,1,160
152,104,28256,2,0,B|152:208|232:248,2,160,8|0|8
288,192,29022,6,0,B|312:232|296:272,2,80,0|0|8
232,320,29533,1,0
304,352,29661,1,0
368,304,29788,1,8
432,352,29916,2,0,B|472:272|432:192,1,160
368,152,30299,2,0,B|368:56|464:40,2,160,8|0|8
48,48,31065,6,0,B|208:48,1,160,4|8
280,88,31448,1,0
208,128,31575,2,0,B|32:128,1,160,0|8
48,208,31958,2,0,B|48:296|128:336,1,160
160,264,32341,2,0,B|200:192|312:200,2,160,8|0|8
480,344,33107,5,0
408,304,33235,1,0
480,264,33363,2,0,B|480:176|408:128,1,160,8|0
480,88,33746,1,0
408,48,33873,1,8
336,88,34001,2,0,B|176:88,1,160
112,40,34384,2,0,B|96:120|0:144,1,160,8|0
0,64,34767,2,0,B|88:88|112:168,1,160
40,208,35150,6,0,B|32:304|96:352,2,160,4|8|0
112,168,35788,1,0
184,128,35916,1,8
256,88,36044,2,0,B|416:88,1,160
464,24,36426,2,0,B|504:56|496:96,1,80,8|0
456,160,36682,2,0,B|296:160,1,160,0|8
112,344,37192,6,0,B|32:344,2,80,0|0|8
272,344,37703,1,0
192,344,37831,1,0
152,272,37958,1,8
232,272,38086,2,0,B|320:272|368:192,1,160
296,160,38469,2,0,B|320:120|368:120,1,80,8|0
432,160,38724,2,0,B|504:216|496:320,1,160,0|8
480,32,39235,5,4
256,32,39490,1,8
32,32,39746,1,0
32,192,40001,1,8
32,192,40129,2,0,B|200:192,1,160
232,264,40512,1,8
152,264,40639,1,0
112,336,40767,2,0,B|272:336,1,160,0|8
456,336,41278,1,8
456,336,41405,1,8
56,48,42044,5,8
56,48,42171,1,8
56,208,42299,2,0,B|56:128,1,80,8|8
128,248,42554,2,0,B|128:168,1,80,8|8
56,288,42809,2,0,B|80:328|128:328,1,80,8|8
192,296,43065,2,0,B|208:256|264:256,1,80,8|8
256,336,43320,6,0,B|424:336,1,160,4|8
256,256,43831,2,0,B|424:256,1,160,0|8
488,216,44214,1,0
416,176,44341,2,0,B|256:176,1,160,0|8
416,96,44852,2,0,B|248:96,1,160,0|8
216,24,45235,1,0
176,96,45363,6,0,B|80:120|8:56,1,160,0|8
88,24,45746,2,0,B|112:104|64:176,1,160
24,248,46129,1,8
64,320,46256,1,0
104,248,46384,2,0,B|192:272|232:336,1,160,0|8
272,264,46767,1,0
312,336,46895,2,0,B|472:336,1,160,0|8
472,32,47405,6,0,B|472:192,1,160,4|8
392,32,47916,2,0,B|392:192,1,160,0|8
352,264,48299,1,0
312,192,48426,2,0,B|312:32,1,160,0|8
232,192,48937,2,0,B|232:32,1,160,0|8
152,192,49448,6,0,B|152:96|96:48,1,160,0|8
16,72,49831,1,0
64,136,49958,2,0,B|96:224|48:296,1,160,0|8
280,344,50469,2,0,B|200:344,1,80
320,272,50724,2,0,B|240:272,1,80,8|0
360,344,50980,2,0,B|400:320|400:272,1,80
400,200,51235,1,8
96,32,51490,6,0,B|256:32,1,160,4|8
96,112,52001,2,0,B|256:112,1,160,0|8
328,152,52384,1,0
256,192,52512,2,0,B|96:192,1,160,0|8
256,272,53022,2,0,B|96:272,1,160,0|8
24,312,53405,1,0
96,352,53533,6,0,B|256:352,1,160,0|8
336,352,53916,2,0,B|432:352|480:296,1,160
480,216,54299,2,0,B|431:159|335:159,1,160,8|0
272,304,54809,2,0,B|296:264|344:272,1,80,8|0
416,264,55065,2,0,B|384:208|408:152|464:136,1,160,0|8
80,152,55575,6,0,B|128:80|216:80,1,160,4|8
80,232,56086,2,0,B|128:304|216:304,1,160,0|8
256,232,56469,1,0
296,303,56597,2,0,B|384:304|432:232,1,160,0|8
296,80,57107,2,0,B|384:80|432:152,1,160,0|8
256,144,57618,5,0
104,192,57873,1,8
104,192,58001,1,0
408,192,58256,1,0
408,192,58384,1,8
256,232,58639,1,0
256,144,58895,1,8
256,312,59150,1,0
256,64,59405,1,8
184,104,59533,1,8
256,144,59661,6,0,B|336:128|384:56,1,160,4|8
464,72,60044,2,0,B|480:192|464:312,1,240,0|8
256,240,60682,2,0,B|176:256|128:328,1,160,0|8
48,312,61065,2,0,B|32:192|48:72,1,240,0|8
336,120,61703,6,0,B|256:96|176:120,1,160,0|8
136,192,62086,2,0,B|376:192,1,240,0|8
176,264,62724,2,0,B|256:288|336:264,1,160,0|8
256,40,63490,1,8
112,112,63746,6,0,B|128:192|112:272,1,160,4|8
24,72,64129,2,0,B|64:192|24:312,1,240,0|8
400,112,64767,2,0,B|384:192|400:272,1,160,0|8
488,72,65150,2,0,B|448:192|488:312,1,240,0|8
176,344,65788,5,0
336,344,66044,1,8
256,344,66171,1,0
256,40,66554,1,0
296,112,66682,1,0
216,112,66809,1,8
376,288,67192,1,8
136,288,67575,1,8
256,184,67831,1,4
48,88,76256,6,0,B|104:32|200:32,2,160
120,128,76895,1,0
48,168,77022,1,0
120,208,77150,2,0,B|120:288|48:344,1,160,0|8
47,344,77469,1,8
47,344,77533,1,8
152,344,77661,1,8
192,272,77788,2,0,B|192:224|232:200,1,80
272,272,78044,6,0,B|432:272,1,160,4|4
272,352,78554,2,0,B|432:352,1,160,4|4
272,192,79065,2,0,B|432:192,1,160,4|4
504,152,79448,1,8
488,136,79512,1,8
472,120,79575,2,0,B|312:120,1,160,8|0
272,48,79958,1,8
232,120,80086,6,0,B|144:120|80:72,1,160,0|8
152,32,80469,2,0,B|176:112|128:184,1,160
56,152,80852,1,8
32,312,81107,2,0,B|32:272|72:240,2,80,0|0|8
112,312,81490,2,0,B|176:352|272:352,1,160
304,280,81873,1,8
344,352,82001,1,0
384,280,82129,6,0,B|384:120,1,160,0|8
424,352,82639,2,0,B|464:336|464:280,2,80,0|0|8
464,208,83150,1,0
464,128,83278,1,0
424,56,83405,1,8
344,56,83533,2,0,B|184:56,1,160
104,56,83916,2,0,B|16:64|8:168,1,160,8|4
256,352,84427,5,8
96,352,84682,1,0
136,280,84809,1,0
176,352,84937,1,8
216,280,85065,1,0
216,280,85192,2,0,B|216:232|176:208,2,80,0|0|8
136,280,85575,2,0,B|48:272|40:168,1,160
40,96,85958,1,8
40,96,86086,1,0
40,96,86214,6,0,B|208:96,1,160,0|8
176,176,86597,1,0
176,176,86724,2,0,B|264:176|320:240,1,160,0|8
472,352,87235,2,0,B|472:192,1,160,0|8
432,120,87618,1,0
392,192,87746,2,0,B|392:352,2,160,0|8|0
256,32,88512,5,8
256,112,88639,1,0
256,192,88767,2,0,B|256:352,1,160,0|8
184,312,89150,1,0
112,352,89278,1,0
40,312,89405,1,0
112,272,89533,1,8
184,232,89661,2,0,B|184:72,1,160
112,192,90044,1,8
112,192,90171,1,0
112,192,90299,6,0,B|112:32,1,160,0|8
40,232,90809,2,0,B|40:72,2,160,0|8|0
184,72,91575,1,8
184,72,91703,1,0
256,216,91958,1,0
256,216,92086,1,8
320,72,92341,6,0,B|392:40|476:40,1,160,4|8
512,112,92724,1,0
476,184,92852,2,0,B|392:184|320:152,1,160,0|8
476,264,93235,2,0,B|316:264,1,160
316,344,93618,2,0,B|476:344,2,160,8|0|8
32,344,94384,5,0
112,344,94512,1,0
192,344,94639,2,0,B|192:296|144:272,1,80,8|0
72,272,94895,2,0,B|96:176|200:208,1,160,0|8
248,144,95278,2,0,B|168:104|80:136,1,160
32,184,95661,1,8
16,104,95788,1,0
80,56,95916,2,0,B|160:32|256:64,1,160,0|8
480,32,96427,6,0,B|480:192,1,160,4|8
408,72,96809,1,0
408,72,96937,2,0,B|408:232,1,160,0|8
480,272,97320,2,0,B|408:336|336:272,1,160
264,232,97703,1,8
336,192,97831,1,0
264,152,97958,2,0,B|264:64|344:24,1,160,0|8
192,192,98469,5,0
144,128,98597,1,0
72,152,98724,1,8
72,232,98852,1,0
144,256,98980,2,0,B|208:312|296:312,1,160,0|8
264,232,99363,2,0,B|224:312|136:344,1,160
336,256,99746,2,0,B|352:208|304:160,2,80,8|0|0
368,328,100129,2,0,B|408:312|416:264,1,80,0|8
480,32,100512,6,0,B|320:32,1,160,4|8
440,104,100895,1,0
440,104,101022,2,0,B|280:104,1,160,0|8
240,32,101405,2,0,B|176:104|240:176,1,160
320,176,101788,1,8
400,176,101916,1,0
440,248,102044,2,0,B|280:248,1,160,0|8
32,352,102554,6,0,B|80:352|104:312,1,80
168,360,102809,2,0,B|192:312|160:264,1,80,8|0
104,240,103065,2,0,B|128:192|192:208,1,80
32,272,103320,1,8
32,272,103448,2,0,B|8:192|104:136,1,160
176,128,103831,1,8
128,64,103958,1,0
208,48,104086,2,0,B|288:112|232:192,1,160,0|8
480,32,104597,6,0,B|392:40|336:104,1,160,4|8
408,144,104980,1,0
480,104,105107,2,0,B|496:144|480:184,1,80
416,224,105363,1,8
488,264,105490,2,0,B|416:336|344:264,1,160
336,192,105873,1,8
272,240,106001,1,0
208,288,106129,2,0,B|128:344,1,80,8|8
136,248,106384,2,0,B|48:280,1,80,8|8
80,192,106639,6,0,B|0:192,1,80,8|8
432,192,107405,2,0,B|512:192,1,80,8|8
472,120,107661,1,8
392,120,107788,1,8
352,192,107916,2,0,B|272:192,1,80,8|8
312,264,108171,2,0,B|224:264,1,80,8|8
272,336,108427,2,0,B|192:336,1,80,8|8
112,336,108682,6,0,B|24:320|16:216,1,160,4|8
88,184,109065,1,0
16,144,109192,2,0,B|24:48|104:24,1,160,0|8
144,96,109575,1,0
184,24,109703,2,0,B|344:24,1,160,0|8
424,24,110086,1,0
224,96,110341,5,0
304,96,110469,2,0,B|464:96,2,160,8|0|8
264,168,111107,2,0,B|304:240|408:248,1,160
368,168,111490,2,0,B|296:216|288:312,2,160,8|0|8
448,184,112129,1,0
480,256,112256,2,0,B|440:336|336:352,1,160,0|8
32,352,112767,6,0,B|192:352,1,160,4|8
264,312,113150,1,0
192,272,113278,2,0,B|32:272,1,160,0|8
32,192,113661,2,0,B|192:192,1,160
192,112,114044,2,0,B|32:112,2,160,8|0|8
32,32,114809,6,0,B|192:32,1,160,0|8
264,72,115192,1,0
336,32,115320,2,0,B|424:32|488:96,1,160,0|8
336,192,115831,2,0,B|336:112,1,80,8|8
408,232,116086,2,0,B|408:152,1,80,8|8
336,272,116341,2,0,B|360:312|400:312,1,80,8|8
264,232,116597,2,0,B|248:280|272:312,1,80,8|0
208,360,116852,6,0,B|168:304|184:224,1,120,4|0
184,208,117107,2,0,B|96:208|48:288,2,160,8|0|8
144,136,117746,2,0,B|56:136|8:64,1,160
88,40,118129,2,0,B|80:120|16:200,2,160,8|0|8
168,56,118767,1,0
224,112,118895,6,0,B|312:104|360:32,1,160,0|8
408,96,119278,1,0
480,56,119405,2,0,B|480:224,1,160,0|8
320,176,119916,2,0,B|352:256|448:288,1,160,0|8
480,216,120299,1,0
408,176,120427,2,0,B|352:240|344:328,1,160,0|8
272,264,120809,1,0
272,344,120937,6,0,B|112:344,1,160,4|8
40,304,121320,1,0
112,264,121448,2,0,B|272:264,1,160,0|8
272,184,121831,2,0,B|112:184,1,160
40,144,122214,1,8
272,104,122469,2,0,B|112:104,2,160,0|8|0
416,24,123235,5,8
416,24,123363,1,0
488,168,123618,1,0
488,168,123746,1,8
352,80,124001,2,0,B|352:240,1,160,0|8
432,224,124384,1,0
408,304,124512,2,0,B|448:320|488:288,1,80
328,320,124767,2,0,B|280:312|272:248,1,80,8|0
256,192,125022,6,0,B|176:200|128:288,1,160,4|8
96,352,125405,2,0,B|8:272|8:120,1,240,0|8
256,192,126044,2,0,B|336:184|384:96,1,160,0|8
416,32,126427,2,0,B|504:112|504:264,1,240,0|8
200,56,127065,6,0,B|256:160|312:56,1,160,0|8
356,120,127448,2,0,B|304:200|208:200|156:120,1,240,0|8
256,288,128086,1,0
256,288,128852,5,0
256,288,129107,2,0,B|256:128,1,160,4|8
176,128,129490,2,0,B|192:24|320:24|336:128,1,240,0|8
152,208,130129,2,0,B|120:280|40:328,1,160,0|8
45,324,130512,1,0
256,336,130767,1,0
256,336,130895,1,8
360,208,131150,2,0,B|392:280|472:328,1,160,0|8
467,324,131533,1,0
184,48,131916,5,0
256,24,132044,1,0
328,48,132171,1,8
136,192,132554,1,8
376,192,132937,1,8
256,296,133192,1,4
256,192,133256,12,8,136256
256,112,153618,5,0
256,112,153746,1,0
256,112,153873,1,8
256,112,154001,2,0,B|328:80|416:104,1,160,0|0
408,184,154384,1,8
480,152,154512,1,0
335,169,154639,2,0,B|320:232|384:280|440:256,2,160,0|8|0
176,208,155405,1,8
32,32,155661,5,0
96,72,155788,1,0
32,112,155916,1,8
104,152,156044,2,0,B|160:144|200:80|160:24,1,160
256,72,156427,1,8
232,152,156554,1,0
176,208,156682,2,0,B|88:264|24:184,2,160,0|8|0
256,352,157448,1,8
416,336,157703,5,4
485,297,157831,1,0
344,288,157958,1,8
344,288,158086,2,0,B|496:200,1,160
408,160,158469,1,8
477,121,158597,1,0
344,200,158724,2,0,B|192:288,2,160,0|8|0
256,72,159490,1,8
32,224,159746,5,0
72,152,159873,1,0
152,152,160001,1,8
112,224,160129,2,0,B|104:312|32:360,1,160
192,224,160512,1,8
232,152,160639,1,0
176,304,160767,2,0,B|272:304|288:192,2,160,0|8|0
328,352,161533,1,8
472,280,161788,6,0,B|472:192,1,80,8|8
472,120,162044,2,0,B|472:32,1,80,8|8
400,80,162299,2,0,B|400:160,1,80,8|8
400,240,162554,2,0,B|400:320,1,80,8|8
328,280,162809,5,8
328,240,162937,1,8
328,200,163065,1,8
328,160,163192,1,8
256,120,163320,1,8
256,160,163448,1,8
256,200,163575,1,8
256,240,163703,1,8
256,280,163831,6,0,B|216:328|144:336,1,119.999996423721,4|0
8,256,164341,2,0,B|88:288|184:248,1,179.999994635582,8|0
184,176,164852,2,0,B|184:104,2,59.9999982118607
16,184,165363,1,8
32,112,165490,1,0
80,56,165618,2,0,B|112:40|144:32,1,59.9999982118607
208,24,165873,6,0,B|304:16|392:48,1,179.999994635582
368,120,166384,2,0,B|440:128|464:56,1,119.999996423721,8|0
280,104,166895,2,0,B|288:208|352:264,1,179.999994635582
416,224,167405,2,0,B|448:288|384:336,1,119.999996423721,8|0
248,320,167916,6,0,B|288:280|352:264,1,119.999996423721,4|0
208,256,168427,2,0,B|160:288|176:344|176:344|144:312|80:328,1,179.999994635582,8|0
40,368,168937,2,0,B|0:296|72:248,1,119.999996423721
64,112,169448,1,8
184,32,169703,1,8
328,56,169958,5,8
392,264,170341,1,8
184,328,170724,1,8
120,120,171107,1,8
256,192,171363,1,8
256,192,171427,1,8
256,192,171490,2,0,B|304:192|320:232,1,80,8|0
256,264,171746,2,0,B|272:304|328:304,1,80,8|8
384,268,172001,6,0,B|440:204|448:116,1,160,4|8
400,56,172384,1,0
368,128,172512,2,0,B|288:120|224:64,1,160,0|8
168,120,172895,1,0
152,40,173022,2,0,B|72:56|24:136,2,160,0|8|0
184,200,173788,1,8
200,280,173916,1,0
256,224,174044,6,0,B|336:240|384:312,1,160,0|8
304,336,174427,2,0,B|312:248|376:176,1,160
424,240,174809,1,8
440,160,174937,1,0
448,80,175065,2,0,B|400:72|368:128,1,80
328,48,175320,2,0,B|296:80|304:128,1,80,8|0
232,48,175575,1,0
224,128,175703,1,0
264,200,175831,1,8
344,200,175958,1,0
184,200,176086,6,0,B|104:200|48:128,1,160,4|8
56,48,176469,1,0
120,96,176597,2,0,B|120:176|64:256,1,160,0|8
16,304,176980,1,0
96,320,177107,2,0,B|176:296|264:328,1,160,0|8
424,192,177618,2,0,B|432:144|480:128,1,80
440,264,177873,2,0,B|488:248|496:200,1,80,8|0
368,240,178129,5,0
304,200,178256,1,0
240,152,178384,2,0,B|176:96|152:16,1,160,8|0
96,72,178767,1,0
136,144,178895,2,0,B|176:80|264:48,1,160,8|0
416,24,179405,1,8
336,32,179533,1,0
200,200,179788,1,0
264,248,179916,2,0,B|336:288|432:304,1,160,8|4
192,280,180427,5,8
128,328,180554,1,0
120,248,180682,2,0,B|40:272|16:360,1,160,0|8
24,216,181065,2,0,B|96:168|112:80,1,160
32,88,181448,1,8
72,16,181575,1,0
152,16,181703,2,0,B|192:40|192:104,1,80
168,160,181958,1,8
248,136,182086,1,0
328,128,182214,6,0,B|408:120|488:144,1,160,0|8
464,64,182597,2,0,B|400:120|368:224,1,160
360,272,182980,1,8
368,352,183107,1,0
304,208,183235,2,0,B|240:136|168:112,1,160,0|8
96,96,183618,1,0
48,160,183746,2,0,B|8:120|24:80,1,80
72,232,184001,2,0,B|120:208|120:168,1,80,8|0
24,296,184256,6,0,B|104:328|168:248,1,160,4|8
192,176,184639,1,0
192,96,184767,2,0,B|200:48|240:32,1,80
272,104,185022,1,8
272,184,185150,2,0,B|376:168|344:56,1,160
416,32,185533,1,8
440,112,185661,1,0
448,192,185788,2,0,B|448:280|408:352,1,160,0|8
360,256,186171,1,0
296,304,186299,6,0,B|224:336|136:336,1,160,0|8
208,248,186682,2,0,B|128:264|40:256,1,160
48,256,187065,1,8
136,72,187320,2,0,B|128:120|80:136,1,80
208,88,187575,2,0,B|216:40|176:8,1,80,8|0
176,160,187831,1,0
256,152,187958,1,0
328,112,188086,1,8
384,56,188214,1,0
408,136,188341,6,0,B|432:224|480:288,1,160,4|8
408,320,188724,2,0,B|328:352|240:352,1,160
176,344,189107,1,8
32,168,189363,2,0,B|48:248|112:312,1,160,0|8
176,344,189746,2,0,B|200:264|264:200,1,160
312,152,190129,1,8
392,152,190256,1,0
232,128,190384,6,0,B|152:120|80:56,1,160,0|8
160,24,190767,2,0,B|176:104|128:192,1,160
96,248,191150,1,8
248,304,191405,2,0,B|328:336|416:336,1,160,0|8
480,328,191788,1,0
280,232,192044,1,0
280,232,192171,2,0,B|320:160|384:112,1,160,8|4
152,40,192682,5,8
152,40,192809,2,0,B|224:88|304:88,1,160
280,8,193192,2,0,B|208:56|184:152,1,160,8|0
40,72,193703,1,8
56,152,193831,2,0,B|80:232|136:296,1,160
192,344,194214,1,8
320,248,194469,6,0,B|376:176|392:96,1,160,0|8
400,24,194852,1,0
328,56,194980,2,0,B|296:80,3,40,8|8|8|8
280,112,195235,2,0,B|264:152,3,40,8|8|8|8
256,192,195490,1,8
456,320,195873,1,8
56,320,196256,1,8
256,64,196512,6,0,B|256:152|192:216,1,160,4|8
144,152,196895,2,0,B|104:192|128:240,1,80
250,268,197150,2,0,B|224:296|176:288,1,80,0|8
328,120,197533,2,0,B|344:72|400:72,2,80,0|0|8
400,152,197916,2,0,B|400:232|464:296,1,160
480,176,198299,2,0,B|488:128|448:80,1,80,8|0
328,200,198554,6,0,B|296:288|216:336,1,160,0|8
160,194,198937,2,0,B|208:184|240:224,1,80
158,345,199192,2,0,B|144:304|176:272,1,80,0|8
56,96,199575,2,0,B|16:72|16:32,2,80,0|0|8
244,64,199958,2,0,B|152:88|96:24,1,160
280,136,200341,2,0,B|328:112|328:56,1,80,8|0
368,184,200597,6,0,B|400:104|488:72,1,160,4|8
296,216,200980,2,0,B|312:264|368:264,1,80
476,166,201235,2,0,B|448:184|432:232,1,80,0|8
224,184,201618,2,0,B|208:232|240:272,2,80,0|0|8
288,320,202001,2,0,B|232:368|168:336|152:272,1,160
164,132,202384,2,0,B|192:96|240:104,1,80,8|0
144,208,202639,6,0,B|88:216|56:280|88:336,1,160,0|8
88,144,203022,2,0,B|40:168|16:216,1,80
116,72,203278,2,0,B|72:64|56:24,1,80,0|8
344,40,203661,2,0,B|360:80|400:96,2,80,0|0|8
472,72,204044,2,0,B|488:136|440:184|376:168,1,160,0|8
364,164,204363,1,8
348,156,204427,1,8
256,72,204682,5,4
256,312,205065,1,4
256,192,205129,12,0,207746
