osu file format v9

[General]
AudioFilename: K-on!!_NO,Thank_you!_Coupling_Song_Girls_in_Wonderland..mp3
AudioLeadIn: 0
PreviewTime: 43945
Countdown: 1
SampleSet: Normal
StackLeniency: 0.7
Mode: 0
LetterboxInBreaks: 1

[Editor]
DistanceSpacing: 0.8
BeatDivisor: 4
GridSize: 8

[Metadata]
Title:Girls in Wonderland
Artist:HTT
Creator:Merci_FA
Version:Easy
Source:K-ON!!
Tags:hikasa yoko frost-b-spec makruk younashi siriru

[Difficulty]
HPDrainRate:2
CircleSize:4
OverallDifficulty:3
ApproachRate:2
SliderMultiplier:1.00000000596046
SliderTickRate:1

[Events]
//Background and Video events
0,0,"0033.jpg"
//Break Periods
//Storyboard Layer 0 (Background)
//Storyboard Layer 1 (Fail)
//Storyboard Layer 2 (Pass)
//Storyboard Layer 3 (Foreground)
//Storyboard Sound Samples
//Background Colour Transformations
3,100,163,162,255

[TimingPoints]
286,510.63829787234,4,1,0,100,1,0

[HitObjects]
136,96,11520,2,0,B|240:96,1,100.000000596046
312,96,12541,2,0,B|424:96,1,100.000000596046
416,176,13562,2,0,B|416:280,1,100.000000596046
336,272,14583,2,0,B|256:272,2,50.0000002980232
296,352,15605,6,0,B|296:248,1,100.000000596046
200,184,16626,2,0,B|320:184,1,100.000000596046
376,96,17647,2,0,B|272:96,1,100.000000596046
176,64,18668,2,2,B|176:120,2,50.0000002980232
176,192,19690,6,0,B|296:192,1,100.000000596046
360,192,20711,2,0,B|360:312,1,100.000000596046
280,288,21732,2,0,B|160:288,1,100.000000596046
160,208,22754,1,0
168,168,23009,1,0
176,128,23264,1,0
288,80,23775,6,0,B|408:80,1,100.000000596046
400,160,24796,2,0,B|400:272,1,100.000000596046
320,256,25817,2,0,B|200:256,1,100.000000596046
176,256,26583,2,2,B|176:184,3,50.0000002980232,2|2|2|4
168,136,27860,5,0
248,136,28371,1,0
328,136,28881,1,0
408,136,29392,1,0
408,216,29903,5,0
328,216,30413,1,0
248,216,30924,1,0
208,216,31179,1,0
168,216,31434,1,0
88,216,31945,6,0,B|88:96,1,100.000000596046
168,104,32966,2,0,B|280:104,1,100.000000596046
352,96,33988,6,2,B|352:208,1,100.000000596046
352,280,35009,2,2,B|288:280,2,50.0000002980232
184,240,36030,5,0
184,200,36285,1,0
184,160,36541,1,0
264,136,37051,1,0
264,176,37307,1,0
264,216,37562,1,0
256,320,38073,5,0
200,256,38583,1,0
256,200,39094,1,0
200,136,39605,1,0
280,120,40115,6,0,B|392:120,1,100.000000596046
464,120,41137,2,0,B|464:224,1,100.000000596046
296,192,42158,5,8
256,192,42413,1,8
216,192,42668,1,8
216,232,42924,2,2,B|336:232,1,100.000000596046,2|4
400,232,44200,5,0
400,112,44711,1,0
280,112,45222,1,0
160,112,45732,1,0
152,232,46243,1,0
272,232,46754,1,0
392,232,47264,1,0
392,168,47520,1,0
392,112,47775,1,4
272,104,48285,5,0
152,104,48796,1,0
152,224,49307,1,0
272,224,49817,1,0
392,224,50328,2,2,B|392:112,3,100.000000596046
272,120,52371,5,0
144,120,52881,1,0
144,240,53392,1,0
264,240,53903,1,0
384,240,54413,1,0
384,120,54924,1,0
264,112,55434,1,0
200,112,55690,1,0
144,112,55945,1,0
136,168,56200,6,0,B|192:168,1,50.0000002980232,0|2
176,224,56711,2,0,B|288:224,1,100.000000596046,8|2
336,224,57477,5,0
392,224,57732,1,0
456,224,57988,1,0
456,168,58243,1,0
336,144,58754,2,2,B|176:144,1,150.00000089407
104,144,60030,5,0
104,224,60541,1,0
184,224,61051,1,0
264,224,61562,1,0
344,224,62073,1,0
424,224,62583,5,0
424,144,63094,1,0
344,144,63605,1,0
264,144,64115,1,0
264,184,64371,6,0,B|320:184,1,50.0000002980232,0|2
312,224,64881,2,0,B|312:280,1,50.0000002980232,0|2
320,312,65392,2,0,B|392:312,1,50.0000002980232,0|2
408,312,65903,2,0,B|408:232,1,50.0000002980232,0|2
408,224,66413,6,0,B|472:224,1,50.0000002980232,0|2
456,184,66924,2,0,B|456:112,1,50.0000002980232,0|2
416,136,67434,6,0,B|256:136,1,150.00000089407,8|4
224,136,68456,5,4
