osu file format v8

[General]
AudioFilename: K-on!!_NO,Thank_you!_Coupling_Song_Girls_in_Wonderland..mp3
AudioLeadIn: 0
PreviewTime: 43945
Countdown: 1
SampleSet: Normal
StackLeniency: 0.7
Mode: 0
LetterboxInBreaks: 1

[Editor]
Bookmarks: 27092,43687,69217,76876,109298,135083,154231,172611
DistanceSpacing: 1.60000002384186
BeatDivisor: 4
GridSize: 8

[Metadata]
Title:Girls in Wonderland
Artist:HTT
Creator:Merci_FA
Version:Collab
Source:K-ON!!
Tags:hikasa yoko frost-b-spec makruk younashi siriru

[Difficulty]
HPDrainRate:7
CircleSize:5
OverallDifficulty:6
ApproachRate:7
SliderMultiplier:2
SliderTickRate:1

[Events]
//Background and Video events
0,0,"0033.jpg"
//Break Periods
2,68656,75981
2,134017,153343
//Storyboard Layer 0 (Background)
//Storyboard Layer 1 (Fail)
//Storyboard Layer 2 (Pass)
//Storyboard Layer 3 (Foreground)
Sprite,Foreground,Centre,"F.png",320,240 F,0,1307,2328,0,1 M,0,1307,42158,510,432,416,432 F,0,2328,40626,1 F,0,40626,42158,1,0
Sprite,Foreground,Centre,"F.png",320,240 S,0,2328,,1.6272 F,0,2328,3349,0,0.2016 M,0,2328,42158,422,415,561,414 F,0,3349,40626,0.2016,0.2272 F,0,40626,42158,0.2272,0
Sprite,Foreground,Centre,"M.png",320,240 F,0,42158,43179,0,1 M,0,42158,69732,538,432,417,430 F,0,43179,68711,1 F,0,68711,69732,1,0
Sprite,Foreground,Centre,"M.png",320,240 S,0,43179,,1.7808 F,0,43179,44456,0,0.2448 M,0,43179,69732,463,405,545,404 F,0,44456,68711,0.2448,0.2864 F,0,68711,69732,0.2864,0
Sprite,Foreground,Centre,"Y.png",320,240 F,0,76881,77903,0,1 M,0,76881,110073,533,439,412,439 F,0,77903,108541,1 F,0,108541,110073,1,0
Sprite,Foreground,Centre,"Y.png",320,240 S,0,77903,,1.704 F,0,77903,78924,0,0.3624597 M,0,77903,110073,449,418,538,418 F,0,78924,108541,0.3624597,0.3056003 F,0,108541,110073,0.3056003,0
Sprite,Foreground,Centre,"MF.png",320,240 F,0,110583,111605,0,1 M,0,110583,134583,511,440,422,440 F,0,111605,132924,1 F,0,132924,133051,1 F,0,133051,134583,1,0
Sprite,Foreground,Centre,"MF.png",320,240 S,0,111605,,1.4672 F,0,111605,112626,0,0.2735999 M,0,111605,134583,432,408,511,408 F,0,112626,133562,0.2735999,0.2608 F,0,133562,134583,0.2608,0
Sprite,Foreground,Centre,"F.png",320,240 F,0,154243,155264,0,1 M,0,154243,171860,507,432,426,432 F,0,155264,170583,1 F,0,170583,171860,1,0
Sprite,Foreground,Centre,"F.png",320,240 S,0,155009,,1.3648 F,0,155009,156030,0,0.1632001 M,0,155009,171860,442,407,492,407 F,0,156030,170583,0.1632001,0.1856 F,0,170583,171860,0.1856,0
Sprite,Foreground,Centre,"Y.png",320,240 F,0,172371,173392,0,1 M,0,172371,207605,524,439,440,440 F,0,173392,206583,1 F,0,206583,207605,1,0
Sprite,Foreground,Centre,"Y.png",320,240 S,0,173392,,1.608 F,0,173392,174413,0,0.2665497 M,0,173392,207605,439,414,510,413 F,0,174413,206583,0.2665497,0.2506717 F,0,206583,207605,0.2506717,0
//Storyboard Sound Samples
//Background Colour Transformations

[TimingPoints]
286,510.63829787234,4,1,0,100,1,0
26839,-200,4,1,0,100,0,0
27860,-100,4,1,0,100,0,0
43945,-100,4,1,0,100,0,1
68711,-100,4,1,0,100,0,0
109307,-100,4,1,0,100,0,1
134073,-100,4,1,0,100,0,0

[HitObjects]
256,64,1051,1,8
232,112,1179,1,0
280,112,1307,1,8
256,152,1434,1,0
256,200,1562,1,8
232,248,1690,1,0
280,248,1817,1,8
256,296,1945,1,0
256,344,2073,1,8
160,320,2328,5,4
352,320,2711,1,4
432,136,3094,5,0
368,56,3349,1,0
328,24,3477,2,0,B|200:40|176:80,1,150,0|8
256,136,4115,1,0
160,168,4371,1,0
120,192,4498,2,0,B|176:280|240:296,1,150,0|8
256,200,5137,1,0
352,200,5392,1,0
400,192,5520,2,0,B|344:104|280:88,1,150,0|8
392,80,6158,1,0
320,208,6541,2,0,B|344:272|400:312,2,100,0|0|8
320,208,7179,5,0
224,192,7434,1,0
224,192,7562,1,8
248,336,7945,1,0
224,336,8073,1,0
248,336,8200,1,8
152,312,8456,1,0
112,280,8583,2,0,B|96:208|24:152,1,150,0|8
104,88,9222,1,0
192,40,9477,1,8
232,64,9605,2,0,B|232:136,5,50,0|8|0|8|0|8
320,64,10498,1,0
424,64,10754,2,0,B|384:64,8,25,8|8|8|8|8|8|8|8|8
248,192,11520,6,0,B|128:192,2,100
272,192,12158,1,0
296,192,12286,1,8
288,96,12541,2,0,B|168:24,2,100,0|0|8
192,136,13307,1,0
96,136,13562,2,0,B|104:56|176:48,2,100
96,160,14200,1,0
96,184,14328,1,8
184,232,14583,1,0
128,320,14839,1,0
224,336,15094,2,0,B|288:336,2,50,0|0|8
168,56,15605,6,0,B|272:56,1,100,0|0
168,56,16115,1,8
264,56,16371,2,0,B|352:56|320:160,1,100
280,120,16754,1,8
232,128,16881,2,0,B|232:184|312:184,1,100
400,192,17392,2,0,B|456:192|472:256,1,100
400,192,17903,2,0,B|344:192|328:256,1,100,0|8
328,304,18286,1,0
320,352,18413,2,0,B|264:352|232:296,1,100,0|8
256,208,18924,1,8
256,104,19179,1,8
256,80,19307,1,0
256,56,19434,1,8
120,328,19690,6,0,B|56:304|80:232|80:240,1,100
168,288,20200,1,8
256,328,20456,1,0
256,304,20583,1,0
256,280,20711,1,0
352,248,20966,1,8
256,216,21222,1,0
256,192,21349,1,0
256,168,21477,1,0
288,136,21732,1,8
360,64,21988,1,0
384,72,22115,1,0
400,96,22243,1,0
464,176,22498,2,0,B|400:152|344:152,1,100,0|8
360,200,22881,1,0
352,248,23009,2,0,B|288:224|232:224,1,100,0|8
80,320,23775,5,0
80,224,24030,2,0,B|32:184,2,50,0|0|8
168,272,24541,1,8
256,320,24796,2,0,B|312:352,2,50,0|0|8
256,296,25179,1,0
256,272,25307,1,8
256,248,25434,1,0
256,224,25562,1,8
256,200,25690,1,0
256,176,25817,1,8
360,176,26073,5,8
160,176,26328,1,0
256,352,26583,1,12
256,200,27094,6,0,B|256:88,1,100,0|8
432,192,28115,1,0
352,320,28371,2,0,B|352:240,1,50
352,248,28626,1,8
352,224,28754,1,0
352,200,28881,1,8
256,224,29137,1,0
216,320,29392,1,8
64,192,29647,6,0,B|64:80,1,100
88,192,30157,2,0,B|88:304,1,100
112,304,30541,1,8
136,296,30668,2,0,B|136:192,1,100
136,168,31051,1,0
136,144,31179,2,0,C|160:136|104:136|160:128,1,100,0|8
304,56,31690,6,0,B|392:48|408:112,1,100,0|8
408,104,32073,1,0
416,128,32200,1,8
416,152,32328,1,0
408,176,32456,1,8
400,200,32583,1,0
384,224,32711,1,8
360,232,32839,1,0
336,232,32966,1,8
256,296,33222,2,0,B|144:296,2,100,0|0|8
152,296,33988,6,0,B|88:296|56:240|56:248,1,100
64,232,34371,1,8
64,208,34498,2,0,B|128:208|168:144,1,100,0|8
168,144,34881,1,0
176,120,35009,1,8
168,96,35137,1,0
176,72,35264,1,8
200,56,35392,1,0
224,48,35520,1,8
256,248,35775,5,8
296,224,35903,1,0
336,192,36030,1,8
256,128,36286,1,0
176,192,36541,1,0
256,312,36796,1,8
336,256,36924,1,0
400,192,37051,1,8
256,64,37307,1,0
112,192,37562,1,0
312,176,37817,6,0,B|328:80|384:64,1,100
384,120,38200,1,8
416,160,38328,2,0,B|400:256|344:272,1,100,0|0
336,280,38711,1,8
288,296,38839,2,0,B|192:280|176:224,1,100
160,224,39222,2,0,B|120:184|128:160|144:160|168:152|168:168|160:176|152:216|128:192|128:192|144:168,1,150,0|8
336,192,39860,5,0
336,96,40115,2,0,B|400:40,2,50,0|0|8
336,192,40626,1,0
336,288,40881,2,0,B|280:344,2,50,0|0|8
256,224,41392,1,0
256,128,41647,1,8
64,192,42158,6,0,B|192:192,2,100,0|0|8
144,256,42924,1,8
168,248,43051,1,0
184,232,43179,1,8
200,208,43307,1,0
216,192,43434,1,8
240,192,43562,1,0
256,208,43689,1,8
304,208,43945,5,4
304,32,44200,1,4
480,208,44456,1,4
304,208,44839,1,4
304,280,45222,5,0
288,296,45349,1,0
304,312,45477,1,4
352,320,45732,6,0,L|400:312|384:272|408:272,1,100
408,192,46243,5,0
384,192,46370,1,0
256,128,46754,1,0
256,240,47009,1,8
128,200,47264,5,0
104,184,47392,1,0
96,160,47520,1,0
96,136,47647,1,0
104,112,47775,1,8
192,56,48030,6,0,L|240:56,1,50
256,56,48285,1,4
208,160,48541,5,0
232,184,48668,1,0
264,192,48796,1,0
296,184,48924,1,0
320,160,49051,1,0
408,64,49307,6,0,L|368:104,1,50
372,99,49562,1,8
408,216,49817,6,0,L|368:256,1,50
372,251,50073,1,8
272,256,50328,5,0
240,256,50456,1,0
208,256,50584,1,8
208,160,51094,6,0,L|208:112,6,50
352,192,52115,5,8
256,280,52371,1,8
160,192,52626,1,8
256,192,53009,5,0
304,192,53392,5,0
256,144,53520,1,0
208,192,53648,1,0
256,336,53903,5,4
256,192,54158,1,0
256,48,54413,1,0
256,48,54541,1,0
344,48,54796,1,0
344,48,54924,1,0
344,144,55179,5,0
344,240,55434,1,0
344,240,55562,1,0
272,312,55817,1,0
272,312,55945,1,0
152,288,56200,6,0,L|200:264,7,50,0|0|0|0|0|0|0|4
296,208,57477,5,8
312,160,57604,1,8
296,112,57732,1,8
208,160,57988,1,0
312,160,58243,1,0
408,160,58498,5,0
408,160,58626,2,0,L|224:160,1,150,0|4
256,192,59137,12,0,60285
256,192,60541,5,8
256,192,60668,2,0,L|104:192,1,150,0|8
200,152,61307,1,4
256,112,61562,1,8
256,112,61690,2,0,L|96:112,1,150,0|8
136,152,62328,5,0
136,176,62456,1,0
136,200,62583,1,0
136,224,62711,2,0,L|128:248|104:256|128:264|152:248|160:232|168:272,1,150
216,264,63349,2,0,L|256:216,2,50
216,264,63732,1,0
216,264,63860,1,8
312,264,64115,5,0
312,264,64371,2,0,C|336:216|296:224|304:184,1,100,0|8
296,168,64754,1,0
160,96,65137,5,0
160,192,65392,2,0,L|240:128,1,100
280,96,65775,1,0
432,96,66158,5,8
432,192,66413,1,8
408,240,66541,1,0
376,280,66668,1,8
336,312,66796,1,0
256,184,67179,1,0
256,32,67434,5,0
32,192,67817,5,0
256,352,68200,5,0
480,192,68456,5,4
80,88,76881,5,8
120,88,77009,1,0
160,88,77137,2,0,B|216:152|248:40|320:112,1,150,4|0
336,112,77647,1,8
360,144,77775,1,0
448,256,78030,6,0,C|344:296,1,100,8|0
312,288,78413,1,0
320,248,78541,2,0,C|384:216,1,50,0|8
296,104,78924,6,0,C|272:64|176:64,1,100,0|8
221,61,79434,2,0,C|166:71|150:146,1,100,8|0
152,144,79817,1,8
152,184,79945,1,8
152,224,80073,2,0,C|224:264,3,50,4|8|12|8
328,296,80711,5,8
288,296,80839,1,0
248,296,80966,2,0,C|328:200,1,100,8|4
408,120,81477,5,0
376,88,81605,1,8
352,120,81732,1,0
328,88,81860,1,8
192,88,82115,6,0,C|160:160,3,50,0|8|8|0
296,192,82754,5,8
312,232,82881,1,8
296,264,83009,1,8
176,200,83264,5,8
152,232,83392,1,8
176,264,83520,1,8
232,136,83775,6,0,C|232:256,1,100,4|8
232,236,84158,2,0,C|256:292|328:308,1,100,8|0
292,302,84541,2,0,C|352:295|398:233,1,100,8|8
392,128,85051,5,8
352,144,85179,1,0
320,120,85307,2,0,C|184:120,1,100,4|8
176,176,85690,2,0,C|280:176,1,100,8|0
440,288,86200,1,8
440,88,86456,5,8
400,88,86583,2,0,C|360:88|384:88|336:88,1,100,0|8
208,88,87094,1,0
208,288,87349,1,0
208,184,87605,1,0
368,184,87860,2,0,C|248:184,2,100
408,184,88498,1,4
408,224,88626,1,4
408,144,88881,6,0,C|408:72,4,50,8|0|8|8|0
280,88,89647,6,0,C|200:160,1,100,8|0
104,248,90158,1,0
136,224,90285,1,8
192,328,90668,6,0,C|248:280,5,50,8|0|0|8|8|0
264,272,91434,1,8
464,280,91690,1,8
464,80,91945,1,0
264,80,92200,1,8
240,112,92328,1,8
152,224,92583,5,8
184,256,92711,1,8
128,200,92966,2,0,C|120:128|192:144,1,150,0|8
216,176,93477,1,0
232,136,93605,1,8
256,168,93732,1,8
296,176,93860,2,0,C|408:104,1,100,4|8
360,192,94243,2,0,C|472:120,1,100,12|0
280,248,94754,6,0,C|328:216,1,50,0|8
384,224,95009,2,0,C|288:296,1,100,8|0
160,280,95520,1,0
168,72,95903,1,4
376,72,96285,1,4
368,272,96541,1,8
328,272,96668,1,8
368,272,96796,1,8
344,136,97051,6,0,B|216:96|312:56|400:248|208:184|208:184,1,200,4|4
64,64,97945,1,8
240,304,98328,1,8
168,184,98583,1,0
312,184,98839,1,12
376,304,99094,1,0
448,184,99349,6,0,C|392:120,1,50,4|8
415,146,99732,2,8,C|335:114,1,50,12|8
232,112,100115,1,0
192,128,100243,1,0
224,152,100371,1,0
192,176,100498,1,0
224,200,100626,2,0,C|136:240,2,50,8|8|12
320,304,101137,6,0,B|400:304|408:224,1,100,4|0
416,224,101520,1,0
424,184,101647,1,8
288,152,101903,2,0,B|224:160|208:224,1,100,8|4
336,136,102413,1,4
352,96,102541,1,0
312,80,102668,1,8
176,112,102924,5,4
168,152,103051,1,8
184,184,103179,2,0,C|224:224|280:184,1,100,8|0
288,176,103562,1,8
328,184,103690,1,8
336,144,103817,1,0
376,152,103945,1,8
376,112,104073,1,8
416,120,104200,1,4
416,224,104456,6,0,C|360:280,6,50,8|0|8|8|8|8|4
392,296,105349,1,0
360,320,105477,1,8
272,208,105732,5,0
288,176,105860,1,8
248,176,105988,1,8
288,128,106243,1,0
248,128,106371,1,8
272,96,106498,1,8
80,56,106754,5,0
160,240,107009,1,8
360,232,107264,1,8
344,32,107520,5,4
312,64,107647,1,0
280,40,107775,1,8
248,72,107903,1,8
240,120,108030,1,0
256,160,108158,1,0
296,176,108285,2,0,B|328:184|360:144,4,50,8|0|8|8|4
376,136,109051,1,4
248,72,109307,6,8,B|224:120,3,50
192,168,109817,1,0
232,184,109945,1,0
200,208,110073,1,8
240,224,110200,1,0
376,80,110583,5,0
328,88,110711,1,0
352,120,110839,1,8
320,136,110966,1,0
344,168,111094,1,0
304,176,111222,1,8
312,216,111349,2,12,B|384:264|472:192,1,150
368,80,112115,5,0
392,120,112243,1,0
352,136,112371,1,8
160,72,112626,5,8
144,272,112881,1,8
328,200,113137,1,8
176,152,113392,5,0
208,176,113520,1,0
176,200,113647,1,8
208,224,113775,1,0
200,264,113903,2,8,B|248:272,3,50
368,120,114541,5,4
328,120,114668,1,4
208,72,114924,1,0
184,104,115051,1,0
184,144,115179,1,8
304,280,115434,5,0
184,280,115690,1,4
352,208,115945,1,0
152,208,116200,1,4
320,144,116456,1,0
184,144,116711,1,4
208,112,116839,5,0
240,136,116966,1,0
264,168,117094,1,0
256,208,117222,1,4
392,88,117477,5,0
400,128,117605,1,0
392,168,117732,1,0
264,280,117988,5,0
264,240,118115,1,0
256,208,118243,1,0
264,168,118371,1,8
104,80,118626,5,0
96,120,118754,1,0
112,256,119009,1,0
232,184,119264,1,0
224,144,119392,1,0
264,128,119520,1,0
384,144,119903,5,0
384,184,120030,1,0
296,288,120285,1,8
152,280,120541,1,8
144,72,120796,1,8
304,168,121051,1,8
152,280,121307,1,8
160,240,121434,5,0
176,200,121562,1,8
208,176,121690,1,8
248,168,121817,1,8
392,80,122073,5,0
416,112,122200,1,0
384,136,122328,1,0
416,160,122456,1,8
256,280,122839,5,8
144,112,123094,1,8
352,112,123349,1,8
360,176,123605,2,2,B|256:176,1,100
256,216,123988,2,2,B|256:328|96:320|96:216|64:104|248:96|240:120,1,350
200,112,125137,5,8
360,112,125392,1,8
368,272,125647,2,4,B|256:272,1,100
144,208,126158,2,4,B|264:208,1,100
368,144,126668,2,4,B|256:144,1,100
264,104,127051,2,8,B|264:48,3,50
152,136,127690,6,4,B|272:136,1,100
368,208,128200,2,4,B|240:208,1,100
152,280,128711,2,4,B|272:280,1,100
288,288,129094,2,8,B|288:344,4,50
320,264,129732,5,8
344,232,129860,1,8
368,200,129988,1,4
368,104,130243,1,8
328,120,130371,1,8
296,144,130498,1,4
224,184,130754,5,8
192,160,130881,1,8
168,128,131009,1,4
104,80,131264,1,8
136,56,131392,1,8
176,48,131520,1,4
352,16,131775,5,0
384,40,131903,1,0
352,72,132030,1,0
384,96,132158,1,0
360,128,132285,1,8
384,160,132413,1,8
352,184,132541,1,8
376,216,132668,1,8
344,240,132796,1,8
160,280,133179,5,8
192,96,133562,5,8
344,240,133817,5,4
112,56,154243,6,0,B|72:112,1,50
64,192,154626,2,0,B|144:288,1,100,0|4
192,192,155137,1,0
240,192,155264,5,8
416,104,155520,1,0
416,304,155775,1,4
352,112,156285,6,0,B|256:112,1,50
256,200,156668,2,0,B|128:200,2,100,0|4|0
304,200,157307,5,8
136,96,157562,1,0
136,296,157817,1,4
256,136,158328,5,0
256,136,158456,1,4
256,240,158711,1,0
232,224,158839,1,8
256,208,158966,1,0
280,224,159094,1,8
304,224,159222,1,0
328,224,159349,1,8
352,224,159477,1,0
376,224,159605,1,8
472,224,159860,1,12
256,336,160371,5,0
256,336,160498,1,4
256,288,160754,1,0
232,272,160881,1,8
256,256,161009,1,0
280,272,161137,1,8
232,272,161264,1,0
208,272,161392,1,8
184,272,161520,1,0
160,272,161647,1,8
256,192,161775,12,4,163945
64,192,164456,5,0
264,192,164711,1,0
464,192,164966,2,0,B|304:192,1,150,0|8
32,96,165732,1,0
136,272,165988,1,0
232,96,166243,1,8
328,272,166498,2,0,B|408:248|464:152,1,150,0|8
144,192,167264,1,8
304,72,167520,1,0
328,272,167775,1,8
328,272,167903,1,0
328,272,168030,1,8
464,192,168541,5,0
264,192,168796,1,0
64,192,169051,1,0
368,192,169434,1,8
72,248,169817,1,0
272,256,170073,1,8
296,240,170200,1,0
312,216,170328,1,8
256,24,170583,5,4
128,176,170839,1,8
152,176,170966,1,0
176,176,171094,1,8
376,144,171349,1,4
176,128,171605,1,8
152,128,171732,1,0
128,128,171860,1,8
104,128,171988,1,0
80,128,172115,2,0,B|80:80,6,25,8|0|8|0|8|0|12
80,168,172626,6,0,C|80:304,1,100,4|0
216,224,173137,1,0
248,200,173264,1,8
280,176,173392,1,12
392,256,173647,1,0
360,280,173775,1,12
328,304,173903,1,8
192,304,174158,1,12
160,288,174286,1,0
136,256,174413,1,8
96,184,174668,6,0,C|88:120,1,50,0|8
128,120,174924,2,0,C|192:88,1,50,8|0
208,112,175179,2,0,C|248:128,4,33.3333333333333,0|0|0|0|0
296,152,175690,5,0
336,216,175945,1,0
256,272,176200,1,0
296,272,176328,1,8
336,272,176456,1,8
328,136,176711,6,0,B|280:64|232:160,1,100,4|0
160,240,177222,1,0
200,240,177349,1,8
176,208,177477,1,8
176,288,177732,6,0,C|176:336,2,50,0|0|8
176,144,178243,2,0,C|232:144,1,50
226,144,178498,1,8
368,120,178754,5,0
384,152,178881,1,0
368,192,179009,1,8
344,224,179137,1,0
304,232,179264,1,8
288,264,179392,2,0,C|272:320,2,50,8|0|0
200,232,179775,6,0,C|96:216,1,100,4|0
112,80,180286,5,0
144,64,180413,1,8
176,88,180541,1,8
264,192,180796,6,0,C|288:240|368:216,1,100,4|0
336,88,181307,2,0,C|392:88|400:160,1,100,4|0
256,112,181817,5,0
288,136,181945,1,8
320,160,182073,1,0
400,176,182328,2,0,C|336:176,2,50,0|8|8
320,184,182839,1,0
320,184,182966,1,0
320,184,183094,1,4
320,144,183222,6,0,C|200:96,1,100,0|8
208,144,183605,1,8
208,144,183732,1,0
192,104,183860,2,0,C|96:152,2,100
192,104,184498,1,8
192,104,184626,1,8
64,256,184881,6,0,B|48:336|154:324,2,100,4|8|4
248,328,185647,1,8
448,312,185903,6,0,C|392:224,1,100,4|8
328,136,186413,1,0
328,136,186541,1,0
328,136,186668,6,8,B|328:80|256:80,1,100,8|4
56,72,187179,1,0
88,96,187307,1,0
48,288,187562,1,0
80,264,187690,1,8
112,240,187817,1,8
120,200,187945,6,0,C|120:80,2,100,8|0|4
304,120,188711,5,0
336,136,188839,1,8
344,176,188966,2,0,B|352:248|280:256,1,100,8|0
256,256,189349,2,0,B|216:184|104:312|256:296|104:240,1,150,8|0
40,160,189988,6,0,C|64:112|32:56,1,100,0|8
80,56,190371,2,0,C|112:128|72:192,1,150,8|0
160,296,191009,5,0
200,288,191137,1,0
224,256,191264,1,8
232,216,191392,2,0,B|248:168|192:112,1,100,8|0
416,128,192030,6,0,C|400:152|432:176|408:240,3,100,4|4|4|4
328,304,193051,5,0
128,304,193307,5,0
128,264,193434,1,0
128,224,193562,2,0,C|128:96,1,100,8|8
312,40,194073,5,0
304,240,194328,1,8
304,280,194456,2,0,B|400:304|432:176,1,150,8|0
232,280,195094,5,0
248,80,195349,1,0
208,96,195477,1,8
184,128,195605,1,8
112,312,195860,5,0
120,112,196115,5,4
408,192,196498,5,4
120,112,196881,5,4
112,312,197137,5,0
312,312,197392,2,0,B|416:328|424:208,1,150,0|8
420,236,197903,1,8
424,40,198158,5,0
224,40,198413,2,0,B|96:40|112:160,1,150,0|8
111,115,198924,1,8
112,312,199179,5,0
112,112,199434,2,0,B|48:192|128:264,1,150,0|8
111,247,199945,1,8
304,312,200200,5,0
304,112,200456,2,0,B|376:160|304:240,1,150,0|8
305,238,200966,1,8
152,104,201222,5,0
352,104,201477,1,0
264,280,201732,1,0
224,264,201860,1,8
200,232,201988,1,8
400,232,202243,6,0,B|408:128|280:120,1,150,4|0
318,125,203009,1,0
120,128,203264,5,0
320,128,203520,1,0
256,320,203775,1,0
296,304,203903,1,8
320,272,204030,1,8
128,208,204286,6,0,B|144:120|248:120,1,150,4|0
448,328,205051,1,0
288,208,205307,5,4
288,208,205690,5,4
256,192,205817,12,0,208115
