osu file format v9

[General]
AudioFilename: Naruto Shippuden Ending 17.mp3
AudioLeadIn: 0
PreviewTime: 58291
Countdown: 0
SampleSet: Normal
StackLeniency: 0.7
Mode: 1
LetterboxInBreaks: 0

[Editor]
Bookmarks: 28853,29045,29430,32892,38853,39622,53468,69238
DistanceSpacing: 0
BeatDivisor: 4
GridSize: 4

[Metadata]
Title:FREEDOM (TV Size)
Artist:HOME MADE Kazoku
Creator:Haneii
Version:Taiko
Source:Naruto Shippuuden
Tags:Ending weezy saten-san

[Difficulty]
HPDrainRate:5
CircleSize:5
OverallDifficulty:5
ApproachRate:5
SliderMultiplier:1.4
SliderTickRate:2

[Events]
//Background and Video events
0,0,"freedomtaiko.jpg"
//Break Periods
//Storyboard Layer 0 (Background)
//Storyboard Layer 1 (Fail)
//Storyboard Layer 2 (Pass)
//Storyboard Layer 3 (Foreground)
//Storyboard Sound Samples
//Background Colour Transformations
3,100,163,162,255

[TimingPoints]
2907,384.615384615385,4,1,0,70,1,0
39830,-100,4,1,0,70,0,1
89060,-100,4,1,0,70,0,0

[Colours]
Combo1 : 0,179,0
Combo2 : 15,135,255
Combo3 : 255,153,51
Combo4 : 250,31,31

[HitObjects]
241,152,2906,1,0
241,152,3291,1,8
241,152,3387,1,8
241,152,3483,1,0
241,152,3868,1,0
241,152,4060,1,0
241,152,4253,5,8
241,152,4349,1,8
241,152,4445,1,0
241,152,4830,1,8
240,152,4926,1,0
241,152,5022,1,0
241,152,5407,1,8
241,152,5503,1,0
241,152,5599,1,8
241,152,5983,5,0
241,152,6368,1,8
240,152,6464,1,8
241,152,6560,1,0
241,152,6945,1,0
241,152,7137,1,0
241,152,7330,5,8
241,152,7426,1,8
241,152,7522,1,0
241,152,7907,1,8
241,152,8003,1,0
241,152,8099,1,8
241,152,8483,1,0
241,152,8580,1,0
241,152,8676,1,8
241,152,9060,5,0
241,152,9445,1,8
241,152,9541,1,8
241,152,9637,1,0
241,152,10022,1,0
241,152,10214,1,0
241,152,10407,5,8
241,152,10503,1,8
241,152,10599,1,0
241,152,10983,1,8
241,152,11080,1,0
241,152,11176,1,0
241,152,11560,1,0
241,152,11657,1,0
241,152,11753,1,8
241,152,12137,5,0
241,152,12522,1,8
240,152,12618,1,8
241,152,12714,1,0
241,152,13099,1,0
241,152,13291,1,0
241,152,13483,5,8
241,152,13580,1,0
241,152,13676,1,0
241,152,14060,1,8
241,152,14156,1,0
241,152,14253,1,0
241,152,14637,1,0
241,152,14733,1,0
241,152,14830,1,8
387,264,15214,5,4
387,264,15599,1,8
387,264,15695,1,0
387,264,15791,1,0
387,264,15983,1,0
387,264,16176,1,0
387,264,16368,1,8
387,264,16464,1,0
387,264,16560,1,0
387,264,16753,5,8
387,264,16849,1,0
387,264,16945,1,0
387,264,17041,1,0
387,264,17137,1,8
387,264,17330,1,0
387,264,17522,1,0
387,264,17714,1,0
387,264,17907,1,8
387,264,18099,1,0
387,264,18291,5,0
387,264,18387,1,0
387,264,18483,1,0
387,264,18676,1,8
387,264,18772,1,0
387,264,18868,1,8
387,264,19060,1,0
387,264,19253,1,0
387,264,19349,1,0
387,264,19445,1,8
387,264,19637,1,0
387,264,19830,5,0
387,264,19926,1,0
387,264,20022,1,0
387,264,20214,1,8
387,264,20310,1,0
387,264,20407,1,0
387,264,20599,1,8
387,264,20695,1,0
387,264,20791,1,8
387,264,20983,1,8
387,264,21080,1,0
387,264,21176,1,8
387,264,21368,5,0
387,264,21464,1,0
387,264,21560,1,0
387,264,21657,1,0
387,264,21753,1,8
387,264,21945,1,0
387,264,22137,5,0
387,264,22233,1,0
387,264,22330,1,8
387,264,22522,1,8
387,264,22618,1,0
387,264,22714,1,0
387,264,22907,5,0
387,264,23003,1,0
387,264,23099,1,0
387,264,23195,1,0
387,264,23291,1,8
387,264,23483,1,0
387,264,23676,1,8
387,264,23772,1,0
387,264,23868,1,8
387,264,23964,1,0
387,264,24060,1,8
387,264,24157,1,0
387,264,24253,1,8
387,264,24445,5,8
387,264,24637,1,0
387,264,24830,1,8
387,264,25022,1,0
387,264,25214,1,0
387,264,25310,1,0
387,264,25407,1,8
387,264,25503,1,0
387,264,25599,1,8
387,264,25695,1,0
387,264,25791,1,0
387,264,25983,5,8
387,264,26176,1,0
387,264,26368,1,8
387,264,26560,1,8
387,264,26753,1,0
387,264,26849,1,0
387,264,26945,1,8
387,264,27041,1,0
387,264,27137,1,8
387,264,27233,1,0
387,264,27330,1,8
104,277,27522,5,8
104,277,27618,1,8
104,277,27714,1,0
104,277,27907,1,8
104,277,28099,1,0
104,277,28483,1,0
104,277,28580,1,0
104,277,28676,1,8
104,277,28868,1,0
104,277,29060,1,0
104,277,29157,1,0
104,277,29253,1,0
104,277,29349,1,0
104,277,29445,1,8
104,277,29637,1,0
104,277,30022,1,12
104,277,30214,1,12
104,277,30599,5,8
104,277,30695,1,0
104,277,30791,1,0
104,277,30887,1,0
104,277,30983,1,8
104,277,31176,1,0
104,277,31368,1,8
104,277,31464,1,0
104,277,31560,1,8
104,277,31657,1,0
104,277,31753,1,8
104,277,31945,1,0
104,277,32137,1,8
104,277,32233,1,0
104,277,32330,1,0
104,277,32426,1,0
104,277,32522,1,8
104,277,32714,1,8
104,277,33099,1,12
104,277,33291,1,12
104,277,33676,5,0
104,277,33772,1,0
104,277,33868,1,0
104,277,33964,1,0
104,277,34060,1,8
104,277,34445,1,0
104,277,34541,1,0
104,277,34637,1,0
104,277,34733,1,0
104,277,34830,1,8
104,277,35214,1,0
104,277,35310,1,0
104,277,35407,1,8
104,277,35503,1,0
104,277,35599,1,0
104,277,35791,1,8
104,277,36176,1,12
104,277,36368,1,12
104,277,36753,5,0
104,277,36849,1,0
104,277,36945,1,0
104,277,37041,1,0
104,277,37137,1,8
104,277,37522,1,0
104,277,37618,1,0
104,277,37714,1,0
104,277,37810,1,0
104,277,37907,1,8
104,277,38099,1,4
104,277,38483,1,4
148,220,38868,2,0,B|216:268|420:284,1,280
256,122,39830,5,0
256,122,40022,1,0
256,122,40118,1,0
256,122,40214,1,8
256,120,40407,1,0
256,122,40599,1,0
256,122,40695,1,0
256,122,40791,1,0
256,122,40983,1,8
256,122,41176,1,0
256,122,41272,1,0
256,122,41368,1,8
256,122,41560,1,0
256,122,41657,1,0
256,122,41753,1,8
256,122,41945,1,0
256,122,42137,1,0
256,122,42330,1,0
256,122,42522,1,8
256,122,42906,5,0
256,122,43003,1,0
256,122,43099,1,8
256,122,43291,1,0
256,122,43387,1,0
256,122,43483,1,8
256,122,43676,1,0
256,122,43772,1,0
256,122,43868,1,8
256,122,44060,1,8
256,122,44253,1,0
256,122,44349,1,0
256,122,44445,1,0
256,122,44541,1,0
256,122,44637,1,8
256,122,44733,1,0
256,122,44830,1,8
256,122,45022,1,0
256,122,45406,1,0
256,122,45503,1,0
256,122,45599,1,8
256,122,45983,5,4
256,122,46368,1,8
257,123,46753,1,0
257,123,46849,1,0
257,123,46945,1,8
257,123,47041,1,0
257,123,47137,1,8
257,123,47330,1,8
257,123,47426,1,0
257,123,47522,1,0
257,123,47618,1,0
257,123,47714,1,8
257,123,48099,1,0
257,123,48291,1,8
257,123,48483,1,0
257,123,48676,1,8
257,123,49060,5,4
257,123,49445,1,12
257,123,49830,1,0
257,123,49926,1,8
257,123,50022,1,0
257,123,50214,1,8
257,123,50406,1,0
257,123,50791,1,0
257,123,50887,1,0
257,123,50983,1,8
257,123,51368,1,0
257,123,51560,1,0
257,123,51656,1,8
257,123,51753,1,8
257,123,51945,1,8
208,200,52137,2,0,B|300:352|409:361|447:278|449:128|436:51|382:40|269:48|48:52,1,770
140,98,54637,5,0
140,98,54830,1,8
140,98,54926,1,0
140,98,55022,1,0
140,98,55406,5,0
140,98,55599,1,8
140,98,55695,1,0
140,98,55791,1,0
140,98,56176,1,0
140,98,56560,5,4
140,98,56945,1,4
140,98,57330,1,4
257,123,57522,1,0
257,123,57714,1,0
257,123,57810,1,8
257,123,57906,1,8
257,123,58099,1,8
256,192,58291,2,0,B|348:344|457:353|495:270|497:120|484:43|430:32|317:40|96:80,1,770
256,185,60791,5,8
256,185,60887,1,0
256,185,60983,1,8
256,185,61176,1,0
256,185,61272,1,0
256,185,61368,1,0
256,185,61560,5,8
256,185,61656,1,0
256,185,61753,1,8
256,185,61945,1,8
256,185,62330,1,0
256,185,62522,1,0
256,185,62714,1,12
256,185,63099,1,4
104,277,63676,5,0
104,277,63772,1,8
104,277,63868,1,0
104,277,64060,1,8
104,277,64156,1,0
104,277,64253,1,0
373,311,64445,5,0
373,311,64541,1,0
373,311,64637,1,0
373,311,64733,1,0
373,311,64830,1,8
373,311,65214,1,0
373,311,65310,1,0
373,311,65406,1,0
373,311,65599,1,8
373,311,65791,1,0
373,311,65887,1,0
373,311,65983,1,8
373,311,66176,1,0
373,311,66272,1,0
373,311,66368,1,8
373,311,66560,1,0
373,311,66753,1,0
372,312,66945,1,0
373,311,67137,1,8
372,312,67522,5,0
372,312,67618,1,0
372,312,67714,1,0
372,312,67906,1,8
372,312,68003,1,0
372,312,68099,1,8
372,312,68291,1,0
372,312,68387,1,8
372,312,68483,1,0
372,312,68676,1,8
372,312,68868,1,0
372,312,68964,1,0
372,312,69060,1,0
372,312,69156,1,0
372,312,69253,1,8
372,312,69445,1,0
372,312,69637,1,0
373,311,70022,1,0
373,311,70118,1,0
373,311,70214,1,8
373,311,70599,5,4
373,311,70983,1,8
373,311,71368,1,8
373,311,71464,1,8
373,311,71560,1,0
373,311,71656,1,0
373,311,71753,1,8
373,311,71945,1,8
373,311,72041,1,0
373,311,72137,1,0
373,311,72233,1,0
373,311,72330,1,8
373,311,72714,1,0
373,311,72906,1,0
373,311,73099,1,0
373,311,73291,1,8
373,311,73676,5,4
373,311,74060,1,12
257,123,74445,1,0
257,123,74541,1,8
257,123,74637,1,0
257,123,74830,1,8
257,123,75022,1,0
257,123,75406,1,0
257,123,75503,1,0
257,123,75599,1,8
257,123,75983,1,0
257,123,76176,1,0
257,123,76272,1,8
257,123,76368,1,8
257,123,76560,1,8
256,192,76753,2,0,B|348:344|457:353|495:270|497:120|484:43|430:32|317:40|80:88,1,770
140,98,79253,5,0
140,98,79445,1,8
140,98,79541,1,0
140,98,79637,1,0
140,98,80022,5,0
140,98,80214,1,8
140,98,80310,1,0
140,98,80406,1,0
140,98,80791,1,0
140,98,81176,5,4
140,98,81560,1,4
140,98,81945,1,4
257,123,82137,1,0
257,123,82330,1,0
257,123,82426,1,8
257,123,82522,1,8
257,123,82714,1,8
256,192,82906,2,0,B|348:344|457:353|495:270|497:120|484:43|430:32|317:40|84:84,1,770
256,185,85406,5,8
256,185,85503,1,0
256,185,85599,1,8
256,185,85791,1,0
256,185,85887,1,0
256,185,85983,1,0
256,185,86176,1,8
256,185,86272,1,0
256,185,86368,1,8
256,185,86560,1,0
256,185,86945,5,0
256,185,87137,1,0
256,185,87330,1,8
256,185,87714,1,0
256,185,88291,5,4
256,185,88676,1,4
256,185,89060,1,0
256,185,89156,1,0
256,185,89253,1,0
