osu file format v9

[General]
AudioFilename: Naruto Shippuden Ending 17.mp3
AudioLeadIn: 0
PreviewTime: 58291
Countdown: 0
SampleSet: Normal
StackLeniency: 0.7
Mode: 0
LetterboxInBreaks: 0

[Editor]
Bookmarks: 21923,27310,39622,51935,76560
DistanceSpacing: 1
BeatDivisor: 4
GridSize: 4

[Metadata]
Title:FREEDOM (TV Size)
Artist:HOME MADE Kazoku
Creator:Haneii
Version:Hard
Source:Naruto Shippuuden
Tags:Ending weezy saten-san

[Difficulty]
HPDrainRate:6
CircleSize:4
OverallDifficulty:6
ApproachRate:7
SliderMultiplier:1.84
SliderTickRate:2

[Events]
//Background and Video events
Video,0,"Naruto Shippuden Ending 17.avi"
0,0,"Freedombg.jpg"
//Break Periods
//Storyboard Layer 0 (Background)
//Storyboard Layer 1 (Fail)
//Storyboard Layer 2 (Pass)
//Storyboard Layer 3 (Foreground)
//Storyboard Sound Samples
//Background Colour Transformations
3,100,163,162,255

[TimingPoints]
2907,384.615384615385,4,1,0,50,1,0
27507,-100,4,1,0,40,0,0
39830,-100,4,1,0,60,0,1
52137,-100,4,1,0,60,0,0
64445,-100,4,1,0,60,0,1
76753,-100,4,1,0,60,0,0

[Colours]
Combo1 : 0,179,0
Combo2 : 15,135,255
Combo3 : 255,153,51
Combo4 : 250,31,31

[HitObjects]
147,92,2906,1,4
315,161,3291,2,0,B|203:161,1,92,0|0
371,41,3868,1,0
371,41,4060,2,0,B|468:54|489:126|483:197,1,184,0|0
268,180,4830,5,0
268,180,5022,1,0
275,308,5407,2,0,B|379:308,1,92
139,230,5983,5,0
35,76,6368,1,0
83,156,6560,1,0
243,68,6945,1,0
243,68,7137,2,0,B|366:50|429:168,1,184
240,216,7907,6,0,B|157:135,1,92,0|0
424,264,8483,2,0,B|507:345,1,92
441,152,9060,5,0
275,76,9445,2,0,B|275:204,1,92
147,300,10022,1,0
147,300,10214,2,0,B|55:287|35:219|40:151,1,184
215,118,10983,6,0,B|123:118,1,92
399,118,11560,2,0,B|303:118,1,92
188,260,12137,6,0,B|71:257|23:354,1,184
123,350,12714,2,0,B|99:236|-7:211,1,184
12,216,13291,1,0
168,120,13676,6,0,B|271:173|356:106,1,184
265,67,14253,2,0,B|236:179|320:248,1,184
308,237,14830,1,0
148,324,15214,5,4
148,324,15599,2,0,B|149:233,1,92,8|0
260,84,16176,1,0
260,84,16368,2,0,B|359:89|411:185,2,184,8|0|8
80,52,17522,5,0
64,144,17714,1,0
140,196,17907,1,8
232,196,18099,1,0
288,124,18291,6,0,B|316:83|382:94,1,92
446,143,18676,2,0,B|438:199|496:217,1,92,8|0
448,304,19060,1,0
355,304,19253,2,0,B|235:304,1,92,0|8
80,140,19830,6,0,B|108:88|168:88,1,92
276,116,20214,2,0,B|248:168|188:168,1,92,8|0
216,296,20599,2,0,B|244:244|304:244,1,92
412,272,20983,2,0,B|384:324|324:324,1,92,8|0
311,235,21368,6,0,B|311:143,3,92,0|0|12|0
313,50,22137,2,0,B|351:28|381:58|427:69|441:41,1,92
451,135,22522,2,0,B|423:187|455:243,1,92,8|0
407,307,22907,6,0,B|301:261|218:317,1,184,0|8
155,251,23483,1,0
65,228,23676,2,0,B|80:160|138:134|206:155|223:184,2,184,0|8|0
94,315,24637,5,0
180,346,24830,1,8
271,346,25022,1,0
355,310,25214,2,0,B|438:242,3,92,0|0|8|0
256,192,25983,12,4,27522
340,200,28291,5,0
257,239,28483,1,0
173,200,28676,1,0
320,92,29060,5,0
135,92,29445,2,0,B|228:92,1,92
396,163,30022,1,8
396,254,30214,1,8
156,244,30599,6,0,B|68:300,2,92
208,168,31176,1,0
260,244,31368,2,0,B|348:300,2,92
260,244,31945,1,0
304,164,32137,6,0,B|402:114|486:169,2,184
227,112,33099,1,8
151,164,33291,1,8
300,324,33676,6,0,B|344:364|379:325,2,92,4|0|0
120,296,34445,2,0,B|126:242|185:247,2,92
322,146,35214,2,0,B|334:204|282:216,3,92
282,216,36176,1,8
282,216,36368,1,8
91,225,36753,5,0
115,313,36945,1,0
195,353,37137,1,0
379,353,37522,1,0
467,313,37714,1,0
483,225,37907,1,0
299,217,38291,6,0,B|283:97|396:81|442:110,1,184
379,281,39060,2,0,B|307:369|187:357|75:313|67:217,1,368,0|4
115,65,40214,5,8
291,121,40599,1,0
363,65,40791,1,0
435,121,40983,1,8
363,181,41176,6,0,B|401:235|370:285|332:305|279:295,1,184
99,305,41945,1,0
99,305,42137,2,0,B|27:105,1,184,0|8
220,208,42906,5,0
360,328,43291,2,8,B|429:320|444:240,1,92,8|0
452,188,43676,2,0,B|439:120|364:98,1,92,0|0
316,148,44060,2,0,B|308:80|352:44|384:28|456:44,2,184,8|0|8
264,224,45022,1,0
80,224,45406,2,0,B|80:320,1,92,0|8
220,196,45983,5,4
404,196,46368,1,8
220,196,46753,2,0,B|96:195,2,92,0|0|8
274,270,47330,2,0,B|322:222|315:139|269:99,1,184
96,48,48099,5,0
52,128,48291,1,0
139,154,48483,1,0
93,234,48676,1,8
255,319,49060,1,0
418,234,49445,1,8
256,148,49830,5,0
256,148,50022,2,0,B|260:20,2,92,0|8|0
123,276,50791,2,0,B|228:220,1,92,0|8
388,276,51368,1,0
388,276,51560,2,0,B|283:220,1,92,0|8
256,192,52137,12,4,54060
71,331,54637,5,0
13,259,54830,1,0
70,187,55022,1,0
253,197,55406,1,0
253,197,55599,1,0
253,197,55791,2,0,B|185:183|197:285|117:282|85:258,1,184
363,50,56560,5,0
475,195,56945,1,0
363,340,57330,1,0
256,192,58291,12,4,60214
441,53,60791,5,0
499,125,60983,1,0
442,197,61176,1,0
260,188,61560,2,0,B|328:202|316:100|396:103|428:127,1,184
260,188,62330,6,0,B|192:174|204:276|124:273|92:249,1,184
81,71,63099,1,0
216,311,63676,1,0
294,359,63868,1,0
373,311,64060,1,0
440,139,64445,6,0,B|519:75,2,92,4|0|8
256,128,65214,1,0
186,67,65406,1,0
116,128,65599,1,8
119,219,65791,6,0,B|165:269|243:228,1,92
293,243,66176,2,0,B|361:239|389:322,1,92,0|8
442,339,66560,1,0
506,273,66753,1,0
433,103,67137,1,8
241,90,67522,5,0
58,192,67906,2,0,B|181:192,1,92,8|0
241,192,68291,2,0,B|364:192,1,92,0|0
380,113,68676,2,0,B|492:127|480:249,1,184,8|0
320,333,69445,1,8
320,333,69637,1,0
135,333,70022,2,0,B|231:333,1,92,0|8
256,151,70599,5,4
72,151,70983,1,8
256,151,71368,2,0,B|313:227,2,92,0|0|8
205,72,71945,2,0,B|253:24|336:31|376:77,1,184
482,219,72714,5,0
436,297,72906,1,0
368,236,73099,1,0
324,317,73291,1,8
139,317,73676,1,0
28,174,74060,1,8
212,174,74445,5,0
277,109,74637,2,0,B|323:73|405:96,2,92,0|8|0
208,285,75406,2,0,B|133:273|92:161|137:104|159:72|219:43,1,276
334,169,76368,1,0
256,192,76753,12,4,78676
212,232,79253,5,0
124,232,79445,2,0,B|4:232,1,92,8|0
300,232,80022,1,0
388,232,80214,2,0,B|508:232,1,92,8|0
480,47,80791,1,0
203,47,81176,5,0
90,191,81560,1,0
203,337,81945,1,0
256,192,82906,12,4,84830
491,214,85406,6,0,B|397:214,1,92,0|8
307,214,85791,2,0,B|215:213,1,92
122,213,86176,2,0,B|11:212|-9:113|19:59,1,184
188,60,86945,5,0
279,65,87137,1,8
339,134,87330,1,0
257,298,87714,1,0
88,120,88291,5,4
256,46,88676,1,4
425,120,89060,1,4
