osu file format v7

[General]
AudioFilename: Utauyo!! MIRACLE TV Size.mp3
AudioLeadIn: 0
PreviewTime: 51218
Countdown: 1
SampleSet: Normal
StackLeniency: 0.7
Mode: 0
LetterboxInBreaks: 1

[Editor]
Bookmarks: 18548,24492,36381,45297,63130,75019
DistanceSpacing: 0.800000011920929
BeatDivisor: 4
GridSize: 8

[Metadata]
Title:Utauyo!! MIRACLE (TV Size)
Artist:HO-KAGO TEA TIME
Creator:Gladi
Version:Normal
Source:K-ON!!
Tags:Lesjuh KenezzEdward Tsumugi Yui Ritsu Mio

[Difficulty]
HPDrainRate:4
CircleSize:4
OverallDifficulty:4
SliderMultiplier:1.3
SliderTickRate:1

[Events]
//Background and Video events
0,0,"Background K-ON!!.png"
Video,0,"Utauyo!! MIRACLE TV Size.avi"
//Break Periods
//Storyboard Layer 0 (Background)
//Storyboard Layer 1 (Fail)
//Storyboard Layer 2 (Pass)
//Storyboard Layer 3 (Foreground)
//Storyboard Sound Samples
//Background Colour Transformations
3,100,0,0,0

[TimingPoints]
5160,371.517027863777,4,1,0,50,1,0
6659,-100,4,1,0,50,0,1
12510,-100,4,1,0,50,0,0
12603,-100,4,1,0,50,0,1
18547,-100,4,1,0,50,0,0
51242,-100,4,1,0,50,0,1
57092,-100,4,1,0,50,0,0
57185,-100,4,1,0,50,0,1
63037,-100,4,1,0,50,0,0
63130,-100,4,1,0,50,0,1
68981,-100,4,1,0,50,0,0
69073,-100,4,1,0,50,0,1
75019,-100,4,1,0,50,0,0

[Colours]
Combo1 : 198,114,248
Combo2 : 163,222,22
Combo3 : 7,122,237
Combo4 : 241,81,3
Combo5 : 249,176,6

[HitObjects]
112,80,6646,2,0,B|248:80,1,130,4|0
344,56,7389,1,2
400,144,7760,1,0
312,208,8132,2,2,B|288:280|320:344,2,130
312,208,9246,1,2
288,104,9618,6,2,B|200:96,1,65,6|2
128,144,10175,2,2,B|56:152,2,65,2|6|2
216,208,10918,2,2,B|216:288,1,65,2|6
312,312,11475,1,2
344,216,11847,1,2
344,216,12218,1,6
448,240,12590,6,2,B|472:176|440:96,1,130,6|2
344,112,13333,2,2,B|320:176|352:256,1,130,2|2
256,296,14076,1,0
208,208,14447,1,2
256,112,14819,2,2,B|120:112,1,130
80,208,15562,5,6
144,288,15933,2,0,B|136:376,1,65,2|0
232,312,16491,2,0,B|224:232,1,65,0|2
336,240,17048,5,6
304,112,17420,1,2
176,144,17791,1,6
208,272,18163,1,2
256,192,18534,5,6
256,192,18720,12,4,21506
256,192,21878,5,0
176,128,22249,2,0,B|152:200|184:272,1,130
256,192,22992,1,0
336,128,23364,2,0,B|360:200|328:272,2,130
424,72,24478,5,6
480,160,24850,2,0,B|472:232,2,65,8|0|2
376,168,25593,2,0,B|312:208|232:168,1,130,8|2
176,112,26336,2,2,B|160:192,1,65,10|2
232,256,26893,2,2,B|248:336,1,65,2|10
344,344,27451,5,6
400,256,27822,1,8
328,176,28194,2,2,B|296:104|336:32,1,130,2|8
280,24,28751,1,2
64,192,29865,6,2,B|112:176|160:248|200:192,1,130
240,208,30423,1,6
312,280,30794,2,0,B|304:368,2,65,8|0|2
392,208,31537,2,0,B|408:144|384:64,1,130,8|2
296,32,32280,2,2,B|288:112,1,65,10|2
216,176,32838,2,2,B|224:256,1,65,2|10
120,208,33395,6,0,B|104:144|128:64,1,130,6|8
216,32,34138,1,2
296,104,34509,1,8
256,200,34881,2,2,B|256:344,2,130,2|10|0
224,160,35810,1,6
352,72,36367,5,4
424,144,36738,2,2,B|448:208|416:288,1,130
336,328,37481,2,2,B|304:256,1,65
208,248,38039,2,0,B|224:160,1,65,8|2
256,144,38410,1,8
256,144,38596,1,6
176,80,38968,1,2
96,144,39339,6,2,B|72:208|104:288,1,130,6|0
200,272,40082,2,2,B|224:208|192:128,1,130,2|0
216,96,40639,1,0
304,144,41011,2,0,B|320:224,1,65,8|2
360,232,41382,1,8
360,232,41568,1,6
312,328,41940,1,2
408,360,42311,6,2,B|384:296|416:216,1,130,6|2
448,136,43054,1,0
360,80,43426,2,2,B|352:160,1,65
248,152,43983,2,0,B|264:240,1,65,8|2
240,264,44355,1,8
240,264,44540,1,6
152,320,44912,1,2
96,232,45283,6,2,B|72:168|96:88,1,130,6|8
192,104,46026,2,2,B|216:168|192:248,1,130,2|8
197,336,46769,2,2,B|261:368|333:336,1,130,2|8
322,236,47512,2,2,B|258:204|186:236,1,130,2|8
224,128,48255,6,0,B|152:96,2,65,2|0|2
288,128,48813,2,0,B|352:96,2,65,0|2|0
256,184,49370,2,2,B|256:264,1,65
176,312,49927,5,0
176,312,50113,1,2
120,224,50485,1,2
160,128,50856,1,2
256,96,51228,6,2,B|232:168|264:240,1,130,6|2
360,224,51971,2,2,B|384:152|352:80,1,130,2|0
448,48,52714,1,2
488,144,53085,1,0
488,144,53457,1,2
448,240,53828,1,2
352,208,54200,6,2,B|344:296,1,65,6|2
240,264,54757,2,2,B|256:352,2,65,2|6|2
248,160,55500,2,2,B|168:152,1,65
112,224,56057,2,0,B|136:160|104:80,2,130,0|2|0
168,312,57172,6,2,B|240:344|312:304,1,130,6|2
288,208,57915,2,2,B|216:176|144:216,2,130
376,264,59029,1,0
432,176,59401,1,2
432,176,59773,1,2
368,96,60144,5,6
272,144,60516,2,0,B|256:64,1,65,2|0
176,144,61073,2,0,B|152:224,1,65,2|0
232,280,61630,5,6
344,216,62002,1,2
280,104,62373,1,6
168,168,62745,1,2
256,192,63116,5,6
352,144,63488,1,0
416,224,63859,2,2,B|440:288|416:360,2,130
464,128,64974,1,0
384,64,65345,2,2,B|320:96|256:64,1,130
184,136,66088,6,0,B|176:216,1,65,6|0
248,272,66646,2,0,B|256:344,2,65,2|0|2
280,176,67389,2,2,B|376:184,1,65,2|2
432,120,67946,1,0
432,120,68317,2,2,B|456:184|432:256,1,130
328,248,69060,6,2,B|304:184|328:112,1,130,6|0
232,72,69803,1,2
232,72,70175,1,0
192,168,70546,1,2
96,128,70918,2,2,B|120:192|96:264,1,130,2|2
184,320,71661,1,2
272,264,72033,5,6
376,288,72404,2,0,B|400:208,1,65,2|0
304,176,72961,2,0,B|280:96,1,65,2|0
184,136,73519,5,6
200,264,73890,1,2
328,248,74262,1,2
312,120,74633,1,2
256,192,75005,5,6
256,192,75190,12,4,76491
112,192,76862,5,2
112,192,77234,1,2
400,192,77977,1,4
400,192,78348,1,2
400,192,78720,1,2
256,344,79463,5,4
192,264,79834,2,2,B|168:200|192:128,1,130
256,56,80577,1,2
322,136,80949,2,2,B|344:200|320:264,3,130
256,184,82435,5,4
216,152,82621,2,0,B|144:160,1,65,0|2
64,104,83178,2,2,B|48:168|64:240,2,130,2|2|4
80,56,84107,2,0,B|160:64,1,65,0|2
240,32,84664,2,2,B|256:96|240:168,2,130,2|2|4
344,56,85779,2,0,B|368:128,1,65,2|0
312,208,86336,2,0,B|304:288,1,65,2|0
200,264,86893,5,6
184,136,87265,1,2
312,120,87636,1,6
328,248,88008,1,2
256,192,88379,5,6
