osu file format v7

[General]
AudioFilename: Utauyo!! MIRACLE TV Size.mp3
AudioLeadIn: 0
PreviewTime: 51218
Countdown: 1
SampleSet: Normal
StackLeniency: 0.7
Mode: 0
LetterboxInBreaks: 1

[Editor]
Bookmarks: 18548,24492,36381,45297,63130,75019
DistanceSpacing: 1
BeatDivisor: 4
GridSize: 8

[Metadata]
Title:Utauyo!! MIRACLE (TV Size)
Artist:HO-KAGO TEA TIME
Creator:Gladi
Version:Hard
Source:K-ON!!
Tags:Lesjuh KenezzEdward Tsumugi Yui Ritsu Mio

[Difficulty]
HPDrainRate:6
CircleSize:5
OverallDifficulty:7
SliderMultiplier:1.6
SliderTickRate:2

[Events]
//Background and Video events
0,0,"Background K-ON!!.png"
Video,0,"Utauyo!! MIRACLE TV Size.avi"
//Break Periods
//Storyboard Layer 0 (Background)
//Storyboard Layer 1 (Fail)
//Storyboard Layer 2 (Pass)
//Storyboard Layer 3 (Foreground)
//Storyboard Sound Samples
//Background Colour Transformations
3,100,0,0,0

[TimingPoints]
5160,371.517027863777,4,1,0,50,1,0
6659,-100,4,1,0,50,0,1
12510,-100,4,1,0,50,0,0
12603,-100,4,1,0,50,0,1
18547,-100,4,1,0,50,0,0
51242,-100,4,1,0,50,0,1
57092,-100,4,1,0,50,0,0
57185,-100,4,1,0,50,0,1
63037,-100,4,1,0,50,0,0
63130,-100,4,1,0,50,0,1
68981,-100,4,1,0,50,0,0
69073,-100,4,1,0,50,0,1
75019,-100,4,1,0,50,0,0

[Colours]
Combo1 : 198,114,248
Combo2 : 163,222,22
Combo3 : 7,122,237
Combo4 : 241,81,3
Combo5 : 249,176,6

[HitObjects]
144,96,6646,2,2,B|224:104|296:136,1,120,6|2
376,80,7203,1,0
432,136,7389,2,2,B|448:176|432:232,1,80
352,296,7853,2,0,B|352:352,1,40,0|2
272,360,8132,5,0
272,360,8225,1,0
224,296,8410,2,2,B|152:280|88:336,1,120
32,352,8875,2,2,B|-16:272|40:176,1,160
152,96,9618,5,6
152,96,9803,1,2
184,256,10175,1,2
256,296,10361,1,6
328,256,10546,1,2
360,96,10918,5,2
360,96,11104,1,6
176,160,11475,1,2
360,312,11847,1,2
144,184,12218,1,2
392,80,12590,6,2,B|416:136|392:224,1,120,6|2
312,280,13147,1,0
312,280,13333,2,2,B|264:264|208:280,1,80
128,336,13797,2,0,B|112:288,1,40,0|2
144,224,14076,5,0
144,224,14169,1,0
104,152,14355,2,2,B|184:160|208:64,1,120,2|2
280,72,14819,2,2,B|240:160|280:232,1,160
408,136,15562,6,2,B|448:224|408:296,1,160,6|0
344,256,16119,2,2,B|256:232|192:312,1,160,2|0
200,302,16677,1,2
128,160,17048,5,6
312,120,17420,1,2
96,24,17791,1,2
344,104,18163,1,2
96,168,18534,5,6
184,248,18813,1,0
184,248,18906,1,0
304,224,19184,2,0,B|312:288,1,40,0|2
416,320,19556,1,0
416,320,19649,1,0
488,224,19927,5,0
488,224,20020,1,2
408,136,20299,2,0,B|416:80,1,40
304,48,20670,2,0,B|312:96,5,40,0|2|0|0|0|0
160,40,21506,5,6
120,152,21785,1,0
120,152,21878,1,0
224,216,22156,2,0,B|232:280,1,40,0|2
328,320,22528,2,0,B|336:256,1,40
424,200,22899,5,0
424,200,22992,1,2
368,96,23271,1,0
368,96,23364,1,0
256,144,23642,2,0,B|248:96,5,40,0|2|0|0|0|0
96,56,24478,6,2,B|16:104|48:216,1,160,6|8
120,224,25036,1,0
120,224,25221,2,2,B|176:256|160:352,1,120
162,328,25593,1,8
240,360,25779,1,0
304,312,25964,1,2
288,232,26150,2,0,B|272:192|288:136,1,80,0|8
344,96,26522,2,2,B|432:120|416:240,1,160
417,221,27079,1,8
328,352,27451,6,2,B|256:408|160:344,1,160,6|8
178,355,28008,1,0
178,355,28194,1,2
120,248,28472,2,0,B|128:184,1,40,0|8
80,144,28751,2,2,B|128:240|224:184,1,160
211,190,29215,2,0,B|232:256,5,40
296,264,29865,1,6
352,112,30237,6,0,B|360:56,2,40,0|0|4
368,192,30608,1,0
440,224,30794,2,0,B|456:264|440:320,1,80,8|0
384,352,31166,2,2,B|320:304|288:384|224:320,1,160,2|8
200,256,31723,1,0
264,208,31909,1,2
224,136,32094,2,0,B|208:96|224:48,1,80,0|8
144,40,32466,2,2,B|104:136|-8:72,1,160
12,82,33023,1,8
136,184,33395,5,6
56,320,33766,1,8
128,360,33952,1,0
160,288,34138,2,2,B|240:248|320:304,1,160,2|8
311,298,34695,1,2
384,264,34881,2,0,B|400:312,4,40
424,192,35438,1,0
352,152,35624,1,0
392,80,35810,2,2,B|360:176|256:136,1,160,6|2
200,96,36367,5,4
136,144,36553,1,0
184,208,36738,2,2,B|200:248|184:304,1,80
152,360,37110,2,0,B|96:352,2,40
232,352,37481,1,2
232,352,37667,1,2
304,208,38039,5,6
384,184,38225,1,0
432,248,38410,1,6
432,248,38596,2,6,B|392:168|440:72,1,160,6|2
280,40,39339,6,2,B|296:144|208:208|120:144,1,240,6|2
64,112,40082,2,2,B|32:192|64:288,1,160,2|0
58,269,40639,1,0
200,344,41011,5,6
280,360,41197,1,0
304,280,41382,1,6
304,280,41568,2,6,B|344:200|304:112,1,160,6|2
448,40,42311,6,2,B|408:96|408:176,1,120,6|0
408,151,42683,1,2
456,216,42868,1,0
400,272,43054,2,0,B|360:256|312:272,1,80,2|0
272,328,43426,1,0
240,256,43612,1,2
280,104,43983,5,6
208,72,44169,1,0
152,128,44355,1,6
152,128,44540,2,6,B|112:216|160:320,1,160,6|2
288,360,45283,6,6,B|328:272|280:168,1,160,6|8
240,144,45841,1,0
288,80,46026,2,2,B|352:56|384:144|448:88,1,160,2|8
488,160,46584,5,0
488,160,46769,2,2,B|400:184|416:320,1,160,6|8
360,344,47327,1,0
304,288,47512,2,2,B|216:248|128:304,1,160,2|10
200,136,48255,6,2,B|160:120|112:120,1,80,6|0
200,136,48627,2,2,B|184:176|184:224,1,80,2|0
200,136,48999,2,2,B|240:152|288:152,1,80
200,136,49370,2,2,B|216:96|216:48,1,80,2|6
376,32,49927,5,0
432,88,50113,1,2
312,192,50485,1,2
472,296,50856,1,2
288,168,51228,6,2,B|248:224|256:304,1,120,6|2
152,344,51785,1,0
152,344,51971,2,2,B|112:320|64:320,1,80
24,208,52435,2,0,B|32:144,1,40,0|2
24,88,52714,5,0
24,88,52807,1,0
104,64,52992,2,2,B|168:104|224:56,1,120
288,96,53457,2,2,B|328:184|280:280,1,160
168,352,54200,5,6
168,352,54386,1,2
184,192,54757,1,2
256,152,54943,1,6
328,192,55129,1,2
344,352,55500,5,2
344,352,55686,1,6
168,272,56057,1,2
392,152,56429,1,2
136,264,56800,1,2
376,344,57172,6,2,B|352:288|376:224,1,120,6|2
456,144,57729,1,0
456,144,57915,2,2,B|416:128|360:80,1,80
288,32,58379,2,0,B|280:88,1,40,0|2
304,152,58658,5,0
304,152,58751,1,0
240,200,58937,2,2,B|176:176|144:96,1,120
120,48,59401,2,2,B|24:64|48:192,1,160
32,328,60144,6,2,B|88:304|152:384|192:328,1,160
264,360,60701,2,2,B|304:288|256:192,1,160
262,206,61259,1,2
168,80,61630,5,6
352,120,62002,1,2
144,232,62373,1,2
376,136,62745,1,2
136,88,63116,6,2,B|112:144|128:208,1,120,6|2
72,312,63673,1,0
72,312,63859,2,2,B|120:312|152:344,1,80
256,280,64324,2,0,B|264:232,1,40,0|2
336,208,64602,5,0
336,208,64695,1,0
272,160,64881,2,2,B|304:104|272:24,1,120
208,8,65345,2,2,B|280:72|384:16,1,160
368,192,66088,5,6
368,192,66274,1,2
328,344,66646,1,2
256,304,66831,1,6
184,344,67017,1,2
144,192,67389,5,2
144,192,67574,1,6
328,144,67946,1,2
112,40,68317,1,2
352,120,68689,1,2
120,216,69060,6,2,B|96:280|128:368,1,120,6|2
232,368,69618,1,0
232,368,69803,2,2,B|248:328|224:272,1,80
312,200,70268,2,0,B|368:208,1,40,0|2
416,248,70546,5,0
416,248,70639,1,0
464,184,70825,2,2,B|440:128|464:64,1,120
424,64,71197,2,0,B|409:5,1,40,0|2
280,120,71661,1,2
136,56,72033,6,2,B|96:144|136:232,1,160,6|2
48,208,72590,2,2,B|144:184|192:280,1,160
183,265,73147,1,2
328,200,73519,5,6
152,128,73890,1,2
352,24,74262,1,2
120,112,74633,1,2
360,184,75005,1,6
256,192,75190,12,4,76491
256,192,76677,5,2
256,192,76862,1,0
192,240,77048,1,0
144,176,77234,2,2,B|104:96|144:8,2,160,2|2|4
208,128,78163,1,2
256,192,78348,1,2
336,184,78534,1,0
336,184,78720,2,2,B|376:264|336:352,2,160,2|2|4
408,160,79649,6,2,B|392:120|408:72,2,80,2|2|0
440,232,80206,2,2,B|376:304|272:248,1,160
136,216,80949,1,6
312,144,81320,1,2
112,40,81692,1,2
344,136,82064,1,2
112,192,82435,1,4
88,272,82621,5,0
144,328,82807,1,0
216,296,82992,1,0
216,296,83178,2,2,B|280:272|328:376|392:288,2,160,2|2|4
176,224,84107,2,2,B|160:184|176:144,1,80,2|2
240,104,84478,1,0
312,136,84664,2,2,B|416:184|448:72,2,160,2|2|6
256,288,85779,5,0
256,288,85964,1,2
256,96,86336,1,2
256,96,86522,1,2
180,200,86893,6,4,B|260:176|356:208,4,160,6|2|6|2|6
