osu file format v14

[General]
AudioFilename: K-On! - Touched by an angel (Asterisk DnB Remix).mp3
AudioLeadIn: 2000
PreviewTime: 77099
Countdown: 0
SampleSet: Soft
StackLeniency: 0.7
Mode: 0
LetterboxInBreaks: 0
EpilepsyWarning: 1
WidescreenStoryboard: 1

[Editor]
DistanceSpacing: 0.9
BeatDivisor: 4
GridSize: 4
TimelineZoom: 2.1

[Metadata]
Title:Tenshi ni Fureta yo! (Asterisk DnB Remix)
TitleUnicode:天使にふれたよ!(Asterisk DnB Remix)
Artist:HO-KAGO TEA TIME
ArtistUnicode:放課後ティータイム
Creator:Sotarks
Version:Linada's Insane
Source:K-ON!!
Tags:HTT Keion Yui Hirasawa Mio Akiyama Ritsu Tainaka Tsumugi Kotobuki Azusa Nakano Toyosaki Aki Hikasa Yoko Sato Satomi Minako Taketatsu Ayana Works3 Linada Del05 Aihuro ReFaller HB24 Touched by an Angel
BeatmapID:823423
BeatmapSetID:373858

[Difficulty]
HPDrainRate:6
CircleSize:3.7
OverallDifficulty:7.5
ApproachRate:9
SliderMultiplier:1.8
SliderTickRate:1

[Events]
//Background and Video events
0,0,"BG.jpg",0,0
//Break Periods
2,44470,51899
//Storyboard Layer 0 (Background)
//Storyboard Layer 1 (Fail)
//Storyboard Layer 2 (Pass)
//Storyboard Layer 3 (Foreground)
//Storyboard Sound Samples

[TimingPoints]
385,342.857142857143,4,2,1,40,1,0
385,-133.333333333333,4,2,1,40,0,0
1756,-133.333333333333,4,2,1,45,0,0
3127,-133.333333333333,4,2,1,50,0,0
4499,-133.333333333333,4,2,1,55,0,0
5870,-133.333333333333,4,2,1,60,0,0
7242,-133.333333333333,4,2,1,65,0,0
11356,-133.333333333333,4,3,1,75,0,0
11699,-133.333333333333,4,2,1,75,0,0
13756,-100,4,2,1,75,0,0
14099,-133.333333333333,4,2,1,75,0,0
16842,-133.333333333333,4,2,2,80,0,0
20956,-117.647058823529,4,2,2,70,0,0
21985,-83.3333333333333,4,2,2,60,0,0
22327,-100,4,3,1,90,0,0
22413,-100,4,2,2,90,0,0
31927,-100,4,2,1,90,0,0
32270,-100,4,2,2,90,0,0
32442,-100,4,3,1,90,0,0
32956,-100,4,2,2,90,0,0
33127,-100,4,3,1,90,0,0
33642,-100,4,2,2,90,0,0
38785,-100,4,2,2,90,0,0
43927,-83.3333333333333,4,3,1,90,0,0
52499,-100,4,2,2,60,0,0
54899,-100,4,3,1,60,0,0
55242,-100,4,2,2,75,0,0
65870,-83.3333333333333,4,3,1,75,0,0
66213,-133.333333333333,4,3,1,50,0,0
71699,-100,4,3,1,50,0,0
75727,-100,4,2,2,30,0,0
76156,-100,4,2,1,60,0,0
76499,-100,4,2,1,70,0,0
76842,-100,4,2,2,70,0,0
77185,-90.9090909090909,4,2,2,90,0,1
85413,-100,4,2,2,80,0,0
87470,-100,4,3,1,80,0,0
87642,-100,4,2,2,80,0,0
87985,-100,4,3,1,80,0,0
88156,-90.9090909090909,4,2,2,90,0,1
93642,-100,4,2,2,80,0,0
98785,-100,4,3,1,80,0,0

[Colours]
Combo1 : 181,255,145
Combo2 : 247,205,108
Combo3 : 255,157,157
Combo4 : 168,183,255

[HitObjects]
96,220,385,6,0,L|110:285,1,67.5000025749208,4|0,0:0|0:0,0:0:0:0:
188,215,727,2,0,L|188:148,1,67.5000025749208,8|0,0:0|0:0,0:0:0:0:
284,92,1070,2,0,L|269:157,1,67.5000025749208,4|0,0:0|0:0,0:0:0:0:
364,129,1413,2,0,L|400:72,1,67.5000025749208,8|0,0:0|0:0,0:0:0:0:
451,272,1756,6,0,L|386:288,1,67.5000025749208,4|0,0:0|0:0,0:0:0:0:
298,241,2099,2,0,L|355:205,1,67.5000025749208,8|0,0:0|0:0,0:0:0:0:
247,177,2442,2,0,L|200:225,1,67.5000025749208,0|0,0:0|0:0,0:0:0:0:
96,220,2785,2,0,L|131:162,1,67.5000025749208,8|0,0:0|0:0,0:0:0:0:
245,328,3127,6,0,P|212:322|183:307,1,67.5000025749208,2|0,0:0|0:0,0:0:0:0:
332,248,3470,2,0,P|365:253|394:269,1,67.5000025749208,8|0,0:0|0:0,0:0:0:0:
239,247,3813,2,0,P|244:213|260:184,1,67.5000025749208,0|0,0:0|0:0,0:0:0:0:
385,69,4156,2,0,P|380:102|364:131,1,67.5000025749208,8|0,0:0|0:0,0:0:0:0:
269,256,4499,5,4,0:0:0:0:
243,161,4670,1,0,0:0:0:0:
412,172,4842,1,8,0:0:0:0:
386,267,5013,1,0,0:0:0:0:
332,108,5185,2,0,P|301:93|268:87,1,67.5000025749208,0|0,0:0|0:0,0:0:0:0:
164,132,5527,2,0,P|130:125|100:111,1,67.5000025749208,8|0,0:0|0:0,0:0:0:0:
164,308,5870,6,0,L|204:248,1,67.5000025749208,0|0,0:0|0:0,0:0:0:0:
300,111,6213,2,0,L|316:196,1,67.5000025749208,8|0,0:0|0:0,0:0:0:0:
332,292,6556,1,0,0:0:0:0:
332,292,6727,1,0,0:0:0:0:
387,192,6899,2,0,P|417:175|449:167,1,67.5000025749208,8|0,0:0|0:0,0:0:0:0:
300,111,7242,6,0,P|270:127|238:135,1,67.5000025749208,0|0,0:0|0:0,0:0:0:0:
68,176,7585,2,0,L|136:216,1,67.5000025749208,8|0,0:0|0:0,0:0:0:0:
224,268,7927,1,0,0:0:0:0:
224,268,8099,1,0,0:0:0:0:
280,173,8270,2,0,P|296:144|299:110,1,67.5000025749208,8|0,0:0|0:0,0:0:0:0:
384,244,8613,6,0,L|384:311,1,67.5000025749208,2|0,0:0|0:0,0:0:0:0:
448,148,8956,2,0,L|448:80,1,67.5000025749208,8|0,0:0|0:0,0:0:0:0:
360,152,9299,1,0,0:0:0:0:
468,240,9470,1,0,0:0:0:0:
447,80,9642,2,0,P|418:63|386:55,1,67.5000025749208,8|0,0:0|0:0,0:0:0:0:
252,120,9985,6,0,P|222:136|190:144,1,67.5000025749208,4|0,0:0|0:0,0:0:0:0:
56,128,10327,1,12,0:0:0:0:
168,40,10499,1,0,0:0:0:0:
272,216,10670,1,4,0:0:0:0:
84,232,10842,1,0,0:0:0:0:
252,119,11013,2,0,P|285:123|314:140,1,67.5000025749208,12|0,0:0|0:0,0:0:0:0:
463,216,11356,6,0,L|433:85,1,135.000005149842,4|8,0:0|0:0,0:0:0:0:
341,57,11870,1,0,0:0:0:0:
341,57,12042,2,0,L|329:141,1,67.5000025749208,0|0,0:0|0:0,0:0:0:0:
265,274,12385,2,0,L|256:208,1,67.5000025749208,8|0,0:0|0:0,0:0:0:0:
96,85,12727,6,0,L|227:115,1,135.000005149842,0|8,0:0|0:0,0:0:0:0:
255,207,13241,1,0,0:0:0:0:
255,207,13413,2,0,L|171:219,1,67.5000025749208,0|0,0:0|0:0,0:0:0:0:
38,283,13756,2,0,L|123:310,1,90,12|0,0:0|0:0,0:0:0:0:
240,352,14099,6,0,L|287:304,2,67.5000025749208,4|0|8,0:0|0:0|0:0,0:0:0:0:
376,292,14613,1,0,0:0:0:0:
255,207,14785,2,0,L|322:207,2,67.5000025749208,0|0|8,0:0|0:0|0:0,0:0:0:0:
148,304,15299,1,0,0:0:0:0:
105,167,15470,6,0,L|172:156,1,67.5000025749208,2|0,0:0|0:0,0:0:0:0:
260,64,15813,2,0,L|193:75,1,67.5000025749208,8|0,0:0|0:0,0:0:0:0:
92,196,16156,2,0,L|172:224,1,67.5000025749208,0|0,0:0|0:0,0:0:0:0:
280,48,16499,2,0,L|216:25,1,67.5000025749208,8|0,0:0|0:0,0:0:0:0:
255,207,16842,5,6,0:0:0:0:
336,156,17185,1,10,0:0:0:0:
428,172,17527,1,2,0:0:0:0:
484,248,17870,1,10,0:0:0:0:
359,297,18042,1,0,0:0:0:0:
359,297,18127,1,0,0:0:0:0:
359,297,18213,5,6,0:0:0:0:
428,172,18556,1,10,0:0:0:0:
280,200,18899,1,2,0:0:0:0:
332,60,19242,1,10,0:0:0:0:
332,60,19413,1,0,0:0:0:0:
144,132,19585,5,6,0:0:0:0:
160,244,19756,1,2,0:0:0:0:
268,200,19927,1,10,0:0:0:0:
292,312,20099,1,2,0:0:0:0:
280,172,20270,5,6,0:0:0:0:
172,268,20442,1,2,0:0:0:0:
128,132,20613,1,10,0:0:0:0:
28,232,20785,1,2,0:0:0:0:
156,108,20956,5,6,0:0:0:0:
192,96,21041,1,2,0:0:0:0:
230,94,21127,1,2,0:0:0:0:
268,101,21213,1,2,0:0:0:0:
303,116,21298,1,2,0:0:0:0:
333,139,21384,1,2,0:0:0:0:
358,168,21470,1,2,0:0:0:0:
374,203,21556,1,2,0:0:0:0:
384,240,21642,6,0,L|428:264,1,38.2500007295609,2|2,0:0|0:0,0:0:0:0:
336,324,21813,2,0,L|372:380,1,38.2500007295609,2|2,0:0|0:0,0:0:0:0:
224,264,21985,5,8,0:0:0:0:
268,104,22156,1,8,0:0:0:0:
88,204,22327,6,0,B|108:174|92:138|92:138|128:106|128:106|108:82|132:42,1,180,6|8,0:0|0:0,0:0:0:0:
192,176,22842,1,0,0:0:0:0:
300,108,23013,2,0,P|342:123|380:146,1,90,2|2,0:0|0:0,0:0:0:0:
452,80,23356,1,8,0:0:0:0:
311,207,23527,1,0,0:0:0:0:
255,28,23699,6,0,P|223:58|211:101,1,90,2|0,0:0|0:0,0:0:0:0:
228,228,24042,1,8,0:0:0:0:
300,108,24213,1,0,0:0:0:0:
165,89,24385,2,0,P|121:87|82:109,1,90,2|2,0:0|0:0,0:0:0:0:
228,228,24727,2,0,P|271:229|310:207,1,90,8|0,0:0|0:0,0:0:0:0:
176,167,25070,6,0,P|149:248|211:306,1,180,6|8,0:0|0:0,0:0:0:0:
348,312,25585,1,2,0:0:0:0:
400,200,25756,2,0,L|311:207,1,90,2|2,0:0|0:0,0:0:0:0:
130,304,26099,2,0,L|219:310,1,90,8|0,0:0|0:0,0:0:0:0:
424,204,26442,5,2,0:0:0:0:
348,312,26613,1,0,0:0:0:0:
280,124,26785,1,8,0:0:0:0:
228,228,26956,1,2,0:0:0:0:
280,124,27127,5,2,0:0:0:0:
348,312,27299,1,2,0:0:0:0:
424,204,27470,1,8,0:0:0:0:
228,228,27642,1,0,0:0:0:0:
396,96,27813,22,0,L|351:173,1,90,2|0,0:0|0:0,0:0:0:0:
227,227,28156,2,0,P|183:224|138:216,1,90,8|2,0:0|0:0,0:0:0:0:
40,192,28499,1,2,0:0:0:0:
144,324,28670,1,2,0:0:0:0:
160,128,28842,1,8,0:0:0:0:
248,84,29013,1,0,0:0:0:0:
227,227,29185,6,0,L|267:319,1,90,6|0,0:0|0:0,0:0:0:0:
340,228,29527,2,0,P|384:222|429:226,1,90,8|2,0:0|0:0,0:0:0:0:
512,280,29870,1,2,0:0:0:0:
396,132,30042,1,2,0:0:0:0:
384,332,30213,1,8,0:0:0:0:
288,356,30385,1,0,0:0:0:0:
340,228,30556,6,0,L|300:136,1,90,2|0,0:0|0:0,0:0:0:0:
223,244,30899,2,0,P|212:287|215:331,1,90,8|2,0:0|0:0,0:0:0:0:
292,128,31242,2,0,P|248:116|204:119,1,90,2|2,0:0|0:0,0:0:0:0:
380,248,31585,2,0,P|413:218|434:178,1,90,8|0,0:0|0:0,0:0:0:0:
214,275,31927,6,0,L|284:332,1,90,4|0,0:0|0:0,0:0:0:0:
336,168,32270,1,12,0:0:0:0:
312,136,32356,1,0,0:0:0:0:
280,112,32442,1,0,0:0:0:0:
240,108,32527,1,8,0:0:0:0:
196,120,32613,2,0,L|201:75,2,45,8|0|0,0:0|0:0|0:0,0:0:0:0:
184,236,32956,1,8,0:0:0:0:
48,252,33127,1,8,0:0:0:0:
60,296,33213,1,8,0:0:0:0:
85,332,33299,6,0,B|172:304|172:372|257:358,1,180,12|8,0:0|0:0,0:0:0:0:
356,352,33813,1,2,0:0:0:0:
368,248,33985,1,2,0:0:0:0:
484,316,34156,1,2,0:0:0:0:
355,223,34327,2,0,P|311:221|268:233,1,90,8|0,0:0|0:0,0:0:0:0:
172,322,34670,6,0,P|128:334|84:331,1,90,2|0,0:0|0:0,0:0:0:0:
4,248,35013,1,8,0:0:0:0:
52,140,35185,1,2,0:0:0:0:
120,236,35356,1,2,0:0:0:0:
200,112,35527,1,2,0:0:0:0:
259,312,35699,2,0,P|214:309|171:321,1,90,8|0,0:0|0:0,0:0:0:0:
318,200,36042,6,0,B|308:245|308:245|364:304|320:368,1,180,6|8,0:0|0:0,0:0:0:0:
400,236,36556,1,2,0:0:0:0:
259,312,36727,2,0,P|214:314|171:302,1,90,2|2,0:0|0:0,0:0:0:0:
80,228,37070,1,8,0:0:0:0:
120,368,37242,1,0,0:0:0:0:
244,156,37413,6,0,B|300:164|319:203|319:203|352:164|395:167,1,180,2|8,0:0|0:0,0:0:0:0:
244,244,37927,1,2,0:0:0:0:
324,92,38099,1,2,0:0:0:0:
392,256,38270,1,2,0:0:0:0:
244,156,38442,2,0,P|201:144|156:140,1,90,8|0,0:0|0:0,0:0:0:0:
166,305,38785,6,0,L|180:348,3,45,6|0|0|0,0:0|0:0|0:0|0:0,0:0:0:0:
260,332,39128,2,0,L|296:360,3,45,2|0|0|0,0:0|0:0|0:0|0:0,0:0:0:0:
332,288,39471,2,0,L|377:282,3,45,2|0|0|0,0:0|0:0|0:0|0:0,0:0:0:0:
398,205,39814,2,0,L|409:162,3,45,2|0|0|0,0:0|0:0|0:0|0:0,0:0:0:0:
413,126,40156,5,6,0:0:0:0:
393,100,40242,1,0,0:0:0:0:
365,81,40327,1,0,0:0:0:0:
332,73,40413,1,0,0:0:0:0:
299,77,40499,1,2,0:0:0:0:
268,91,40585,1,0,0:0:0:0:
245,115,40670,1,0,0:0:0:0:
231,146,40756,1,0,0:0:0:0:
219,182,40842,1,2,0:0:0:0:
211,215,40927,1,0,0:0:0:0:
193,243,41013,1,0,0:0:0:0:
166,263,41099,1,0,0:0:0:0:
135,273,41185,2,0,L|136:317,3,45,2|0|0|0,0:0|0:0|0:0|0:0,0:0:0:0:
57,286,41527,6,0,L|57:218,1,45,6|0,0:0|0:0,0:0:0:0:
13,242,41699,2,0,L|13:174,1,45,2|0,0:0|0:0,0:0:0:0:
64,128,41870,6,0,L|64:83,1,45,2|0,0:0|0:0,0:0:0:0:
108,84,42042,2,0,L|108:39,1,45,2|0,0:0|0:0,0:0:0:0:
193,14,42213,6,0,L|193:59,1,45,6|0,0:0|0:0,0:0:0:0:
237,138,42384,2,0,L|237:183,1,45,2|0,0:0|0:0,0:0:0:0:
280,32,42556,2,0,L|280:77,1,45,2|0,0:0|0:0,0:0:0:0:
324,156,42727,2,0,L|324:201,1,45,2|0,0:0|0:0,0:0:0:0:
360,88,42898,5,6,0:0:0:0:
360,65,42985,1,2,0:0:0:0:
360,43,43069,1,2,0:0:0:0:
360,20,43155,1,2,0:0:0:0:
384,40,43241,1,2,0:0:0:0:
411,59,43326,1,2,0:0:0:0:
443,68,43412,1,2,0:0:0:0:
476,66,43498,1,2,0:0:0:0:
507,52,43585,6,0,L|512:8,1,45,2|2,0:0|0:0,0:0:0:0:
411,59,43756,2,0,L|416:103,1,45,2|2,0:0|0:0,0:0:0:0:
304,28,43927,5,8,0:0:0:0:
232,124,44099,1,8,0:0:0:0:
104,44,44270,5,4,0:0:0:0:
256,192,52499,12,2,54727,0:0:0:0:
124,100,54899,5,8,0:0:0:0:
136,87,55242,6,0,P|180:88|220:108,1,90,6|0,0:0|0:0,0:0:0:0:
292,204,55585,2,0,P|335:212|379:202,1,90,8|2,0:0|0:0,0:0:0:0:
456,144,55927,1,2,0:0:0:0:
344,84,56099,1,2,0:0:0:0:
220,108,56270,2,0,P|183:133|160:172,1,90,8|0,0:0|0:0,0:0:0:0:
152,340,56613,5,2,0:0:0:0:
272,292,56785,1,0,0:0:0:0:
108,256,56956,1,8,0:0:0:0:
296,374,57127,2,0,P|355:312|330:230,1,180,2|2,0:0|0:0,0:0:0:0:
259,151,57642,1,8,0:0:0:0:
360,104,57813,1,0,0:0:0:0:
172,104,57985,6,0,P|161:147|171:190,1,90,6|0,0:0|0:0,0:0:0:0:
256,284,58327,1,8,0:0:0:0:
132,272,58499,1,2,0:0:0:0:
259,150,58670,2,0,P|301:137|346:137,1,90,2|2,0:0|0:0,0:0:0:0:
172,104,59013,2,0,P|127:105|84:92,1,90,8|2,0:0|0:0,0:0:0:0:
346,137,59356,6,0,P|378:167|400:207,1,90,2|0,0:0|0:0,0:0:0:0:
424,308,59699,1,8,0:0:0:0:
266,133,59870,2,0,P|315:63|399:75,1,180,0|2,0:0|0:0,0:0:0:0:
405,208,60385,1,8,0:0:0:0:
351,138,60556,1,0,0:0:0:0:
319,310,60727,6,0,L|304:268,3,45,6|0|0|0,0:0|0:0|0:0|0:0,0:0:0:0:
228,244,61070,2,0,L|244:200,3,45,2|0|0|0,0:0|0:0|0:0|0:0,0:0:0:0:
164,180,61413,2,0,L|148:137,3,45,2|0|0|0,0:0|0:0|0:0|0:0,0:0:0:0:
72,113,61756,2,0,L|88:69,3,45,2|0|0|0,0:0|0:0|0:0|0:0,0:0:0:0:
160,36,62099,5,6,0:0:0:0:
204,28,62184,1,0,0:0:0:0:
249,29,62270,1,0,0:0:0:0:
293,37,62356,1,0,0:0:0:0:
335,54,62442,2,0,L|392:48,3,45,2|0|0|0,0:0|0:0|0:0|0:0,0:0:0:0:
452,88,62785,1,2,0:0:0:0:
459,133,62870,1,0,0:0:0:0:
458,178,62956,1,0,0:0:0:0:
450,222,63042,1,0,0:0:0:0:
433,264,63128,2,0,L|439:320,3,45,2|0|0|0,0:0|0:0|0:0|0:0,0:0:0:0:
356,312,63470,6,0,L|288:312,1,45,6|0,0:0|0:0,0:0:0:0:
312,356,63642,2,0,L|244:356,1,45,2|0,0:0|0:0,0:0:0:0:
232,276,63813,6,0,L|187:276,1,45,2|0,0:0|0:0,0:0:0:0:
188,232,63985,2,0,L|143:232,1,45,2|0,0:0|0:0,0:0:0:0:
88,148,64156,6,0,L|133:148,1,45,6|0,0:0|0:0,0:0:0:0:
212,105,64327,2,0,L|257:105,1,45,2|0,0:0|0:0,0:0:0:0:
328,61,64499,2,0,L|384:60,1,45,2|0,0:0|0:0,0:0:0:0:
444,16,64671,2,0,L|489:16,1,45,2|0,0:0|0:0,0:0:0:0:
452,132,64842,6,0,L|423:167,3,45,6|2|2|2,0:0|0:0|0:0|0:0,0:0:0:0:
388,164,65185,1,2,0:0:0:0:
367,191,65270,1,2,0:0:0:0:
347,218,65356,1,2,0:0:0:0:
326,244,65442,1,2,0:0:0:0:
292,244,65527,2,0,L|263:279,3,45,2|2|2|2,0:0|0:0|0:0|0:0,0:0:0:0:
220,280,65870,1,8,0:0:0:0:
184,168,66042,1,8,0:0:0:0:
104,316,66213,5,6,0:0:0:0:
96,328,66727,1,2,0:0:0:0:
64,196,66899,2,0,L|140:208,1,67.5000025749208,8|0,0:0|0:0,0:0:0:0:
256,156,67242,2,0,L|180:144,1,67.5000025749208,0|2,0:0|0:0,0:0:0:0:
288,236,67585,2,0,L|364:248,1,67.5000025749208,2|0,0:0|0:0,0:0:0:0:
480,196,67927,1,8,0:0:0:0:
480,196,68013,1,0,0:0:0:0:
480,196,68099,2,0,L|404:184,1,67.5000025749208,0|8,0:0|0:0,0:0:0:0:
320,168,68442,1,2,0:0:0:0:
328,68,68613,1,0,0:0:0:0:
224,140,68785,1,2,0:0:0:0:
344,60,68956,5,6,0:0:0:0:
344,60,69127,2,0,P|283:32|217:43,1,135.000005149842,0|2,0:0|0:0,0:0:0:0:
120,107,69642,2,0,P|87:115|53:110,2,67.5000025749208,8|0|2,0:0|0:0|0:0,0:0:0:0:
220,116,70156,1,2,0:0:0:0:
220,116,70327,6,0,L|212:204,2,67.5000025749208,2|2|2,0:0|0:0|0:0,0:0:0:0:
316,196,70842,1,2,0:0:0:0:
392,100,71013,2,0,L|388:56,1,33.7500012874604,8|0,0:0|0:0,0:0:0:0:
472,160,71185,2,0,L|476:204,1,33.7500012874604,8|0,0:0|0:0,0:0:0:0:
472,288,71356,1,0,0:0:0:0:
444,308,71441,1,0,0:0:0:0:
412,316,71527,1,0,0:0:0:0:
375,323,71613,1,0,0:0:0:0:
343,315,71699,6,0,L|253:315,1,90,12|0,0:0|0:0,0:0:0:0:
116,244,72042,2,0,L|205:243,1,90,8|2,0:0|0:0,0:0:0:0:
360,244,72385,1,8,0:0:0:0:
304,136,72556,1,2,0:0:0:0:
456,160,72727,1,8,0:0:0:0:
384,60,72899,1,2,0:0:0:0:
360,244,73070,6,0,P|331:277|290:296,1,90,12|0,0:0|0:0,0:0:0:0:
116,244,73413,2,0,P|145:210|186:191,1,90,8|0,0:0|0:0,0:0:0:0:
260,176,73670,1,0,0:0:0:0:
260,176,73756,2,0,P|300:156|330:123,1,90,8|2,0:0|0:0,0:0:0:0:
63,173,74099,2,0,P|82:213|115:243,1,90,8|2,0:0|0:0,0:0:0:0:
268,256,74442,6,0,P|308:275|338:308,1,90,12|2,0:0|0:0,0:0:0:0:
338,308,74699,1,2,0:0:0:0:
338,308,74785,1,2,0:0:0:0:
448,260,74956,1,8,0:0:0:0:
440,136,75127,1,2,0:0:0:0:
440,136,75213,1,2,0:0:0:0:
440,136,75299,1,2,0:0:0:0:
308,72,75470,2,0,P|278:105|237:124,1,90,8|2,0:0|0:0,0:0:0:0:
63,173,75813,6,0,P|91:256|177:291,1,180,4|0,0:0|0:0,0:0:0:0:
288,294,76327,1,4,0:0:0:0:
396,176,76499,6,0,P|392:112|372:68,1,90,0|4,0:0|0:0,0:0:0:0:
304,140,76842,5,2,0:0:0:0:
480,168,77013,1,2,0:0:0:0:
311,39,77185,6,0,P|222:73|206:166,1,198.000006042481,6|8,0:0|0:0,0:0:0:0:
240,271,77699,1,2,0:0:0:0:
391,172,77870,2,0,B|360:144|360:144|304:140,1,99.0000030212403,2|2,0:0|0:0,0:0:0:0:
152,239,78213,2,0,B|183:267|183:267|239:271,1,99.0000030212403,8|2,0:0|0:0,0:0:0:0:
416,180,78556,6,0,P|428:128|420:84,2,99.0000030212403,2|0|8,0:0|0:0|0:0,0:0:0:0:
320,312,79070,1,2,0:0:0:0:
299,325,79155,1,0,0:0:0:0:
275,335,79242,2,0,P|225:331|175:343,1,99.0000030212403,2|2,0:0|0:0,0:0:0:0:
176,212,79585,2,0,P|136:182|87:164,1,99.0000030212403,8|2,0:0|0:0,0:0:0:0:
291,69,79927,6,0,B|272:116|272:116|284:200|284:200|264:260,1,198.000006042481,6|8,0:0|0:0,0:0:0:0:
356,148,80442,1,2,0:0:0:0:
272,52,80613,2,0,P|224:37|175:38,1,99.0000030212403,2|2,0:0|0:0,0:0:0:0:
56,88,80956,1,8,0:0:0:0:
212,112,81127,1,2,0:0:0:0:
100,248,81299,6,0,P|57:271|8:267,1,99.0000030212403,2|0,0:0|0:0,0:0:0:0:
184,180,81642,2,0,P|204:224|198:272,1,99.0000030212403,8|2,0:0|0:0,0:0:0:0:
164,340,81899,1,0,0:0:0:0:
164,340,81985,2,0,P|209:358|257:350,1,99.0000030212403,2|2,0:0|0:0,0:0:0:0:
372,352,82327,1,8,0:0:0:0:
344,224,82499,1,2,0:0:0:0:
464,268,82670,6,0,L|444:172,1,99.0000030212403,6|2,0:0|0:0,0:0:0:0:
416,44,83013,1,8,0:0:0:0:
328,232,83185,2,0,B|234:267|233:199|134:244,1,198.000006042481,2|2,0:0|0:0,0:0:0:0:
281,163,83699,1,8,0:0:0:0:
184,316,83870,1,2,0:0:0:0:
184,316,83956,1,2,0:0:0:0:
183,316,84042,6,0,P|136:326|89:310,1,99.0000030212403,2|2,0:0|0:0,0:0:0:0:
32,196,84385,1,8,0:0:0:0:
184,42,84556,2,0,P|273:70|281:163,1,198.000006042481,2|2,0:0|0:0,0:0:0:0:
207,123,85070,1,8,0:0:0:0:
372,96,85242,1,2,0:0:0:0:
442,226,85413,6,0,B|400:256|400:256|316:248|316:248|278:272,1,180,6|8,0:0|0:0,0:0:0:0:
376,336,85927,1,2,0:0:0:0:
256,188,86099,2,0,P|218:164|174:155,2,90,2|0|8,0:0|0:0|0:0,0:0:0:0:
188,240,86613,1,0,0:0:0:0:
236,88,86785,1,6,0:0:0:0:
360,240,86956,5,2,0:0:0:0:
348,96,87127,1,8,0:0:0:0:
448,256,87299,1,2,0:0:0:0:
439,299,87384,1,0,0:0:0:0:
409,332,87470,2,0,L|360:344,1,45,8|0,0:0|0:0,0:0:0:0:
280,364,87642,2,0,L|230:352,1,45,2|0,0:0|0:0,0:0:0:0:
152,372,87813,1,8,0:0:0:0:
140,200,87985,2,0,L|120:148,1,45,2|0,0:0|0:0,0:0:0:0:
183,88,88156,6,0,P|274:115|299:207,1,198.000006042481,6|8,0:0|0:0,0:0:0:0:
372,120,88670,1,2,0:0:0:0:
215,176,88842,2,0,P|188:217|172:263,1,99.0000030212403,2|2,0:0|0:0,0:0:0:0:
64,223,89185,2,0,P|74:272|95:316,1,99.0000030212403,8|2,0:0|0:0,0:0:0:0:
331,295,89527,6,0,P|240:267|215:175,1,198.000006042481,2|8,0:0|0:0,0:0:0:0:
143,263,90041,1,2,0:0:0:0:
299,207,90213,2,0,P|326:165|342:119,1,99.0000030212403,2|2,0:0|0:0,0:0:0:0:
451,159,90556,2,0,P|440:110|419:66,1,99.0000030212403,8|2,0:0|0:0,0:0:0:0:
299,207,90899,6,0,P|303:255|332:295,1,99.0000030212403,6|0,0:0|0:0,0:0:0:0:
376,156,91242,2,0,P|339:123|290:116,1,99.0000030212403,8|2,0:0|0:0,0:0:0:0:
312,376,91585,2,0,P|360:372|400:343,1,99.0000030212403,2|2,0:0|0:0,0:0:0:0:
436,212,91927,1,8,0:0:0:0:
496,340,92099,1,2,0:0:0:0:
331,295,92270,6,0,P|283:299|243:328,1,99.0000030212403,2|0,0:0|0:0,0:0:0:0:
140,372,92613,1,8,0:0:0:0:
60,268,92785,2,0,P|48:220|53:171,1,99.0000030212403,2|2,0:0|0:0,0:0:0:0:
164,240,93127,1,2,0:0:0:0:
236,136,93299,1,8,0:0:0:0:
320,264,93470,1,2,0:0:0:0:
400,140,93642,5,6,0:0:0:0:
371,105,93727,1,0,0:0:0:0:
334,80,93813,1,0,0:0:0:0:
292,66,93899,1,0,0:0:0:0:
247,64,93985,6,0,L|231:21,3,45,2|0|0|0,0:0|0:0|0:0|0:0,0:0:0:0:
188,112,94327,2,0,L|172:154,3,45,2|0|0|0,0:0|0:0|0:0|0:0,0:0:0:0:
108,200,94670,2,0,L|116:260,3,45,2|0|0|0,0:0|0:0|0:0|0:0,0:0:0:0:
64,336,95013,5,6,0:0:0:0:
97,343,95098,1,0,0:0:0:0:
131,345,95184,1,0,0:0:0:0:
164,338,95270,1,0,0:0:0:0:
195,326,95355,1,2,0:0:0:0:
227,313,95441,1,0,0:0:0:0:
260,306,95527,1,0,0:0:0:0:
293,310,95613,1,0,0:0:0:0:
325,321,95699,6,0,L|347:360,3,45,2|0|0|0,0:0|0:0|0:0|0:0,0:0:0:0:
384,264,96042,2,0,L|407:225,3,45,2|0|0|0,0:0|0:0|0:0|0:0,0:0:0:0:
316,160,96385,6,0,L|344:100,1,45,6|0,0:0|0:0,0:0:0:0:
268,84,96556,2,0,L|276:16,1,45,2|0,0:0|0:0,0:0:0:0:
196,40,96727,2,0,L|152:0,1,45,10|0,0:0|0:0,0:0:0:0:
88,24,96899,2,0,L|24:16,1,45,2|0,0:0|0:0,0:0:0:0:
112,128,97070,6,0,L|84:188,1,45,6|0,0:0|0:0,0:0:0:0:
160,204,97241,2,0,L|152:272,1,45,2|0,0:0|0:0,0:0:0:0:
232,248,97413,2,0,L|276:288,1,45,10|0,0:0|0:0,0:0:0:0:
340,264,97584,2,0,L|404:272,1,45,2|0,0:0|0:0,0:0:0:0:
388,164,97756,5,6,0:0:0:0:
363,135,97841,1,2,0:0:0:0:
332,112,97927,1,2,0:0:0:0:
297,96,98013,1,2,0:0:0:0:
259,87,98099,1,2,0:0:0:0:
221,86,98184,1,2,0:0:0:0:
183,92,98270,1,2,0:0:0:0:
147,106,98356,1,2,0:0:0:0:
112,128,98442,6,0,L|114:83,1,45,2|2,0:0|0:0,0:0:0:0:
32,208,98613,2,0,L|29:252,1,45,2|2,0:0|0:0,0:0:0:0:
127,326,98785,5,8,0:0:0:0:
180,220,98956,1,8,0:0:0:0:
268,364,99127,5,4,0:0:0:0:
