osu file format v14

[General]
AudioFilename: K-On! - Touched by an angel (Asterisk DnB Remix).mp3
AudioLeadIn: 2000
PreviewTime: 77099
Countdown: 0
SampleSet: Soft
StackLeniency: 0.7
Mode: 0
LetterboxInBreaks: 0
EpilepsyWarning: 1
WidescreenStoryboard: 1

[Editor]
Bookmarks: 385,11356,19585,22327,38785,44270,54899,60727,66213,85413,88156,93642,99127
DistanceSpacing: 1.1
BeatDivisor: 4
GridSize: 8
TimelineZoom: 1.7

[Metadata]
Title:Tenshi ni Fureta yo! (Asterisk DnB Remix)
TitleUnicode:天使にふれたよ!(Asterisk DnB Remix)
Artist:HO-KAGO TEA TIME
ArtistUnicode:放課後ティータイム
Creator:Sotarks
Version:Heaven
Source:K-ON!!
Tags:HTT Keion Yui Hirasawa Mio Akiyama Ritsu Tainaka Tsumugi Kotobuki Azusa Nakano Toyosaki Aki Hikasa Yoko Sato Satomi Minako Taketatsu Ayana Works3 Linada Del05 Aihuro ReFaller HB24 Touched by an Angel
BeatmapID:821691
BeatmapSetID:373858

[Difficulty]
HPDrainRate:6.5
CircleSize:4
OverallDifficulty:8
ApproachRate:9
SliderMultiplier:1.6
SliderTickRate:1

[Events]
//Background and Video events
0,0,"BG.jpg",0,0
//Break Periods
2,44470,54127
//Storyboard Layer 0 (Background)
//Storyboard Layer 1 (Fail)
//Storyboard Layer 2 (Pass)
//Storyboard Layer 3 (Foreground)
//Storyboard Sound Samples

[TimingPoints]
385,342.857142857143,4,2,1,70,1,0
385,-133.333333333333,4,3,1,40,0,0
556,-133.333333333333,4,2,1,40,0,0
727,-133.333333333333,4,2,1,40,0,0
1756,-133.333333333333,4,2,1,45,0,0
3127,-133.333333333333,4,2,1,50,0,0
4499,-133.333333333333,4,2,1,55,0,0
5870,-133.333333333333,4,2,1,60,0,0
7242,-133.333333333333,4,2,1,60,0,0
11356,-133.333333333333,4,3,1,75,0,0
11699,-133.333333333333,4,2,1,75,0,0
16842,-133.333333333333,4,2,2,80,0,0
20956,-83.3333333333333,4,2,2,70,0,0
21985,-83.3333333333333,4,3,1,60,0,0
22327,-100,4,2,2,90,0,0
31927,-100,4,2,1,90,0,0
32270,-100,4,2,2,90,0,0
32442,-100,4,3,1,90,0,0
32956,-100,4,2,2,90,0,0
33127,-100,4,3,1,90,0,0
33642,-100,4,2,2,90,0,0
38785,-133.333333333333,4,2,2,90,0,0
40156,-100,4,2,2,90,0,0
41527,-100,4,2,2,90,0,0
42899,-100,4,2,2,90,0,0
43927,-83.3333333333333,4,3,1,90,0,0
53870,-100,4,2,2,60,0,0
54899,-100,4,3,1,60,0,0
55242,-100,4,2,2,75,0,0
65870,-83.3333333333333,4,3,1,75,0,0
66213,-100,4,3,1,50,0,0
71699,-100,4,3,1,50,0,0
75813,-142.857142857143,4,2,2,50,0,0
76156,-111.111111111111,4,2,1,60,0,0
76499,-90.9090909090909,4,2,1,70,0,0
77185,-90.9090909090909,4,2,2,90,0,1
85413,-100,4,2,2,80,0,0
87470,-100,4,3,1,80,0,0
87642,-100,4,2,2,80,0,0
87985,-100,4,3,1,80,0,0
88156,-90.9090909090909,4,2,2,90,0,1
93642,-100,4,2,2,80,0,0
98785,-83.3333333333333,4,3,1,80,0,0

[Colours]
Combo1 : 181,255,145
Combo2 : 247,205,108
Combo3 : 255,157,157
Combo4 : 168,183,255

[HitObjects]
136,216,385,6,0,P|160:256|192:272,2,60.0000022888184,4|0|8,0:0|0:0|0:0,0:0:0:0:
214,196,899,2,0,L|262:156,1,60.0000022888184,0|4,0:0|0:0,0:0:0:0:
357,186,1242,1,0,0:0:0:0:
312,280,1414,2,0,L|240:280,1,60.0000022888184,8|0,0:0|0:0,0:0:0:0:
430,149,1756,6,0,P|414:125|382:109,2,60.0000022888184,4|0|8,0:0|0:0|0:0,0:0:0:0:
357,186,2270,2,0,L|280:184,1,60.0000022888184
214,196,2613,1,0,0:0:0:0:
206,280,2785,2,0,L|253:318,1,60.0000022888184,12|0,0:0|0:0,0:0:0:0:
148,135,3127,6,0,P|129:161|124:191,2,60.0000022888184,2|0|8,0:0|0:0|0:0,0:0:0:0:
214,196,3642,2,0,L|279:214,1,60.0000022888184
376,224,3985,1,0,0:0:0:0:
376,120,4156,2,0,L|312:120,1,60.0000022888184,8|0,0:0|0:0,0:0:0:0:
342,298,4499,6,0,P|374:306|406:298,2,60.0000022888184,4|0|8,0:0|0:0|0:0,0:0:0:0:
225,248,5013,1,0,0:0:0:0:
328,156,5185,1,0,0:0:0:0:
177,122,5356,1,0,0:0:0:0:
320,48,5527,1,8,0:0:0:0:
320,48,5699,1,0,0:0:0:0:
147,265,5870,6,0,P|163:301|199:320,1,60.0000022888184
225,248,6213,1,8,0:0:0:0:
140,168,6385,1,0,0:0:0:0:
328,156,6556,2,0,P|371:175|386:204,1,60.0000022888184
308,247,6899,1,8,0:0:0:0:
223,167,7071,1,0,0:0:0:0:
320,48,7242,6,0,L|400:48,2,60.0000022888184,0|0|8,0:0|0:0|0:0,0:0:0:0:
328,156,7756,1,0,0:0:0:0:
384,250,7927,2,0,L|424:296,1,60.0000022888184
335,314,8270,2,0,L|296:360,1,60.0000022888184,8|0,0:0|0:0,0:0:0:0:
120,280,8613,5,2,0:0:0:0:
160,128,8785,1,0,0:0:0:0:
224,200,8956,1,8,0:0:0:0:
96,200,9127,1,0,0:0:0:0:
56,104,9299,2,0,L|8:56,1,60.0000022888184
88,32,9642,2,0,L|148:32,1,60.0000022888184,8|0,0:0|0:0,0:0:0:0:
224,200,9985,5,4,0:0:0:0:
160,128,10156,1,0,0:0:0:0:
240,56,10327,2,0,L|304:56,1,60.0000022888184,12|0,0:0|0:0,0:0:0:0:
472,224,10671,5,4,0:0:0:0:
392,161,10842,1,0,0:0:0:0:
472,320,11013,2,0,L|392:320,1,60.0000022888184,12|0,0:0|0:0,0:0:0:0:
289,317,11356,6,0,P|334:280|356:224,1,120.000004577637,4|8,0:0|0:0,0:0:0:0:
260,223,11870,1,0,0:0:0:0:
168,312,12042,2,0,L|104:312,1,60.0000022888184,0|0,0:0|0:0,0:0:0:0:
16,216,12385,2,0,L|88:216,1,60.0000022888184,8|0,0:0|0:0,0:0:0:0:
260,223,12727,6,0,P|282:164|331:131,1,120.000004577637,0|8,0:0|0:0,0:0:0:0:
356,224,13242,1,0,0:0:0:0:
200,293,13413,2,0,P|169:263|166:232,1,60.0000022888184,0|0,0:0|0:0,0:0:0:0:
327,132,13756,2,0,P|316:159|292:177,1,60.0000022888184,12|0,0:0|0:0,0:0:0:0:
257,62,14099,6,0,P|303:38|382:49,1,120.000004577637,4|8,0:0|0:0,0:0:0:0:
327,132,14613,1,0,0:0:0:0:
168,160,14785,2,0,L|128:104,1,60.0000022888184,0|0,0:0|0:0,0:0:0:0:
226,266,15127,2,0,L|261:218,1,60.0000022888184,8|0,0:0|0:0,0:0:0:0:
167,342,15470,6,0,B|207:371|247:361|247:361|303:377,2,120.000004577637,2|8|0,0:0|0:0|0:0,0:0:0:0:
104,232,16327,1,0,0:0:0:0:
176,104,16499,2,0,L|240:104,1,60.0000022888184,8|0,0:0|0:0,0:0:0:0:
312,240,16842,5,6,0:0:0:0:
432,208,17185,1,10,0:0:0:0:
432,88,17527,1,2,0:0:0:0:
312,56,17870,1,10,0:0:0:0:
192,120,18213,1,6,0:0:0:0:
72,64,18556,1,10,0:0:0:0:
3,176,18899,1,2,0:0:0:0:
118,241,19242,1,10,0:0:0:0:
118,241,19585,5,6,0:0:0:0:
304,168,19756,1,2,0:0:0:0:
112,104,19927,1,10,0:0:0:0:
224,288,20099,1,2,0:0:0:0:
216,40,20270,1,6,0:0:0:0:
118,241,20442,1,2,0:0:0:0:
328,168,20613,1,10,0:0:0:0:
112,104,20785,1,2,0:0:0:0:
272,288,20956,5,6,0:0:0:0:
231,299,21042,1,2,0:0:0:0:
189,302,21127,1,2,0:0:0:0:
148,289,21213,1,2,0:0:0:0:
127,253,21299,5,2,0:0:0:0:
161,228,21384,1,2,0:0:0:0:
175,188,21470,1,2,0:0:0:0:
163,147,21556,1,2,0:0:0:0:
129,122,21641,1,2,0:0:0:0:
87,120,21727,1,2,0:0:0:0:
52,144,21813,1,2,0:0:0:0:
38,184,21899,1,2,0:0:0:0:
31,221,21985,6,0,B|68:232|68:232|117:179,1,95.9999970703126,8|8,0:0|0:0,0:0:0:0:
258,128,22327,6,0,P|253:90|224:64,1,80,6|0,0:0|0:0,0:0:0:0:
336,112,22670,2,0,P|336:152|304:192,1,80,8|0,0:0|0:0,0:0:0:0:
199,241,23013,1,2,0:0:0:0:
199,241,23185,1,2,0:0:0:0:
101,161,23356,2,0,P|144:123|183:116,1,80,8|0,0:0|0:0,0:0:0:0:
199,241,23699,6,0,L|104:304,1,80,2|0,0:0|0:0,0:0:0:0:
248,168,24042,2,0,L|303:227,1,80,8|0,0:0|0:0,0:0:0:0:
101,161,24385,1,2,0:0:0:0:
101,161,24556,1,2,0:0:0:0:
172,71,24727,2,0,P|144:47|100:36,1,80,8|0,0:0|0:0,0:0:0:0:
249,92,25070,6,0,P|251:53|233:18,1,80,6|0,0:0|0:0,0:0:0:0:
303,152,25413,2,0,P|328:113|321:64,1,80,8|2,0:0|0:0,0:0:0:0:
190,162,25756,1,2,0:0:0:0:
190,162,25927,1,2,0:0:0:0:
158,265,26099,2,0,P|120:251|95:221,1,80,8|0,0:0|0:0,0:0:0:0:
126,339,26442,6,0,P|164:346|201:332,1,80,2|0,0:0|0:0,0:0:0:0:
272,290,26785,2,0,P|282:336|275:368,1,80,8|2,0:0|0:0,0:0:0:0:
187,231,27127,1,2,0:0:0:0:
328,152,27299,1,2,0:0:0:0:
168,112,27470,1,8,0:0:0:0:
309,33,27642,1,0,0:0:0:0:
384,272,27813,6,0,B|336:272|320:288|320:288|296:280|296:280|264:304|208:288,1,160,2|8,0:0|0:0,0:0:0:0:
240,184,28327,1,2,0:0:0:0:
96,264,28499,1,2,0:0:0:0:
144,144,28670,1,2,0:0:0:0:
232,292,28842,1,8,0:0:0:0:
48,176,29013,1,0,0:0:0:0:
176,40,29185,6,0,B|216:56|248:40|248:40|272:48|272:48|312:32|344:48,1,160,6|8,0:0|0:0,0:0:0:0:
312,152,29699,1,2,0:0:0:0:
496,268,29870,1,2,0:0:0:0:
408,120,30042,1,2,0:0:0:0:
360,240,30213,1,8,0:0:0:0:
504,160,30385,1,0,0:0:0:0:
376,335,30556,6,0,P|297:314|263:237,1,160,2|8,0:0|0:0,0:0:0:0:
410,158,31070,1,2,0:0:0:0:
360,240,31242,1,2,0:0:0:0:
280,112,31413,1,2,0:0:0:0:
263,248,31585,1,8,0:0:0:0:
368,80,31756,1,0,0:0:0:0:
160,104,31927,6,0,P|122:120|100:165,1,80,4|0,0:0|0:0,0:0:0:0:
236,278,32270,2,0,P|221:223|169:175,1,120,12|8,0:0|0:0,0:0:0:0:
124,278,32613,2,0,P|100:294|60:318,2,40,8|0|0,0:0|0:0|0:0,0:0:0:0:
48,216,32956,1,8,0:0:0:0:
224,88,33127,1,8,0:0:0:0:
224,88,33213,1,8,0:0:0:0:
224,88,33299,6,0,B|240:128|295:135|295:135|310:177|249:194,1,160,12|8,0:0|0:0,0:0:0:0:
308,26,33813,1,2,0:0:0:0:
308,26,33985,1,2,0:0:0:0:
416,144,34156,1,2,0:0:0:0:
280,201,34327,2,0,L|192:201,1,80,8|0,0:0|0:0,0:0:0:0:
293,295,34670,6,0,P|354:263|367:162,1,160,2|8,0:0|0:0,0:0:0:0:
280,200,35185,1,2,0:0:0:0:
216,88,35356,1,2,0:0:0:0:
152,200,35527,1,2,0:0:0:0:
296,120,35699,1,8,0:0:0:0:
128,120,35870,1,0,0:0:0:0:
264,269,36042,6,0,B|318:266|349:215|349:215|362:270,1,160,6|8,0:0|0:0,0:0:0:0:
256,160,36556,1,2,0:0:0:0:
168,270,36727,2,0,P|175:309|201:340,1,80,2|2,0:0|0:0,0:0:0:0:
345,125,37070,2,0,P|324:91|274:66,1,80,8|0,0:0|0:0,0:0:0:0:
100,63,37413,6,0,P|56:116|64:212,1,160,2|8,0:0|0:0,0:0:0:0:
264,87,37927,1,2,0:0:0:0:
159,159,38099,1,2,0:0:0:0:
384,192,38270,1,2,0:0:0:0:
303,27,38442,2,0,P|264:16|225:27,1,80,8|0,0:0|0:0,0:0:0:0:
264,248,38785,5,6,0:0:0:0:
277,274,38870,1,0,0:0:0:0:
297,296,38956,1,0,0:0:0:0:
322,312,39042,1,0,0:0:0:0:
352,320,39127,2,0,L|376:368,3,30.0000011444092,10|0|0|0,0:0|0:0|0:0|0:0,0:0:0:0:
360,232,39470,5,2,0:0:0:0:
351,203,39555,1,0,0:0:0:0:
332,180,39641,1,0,0:0:0:0:
307,164,39727,1,0,0:0:0:0:
272,160,39813,2,0,L|256:120,3,30.0000011444092,10|0|0|0,0:0|0:0|0:0|0:0,0:0:0:0:
168,248,40156,6,0,L|136:272,3,40,6|0|0|0,0:0|0:0|0:0|0:0,0:0:0:0:
168,160,40499,2,0,L|120:160,3,40,14|0|0|0,0:0|0:0|0:0|0:0,0:0:0:0:
184,128,40842,1,2,0:0:0:0:
203,93,40927,1,0,0:0:0:0:
235,70,41013,1,0,0:0:0:0:
274,64,41099,1,0,0:0:0:0:
320,72,41185,2,0,L|344:32,3,40,10|0|0|0,0:0|0:0|0:0|0:0,0:0:0:0:
272,160,41527,5,6,0:0:0:0:
417,135,41699,1,2,0:0:0:0:
272,280,41870,1,2,0:0:0:0:
464,224,42042,1,2,0:0:0:0:
256,160,42213,1,6,0:0:0:0:
496,224,42385,1,2,0:0:0:0:
240,280,42556,1,2,0:0:0:0:
417,135,42727,1,2,0:0:0:0:
233,159,42899,5,6,0:0:0:0:
211,132,42984,1,2,0:0:0:0:
212,96,43070,1,2,0:0:0:0:
235,70,43156,1,2,0:0:0:0:
270,64,43241,1,2,0:0:0:0:
301,82,43327,1,2,0:0:0:0:
318,113,43413,1,2,0:0:0:0:
316,149,43498,1,2,0:0:0:0:
334,185,43585,5,2,0:0:0:0:
364,215,43670,1,2,0:0:0:0:
405,229,43755,1,2,0:0:0:0:
448,223,43841,1,2,0:0:0:0:
497,204,43927,5,8,0:0:0:0:
417,135,44099,1,8,0:0:0:0:
233,159,44270,5,4,0:0:0:0:
288,160,54727,5,2,0:0:0:0:
288,160,54899,1,8,0:0:0:0:
351,109,55242,6,0,P|296:80|212:128,1,160,6|8,0:0|0:0,0:0:0:0:
292,335,55756,2,0,P|328:304|344:256,1,80,2|2,0:0|0:0,0:0:0:0:
184,208,56099,2,0,P|210:237|248:248,1,80,2|8,0:0|0:0,0:0:0:0:
256,152,56442,1,0,0:0:0:0:
393,235,56613,5,2,0:0:0:0:
378,104,56785,1,0,0:0:0:0:
256,152,56956,1,8,0:0:0:0:
318,309,57127,2,0,B|284:317|253:297|253:297|227:310|227:310|202:290|139:297,1,160,2|2,0:0|0:0,0:0:0:0:
81,193,57642,1,8,0:0:0:0:
169,93,57813,1,0,0:0:0:0:
368,62,57985,6,0,P|380:100|372:139,1,80,6|0,0:0|0:0,0:0:0:0:
278,153,58327,2,0,P|289:190|318:218,1,80,8|2,0:0|0:0,0:0:0:0:
411,226,58670,2,0,P|402:264|374:292,1,80,2|2,0:0|0:0,0:0:0:0:
282,301,59013,2,0,P|294:346|332:373,1,80,8|2,0:0|0:0,0:0:0:0:
183,217,59356,5,2,0:0:0:0:
68,180,59527,1,0,0:0:0:0:
95,311,59699,1,8,0:0:0:0:
232,281,59870,2,0,P|264:212|224:146,1,160,0|2,0:0|0:0,0:0:0:0:
104,216,60385,2,0,L|183:217,1,80,8|0,0:0|0:0,0:0:0:0:
160,72,60727,5,6,0:0:0:0:
179,69,60812,1,0,0:0:0:0:
199,67,60898,1,0,0:0:0:0:
219,65,60984,1,0,0:0:0:0:
239,63,61069,1,2,0:0:0:0:
259,60,61155,1,0,0:0:0:0:
279,58,61241,1,0,0:0:0:0:
299,56,61326,1,0,0:0:0:0:
320,56,61413,6,0,L|352:104,3,40,2|0|0|0,0:0|0:0|0:0|0:0,0:0:0:0:
448,112,61756,2,0,L|416:64,3,40,2|0|0|0,0:0|0:0|0:0|0:0,0:0:0:0:
384,240,62099,5,6,0:0:0:0:
370,259,62184,1,0,0:0:0:0:
348,270,62270,1,0,0:0:0:0:
325,270,62356,1,0,0:0:0:0:
303,260,62441,1,2,0:0:0:0:
288,241,62527,1,0,0:0:0:0:
284,218,62613,1,0,0:0:0:0:
290,195,62698,1,0,0:0:0:0:
304,176,62785,6,0,L|272:144,3,40,2|0|0|0,0:0|0:0|0:0|0:0,0:0:0:0:
184,208,63127,2,0,L|200:272,3,40,2|0|0|0,0:0|0:0|0:0|0:0,0:0:0:0:
80,136,63470,5,6,0:0:0:0:
176,56,63642,1,2,0:0:0:0:
240,168,63813,1,2,0:0:0:0:
296,48,63985,1,2,0:0:0:0:
96,136,64156,1,6,0:0:0:0:
208,40,64327,1,2,0:0:0:0:
264,152,64499,1,2,0:0:0:0:
328,32,64670,1,2,0:0:0:0:
120,136,64842,5,6,0:0:0:0:
125,101,64927,1,2,0:0:0:0:
152,78,65013,1,2,0:0:0:0:
187,77,65099,1,2,0:0:0:0:
215,99,65184,1,2,0:0:0:0:
222,135,65270,1,2,0:0:0:0:
211,168,65356,1,2,0:0:0:0:
182,190,65441,1,2,0:0:0:0:
165,234,65528,5,2,0:0:0:0:
174,280,65613,1,2,0:0:0:0:
195,315,65698,1,2,0:0:0:0:
233,345,65784,1,2,0:0:0:0:
278,359,65870,5,8,0:0:0:0:
260,256,66042,1,8,0:0:0:0:
120,136,66213,6,0,P|111:228|176:272,1,160,6|2,0:0|0:0,0:0:0:0:
182,190,66727,1,2,0:0:0:0:
368,104,66899,1,8,0:0:0:0:
368,104,67242,6,0,L|320:176,1,80,0|2,0:0|0:0,0:0:0:0:
280,89,67585,2,0,L|192:113,1,80,2|0,0:0|0:0,0:0:0:0:
216,17,67927,1,8,0:0:0:0:
216,17,68013,1,0,0:0:0:0:
216,17,68099,1,0,0:0:0:0:
219,12,68270,2,0,B|267:12|267:12|243:68,1,80,8|2,0:0|0:0,0:0:0:0:
314,126,68613,1,0,0:0:0:0:
314,126,68785,1,2,0:0:0:0:
392,184,68956,6,0,L|480:160,1,80,6|0,0:0|0:0,0:0:0:0:
390,280,69299,2,0,L|310:240,1,80,2|2,0:0|0:0,0:0:0:0:
319,245,69642,1,8,0:0:0:0:
319,245,69985,2,0,P|287:281|279:313,1,80,2|2,0:0|0:0,0:0:0:0:
258,189,70327,6,0,P|294:167|333:165,1,80,2|2,0:0|0:0,0:0:0:0:
212,122,70670,2,0,P|183:158|179:200,1,80,2|2,0:0|0:0,0:0:0:0:
123,316,71013,1,8,0:0:0:0:
123,316,71185,1,8,0:0:0:0:
344,283,71527,1,0,0:0:0:0:
344,283,71699,6,0,P|372:234|326:123,1,160,12|8,0:0|0:0,0:0:0:0:
265,212,72213,1,2,0:0:0:0:
181,114,72385,1,8,0:0:0:0:
181,114,72556,1,2,0:0:0:0:
128,232,72727,1,8,0:0:0:0:
128,232,72899,1,2,0:0:0:0:
390,95,73070,6,0,B|407:135|386:165|386:165|401:180|401:180|385:208|397:251,1,160,12|8,0:0|0:0,0:0:0:0:
303,121,73585,1,0,0:0:0:0:
208,200,73756,1,8,0:0:0:0:
208,200,73927,1,2,0:0:0:0:
304,280,74099,1,8,0:0:0:0:
304,280,74270,1,2,0:0:0:0:
32,184,74442,5,12,0:0:0:0:
160,72,74613,1,2,0:0:0:0:
160,72,74699,1,2,0:0:0:0:
160,72,74785,1,2,0:0:0:0:
48,184,74956,1,8,0:0:0:0:
240,144,75127,1,2,0:0:0:0:
240,144,75213,1,2,0:0:0:0:
240,144,75299,1,2,0:0:0:0:
64,184,75470,2,0,L|144:184,1,80,8|2,0:0|0:0,0:0:0:0:
208,305,75813,6,0,P|239:303|268:270,1,55.9999982910157,4|0,0:0|0:0,0:0:0:0:
176,216,76156,6,0,P|144:232|122:293,1,71.9999978027344,0|4,0:0|0:0,0:0:0:0:
262,191,76499,6,0,P|232:136|170:129,1,88.000002685547,0|4,0:0|0:0,0:0:0:0:
75,160,76842,5,2,0:0:0:0:
75,160,77013,1,2,0:0:0:0:
283,85,77185,6,0,B|330:80|371:64|371:64|415:105|450:113,1,176.000005371094,6|8,0:0|0:0,0:0:0:0:
384,224,77699,1,2,0:0:0:0:
384,224,77870,1,2,0:0:0:0:
271,165,78042,1,2,0:0:0:0:
296,296,78213,2,0,L|211:319,1,88.000002685547,8|2,0:0|0:0,0:0:0:0:
193,223,78556,6,0,P|178:135|240:72,1,176.000005371094,2|8,0:0|0:0,0:0:0:0:
384,224,79070,1,2,0:0:0:0:
384,224,79242,1,2,0:0:0:0:
271,165,79413,1,2,0:0:0:0:
384,96,79585,2,0,L|480:96,1,88.000002685547,8|2,0:0|0:0,0:0:0:0:
336,336,79927,6,0,L|280:248,1,88.000002685547,6|0,0:0|0:0,0:0:0:0:
184,192,80270,2,0,L|192:304,1,88.000002685547,8|2,0:0|0:0,0:0:0:0:
80,192,80613,1,2,0:0:0:0:
80,192,80785,1,2,0:0:0:0:
128,100,80956,2,0,L|48:64,1,88.000002685547,8|2,0:0|0:0,0:0:0:0:
172,16,81299,6,0,P|212:56|180:176,1,176.000005371094,2|8,0:0|0:0,0:0:0:0:
304,86,81813,1,2,0:0:0:0:
304,86,81985,1,2,0:0:0:0:
392,184,82156,1,2,0:0:0:0:
304,296,82327,2,0,L|304:200,1,88.000002685547,8|2,0:0|0:0,0:0:0:0:
160,320,82670,5,6,0:0:0:0:
216,200,82842,1,2,0:0:0:0:
72,256,83013,1,8,0:0:0:0:
156,144,83185,2,0,P|218:117|294:183,1,176.000005371094,2|2,0:0|0:0,0:0:0:0:
293,180,83699,1,8,0:0:0:0:
392,272,83870,1,2,0:0:0:0:
392,272,83956,1,2,0:0:0:0:
392,272,84042,5,2,0:0:0:0:
288,352,84213,1,2,0:0:0:0:
293,180,84385,1,8,0:0:0:0:
285,268,84556,2,0,B|221:276|205:340|205:340|149:268,1,176.000005371094,2|2,0:0|0:0,0:0:0:0:
167,292,85070,1,8,0:0:0:0:
64,216,85242,1,2,0:0:0:0:
128,112,85413,6,0,B|176:104|200:128|200:128|232:112|232:112|256:128|304:128,1,160,6|8,0:0|0:0,0:0:0:0:
336,56,85927,1,2,0:0:0:0:
408,120,86099,2,0,P|408:160|384:200,1,80,2|0,0:0|0:0,0:0:0:0:
253,295,86442,2,0,P|259:242|288:208,1,80,8|0,0:0|0:0,0:0:0:0:
376,288,86785,5,6,0:0:0:0:
280,152,86956,1,2,0:0:0:0:
224,328,87127,1,8,0:0:0:0:
392,176,87299,1,2,0:0:0:0:
368,203,87384,1,0,0:0:0:0:
339,223,87470,1,8,0:0:0:0:
305,236,87556,1,0,0:0:0:0:
269,240,87641,1,2,0:0:0:0:
152,224,87813,1,8,0:0:0:0:
216,89,87985,1,2,0:0:0:0:
216,89,88070,1,0,0:0:0:0:
216,89,88156,6,0,B|176:121|117:91|117:91|152:169|152:169,1,176.000005371094,6|8,0:0|0:0,0:0:0:0:
167,24,88670,1,2,0:0:0:0:
167,24,88842,1,2,0:0:0:0:
248,160,89013,1,2,0:0:0:0:
312,56,89185,2,0,L|384:112,1,88.000002685547,8|2,0:0|0:0,0:0:0:0:
326,215,89527,6,0,P|241:257|160:197,1,176.000005371094,2|8,0:0|0:0,0:0:0:0:
312,56,90042,1,2,0:0:0:0:
312,56,90213,1,2,0:0:0:0:
248,160,90385,1,2,0:0:0:0:
120,112,90556,2,0,L|40:176,1,88.000002685547,8|2,0:0|0:0,0:0:0:0:
112,344,90899,6,0,L|153:257,1,88.000002685547,6|0,0:0|0:0,0:0:0:0:
248,240,91242,2,0,L|262:333,1,88.000002685547,8|2,0:0|0:0,0:0:0:0:
400,200,91585,1,2,0:0:0:0:
400,200,91756,1,2,0:0:0:0:
368,72,91927,2,0,L|456:72,1,88.000002685547,8|2,0:0|0:0,0:0:0:0:
289,19,92270,6,0,P|273:91|337:163,1,176.000005371094,2|8,0:0|0:0,0:0:0:0:
196,115,92785,1,2,0:0:0:0:
196,115,92956,1,2,0:0:0:0:
120,224,93127,1,2,0:0:0:0:
248,272,93299,2,0,L|192:192,1,88.000002685547,8|2,0:0|0:0,0:0:0:0:
352,192,93642,6,0,L|400:208,3,40,6|0|0|0,0:0|0:0|0:0|0:0,0:0:0:0:
336,104,93985,2,0,L|288:120,3,40,10|0|0|0,0:0|0:0|0:0|0:0,0:0:0:0:
240,40,94327,2,0,L|264:8,3,40,2|0|0|0,0:0|0:0|0:0|0:0,0:0:0:0:
152,64,94670,2,0,L|112:40,3,40,10|0|0|0,0:0|0:0|0:0|0:0,0:0:0:0:
88,160,95013,5,6,0:0:0:0:
94,179,95098,1,0,0:0:0:0:
100,198,95184,1,0,0:0:0:0:
106,217,95270,1,0,0:0:0:0:
112,236,95356,1,14,0:0:0:0:
118,255,95441,1,0,0:0:0:0:
124,274,95527,1,0,0:0:0:0:
131,293,95613,1,0,0:0:0:0:
120,320,95699,6,0,L|64:368,3,40,2|0|0|0,0:0|0:0|0:0|0:0,0:0:0:0:
216,344,96042,2,0,L|272:392,3,40,10|0|0|0,0:0|0:0|0:0|0:0,0:0:0:0:
224,224,96385,5,6,0:0:0:0:
328,56,96556,1,2,0:0:0:0:
352,248,96727,1,2,0:0:0:0:
208,112,96899,1,2,0:0:0:0:
424,160,97070,1,6,0:0:0:0:
208,240,97242,1,2,0:0:0:0:
334,36,97413,1,2,0:0:0:0:
360,272,97585,1,2,0:0:0:0:
208,112,97756,5,6,0:0:0:0:
241,123,97841,1,2,0:0:0:0:
262,153,97927,1,2,0:0:0:0:
260,187,98013,1,2,0:0:0:0:
237,213,98098,1,2,0:0:0:0:
200,218,98184,1,2,0:0:0:0:
168,204,98270,1,2,0:0:0:0:
147,175,98355,1,2,0:0:0:0:
105,155,98442,5,2,0:0:0:0:
59,160,98527,1,2,0:0:0:0:
23,178,98612,1,2,0:0:0:0:
0,214,98698,1,2,0:0:0:0:
0,258,98784,5,8,0:0:0:0:
78,248,98956,1,8,0:0:0:0:
208,112,99127,5,4,0:0:0:0:
