osu file format v14

[General]
AudioFilename: K-On! - Touched by an angel (Asterisk DnB Remix).mp3
AudioLeadIn: 2000
PreviewTime: 77099
Countdown: 0
SampleSet: Soft
StackLeniency: 0.7
Mode: 0
LetterboxInBreaks: 0
EpilepsyWarning: 1
WidescreenStoryboard: 1

[Editor]
Bookmarks: 75127,99127
DistanceSpacing: 1.4
BeatDivisor: 4
GridSize: 8
TimelineZoom: 2.2

[Metadata]
Title:Tenshi ni Fureta yo! (Asterisk DnB Remix)
TitleUnicode:天使にふれたよ!(Asterisk DnB Remix)
Artist:HO-KAGO TEA TIME
ArtistUnicode:放課後ティータイム
Creator:Sotarks
Version:HB's Hard
Source:K-ON!!
Tags:HTT Keion Yui Hirasawa Mio Akiyama Ritsu Tainaka Tsumugi Kotobuki Azusa Nakano Toyosaki Aki Hikasa Yoko Sato Satomi Minako Taketatsu Ayana Works3 Linada Del05 Aihuro ReFaller HB24 Touched by an Angel
BeatmapID:824521
BeatmapSetID:373858

[Difficulty]
HPDrainRate:5.5
CircleSize:3.5
OverallDifficulty:6
ApproachRate:8
SliderMultiplier:1.5
SliderTickRate:1

[Events]
//Background and Video events
0,0,"BG.jpg",0,0
//Break Periods
2,44470,54492
//Storyboard Layer 0 (Background)
//Storyboard Layer 1 (Fail)
//Storyboard Layer 2 (Pass)
//Storyboard Layer 3 (Foreground)
//Storyboard Sound Samples

[TimingPoints]
385,342.857142857143,4,2,1,70,1,0
385,-117.647058823529,4,2,1,50,0,0
11356,-117.647058823529,4,2,1,70,0,0
16842,-117.647058823529,4,2,2,70,0,0
19585,-100,4,2,2,70,0,0
21985,-100,4,3,1,70,0,0
22670,-100,4,2,2,70,0,0
32613,-100,4,3,1,70,0,0
33299,-100,4,3,1,70,0,0
33642,-100,4,2,2,70,0,0
43927,-100,4,3,1,70,0,0
55242,-100,4,2,2,70,0,0
60727,-100,4,3,1,70,0,0
61070,-100,4,2,2,70,0,0
65870,-100,4,3,1,70,0,0
66213,-111.111111111111,4,2,2,70,0,0
67927,-111.111111111111,4,3,1,70,0,0
68270,-111.111111111111,4,2,2,70,0,0
71699,-100,4,2,2,70,0,0
77185,-100,4,3,1,70,0,1
77527,-100,4,2,2,70,0,1
85413,-100,4,2,2,70,0,0
87470,-100,4,3,1,70,0,0
88156,-100,4,2,2,70,0,1
93642,-100,4,2,2,70,0,0
98785,-100,4,3,1,70,0,0

[Colours]
Combo1 : 181,255,145
Combo2 : 247,205,108
Combo3 : 255,157,157
Combo4 : 168,183,255

[HitObjects]
120,212,385,6,0,P|176:200|199:201,1,63.7500012159348,4|0,0:3|0:0,0:0:0:0:
264,209,727,1,0,0:0:0:0:
264,209,899,1,0,0:0:0:0:
341,239,1070,2,0,P|346:194|329:153,1,63.7500012159348
311,97,1413,1,0,0:0:0:0:
311,97,1585,1,0,0:0:0:0:
393,94,1756,6,0,L|483:95,1,63.7500012159348
431,173,2099,1,0,0:0:0:0:
468,246,2270,1,0,0:0:0:0:
416,311,2442,2,0,P|375:305|336:312,1,63.7500012159348
266,331,2785,1,4,0:0:0:0:
179,310,2956,1,0,0:0:0:0:
88,240,3127,6,0,L|96:168,1,63.7500012159348,4|0,0:0|0:0,0:0:0:0:
109,93,3470,1,0,0:0:0:0:
109,93,3642,1,0,0:0:0:0:
186,122,3813,2,0,P|236:135|271:127,1,63.7500012159348
312,81,4156,2,0,P|343:75|374:81,1,63.7500012159348
450,115,4499,5,4,0:0:0:0:
450,115,4670,1,0,0:0:0:0:
403,183,4842,2,0,L|408:263,1,63.7500012159348
373,322,5185,2,0,P|425:328|448:318,2,63.7500012159348
305,272,5699,1,0,0:0:0:0:
219,313,5870,6,0,L|143:314,1,63.7500012159348,4|0,0:0|0:0,0:0:0:0:
72,314,6213,1,0,0:0:0:0:
72,314,6385,1,0,0:0:0:0:
104,238,6556,2,0,P|111:198|103:160,1,63.7500012159348
72,100,6899,1,0,0:0:0:0:
138,50,7070,1,0,0:0:0:0:
205,104,7242,6,0,L|289:101,1,63.7500012159348,4|0,0:0|0:0,0:0:0:0:
351,98,7585,1,0,0:0:0:0:
351,98,7756,1,0,0:0:0:0:
389,170,7927,2,0,P|394:202|386:239,1,63.7500012159348
332,294,8270,1,0,0:0:0:0:
257,244,8442,1,0,0:0:0:0:
178,303,8613,6,0,L|94:305,1,63.7500012159348,4|0,0:0|0:0,0:0:0:0:
31,310,8956,1,0,0:0:0:0:
31,310,9127,1,0,0:0:0:0:
58,231,9299,2,0,P|70:186|68:160,1,63.7500012159348
44,89,9642,1,0,0:0:0:0:
118,54,9813,1,0,0:0:0:0:
181,108,9985,6,0,L|175:190,1,63.7500012159348,4|0,0:0|0:0,0:0:0:0:
265,209,10327,2,0,L|264:139,1,63.7500012159348,4|0,0:0|0:0,0:0:0:0:
347,96,10670,2,0,L|351:159,1,63.7500012159348,4|0,0:0|0:0,0:0:0:0:
435,212,11013,2,0,L|434:142,1,63.7500012159348,4|0,0:0|0:0,0:0:0:0:
491,67,11356,6,0,B|398:44|398:44|346:52,1,127.50000243187,4|0,0:3|0:0,0:0:0:0:
284,83,11870,1,0,0:0:0:0:
213,127,12042,2,0,L|125:128,1,63.7500012159348
102,209,12385,2,0,L|190:208,1,63.7500012159348
267,238,12727,6,0,P|280:274|269:325,1,63.7500012159348
367,276,13070,2,0,P|364:244|349:208,1,63.7500012159348
425,163,13413,2,0,P|442:198|452:251,2,63.7500012159348
353,119,13927,1,0,0:0:0:0:
266,42,14099,6,0,L|278:180,1,127.50000243187,4|0,0:1|0:0,0:0:0:0:
122,278,14785,2,0,L|134:140,1,127.50000243187
277,250,15470,2,0,P|322:263|411:247,1,127.50000243187
453,94,16156,2,0,L|493:29,2,63.7500012159348
380,134,16670,1,0,0:0:0:0:
301,105,16842,6,0,P|232:90|163:117,1,127.50000243187,4|2,0:1|0:0,0:0:0:0:
164,275,17527,2,0,P|233:290|302:263,1,127.50000243187,2|2,0:0|0:0,0:0:0:0:
380,134,18213,1,2,0:0:0:0:
453,282,18556,1,2,0:0:0:0:
380,134,18899,1,2,0:0:0:0:
286,273,19242,1,2,0:0:0:0:
100,250,19585,6,0,L|86:162,1,75,2|2,0:0|0:0,0:0:0:0:
177,169,19927,2,0,L|176:85,1,75,2|2,0:0|0:0,0:0:0:0:
253,46,20270,2,0,P|306:38|343:47,1,75,2|2,0:0|0:0,0:0:0:0:
379,123,20613,2,0,P|326:131|289:122,1,75,2|2,0:0|0:0,0:0:0:0:
257,206,20956,2,0,P|221:201|193:206,3,37.5,2|2|2|2,0:0|0:0|0:0|0:0,0:0:0:0:
183,228,21299,2,0,P|164:227|146:223,3,37.5,2|2|2|2,0:0|0:0|0:0|0:0,0:0:0:0:
115,189,21642,2,0,P|79:184|51:189,3,37.5,2|2|2|2,0:0|0:0|0:0|0:0,0:0:0:0:
45,215,21985,2,0,L|49:301,1,75,8|8,0:0|0:0,0:0:0:0:
132,339,22327,6,0,B|190:322|246:332|246:332|259:374,2,150,4|8|0,0:3|0:0|0:0,0:0:0:0:
48,289,23185,1,0,0:0:0:0:
127,232,23356,2,0,P|177:224|211:225,1,75,8|0,0:0|0:0,0:0:0:0:
290,148,23699,2,0,P|240:140|206:141,1,75
117,141,24042,1,8,0:0:0:0:
155,51,24213,1,0,0:0:0:0:
58,65,24385,2,0,P|30:98|21:142,1,75
88,225,24727,2,0,L|166:220,1,75,8|0,0:0|0:0,0:0:0:0:
247,309,25070,6,0,L|169:304,1,75
259,218,25413,2,0,P|273:177|256:56,1,150,8|0,0:0|0:0,0:0:0:0:
176,27,25927,1,0,0:0:0:0:
98,86,26099,2,0,P|78:131|80:177,1,75,8|0,0:0|0:0,0:0:0:0:
143,227,26442,2,0,L|136:317,1,75
225,259,26785,1,8,0:0:0:0:
310,304,26956,1,0,0:0:0:0:
390,249,27127,2,0,P|407:208|398:160,1,75
325,120,27470,2,0,P|308:161|317:209,1,75,8|0,0:0|0:0,0:0:0:0:
225,105,27813,6,0,B|121:89|121:89|69:101,1,150,0|8,0:0|0:0,0:0:0:0:
128,182,28327,1,0,0:0:0:0:
85,270,28499,2,0,P|46:261|4:268,1,75
45,357,28842,2,0,P|84:366|126:359,1,75,8|0,0:0|0:0,0:0:0:0:
211,292,29185,2,0,P|287:270|359:293,1,150,0|8,0:0|0:0,0:0:0:0:
430,349,29699,1,0,0:0:0:0:
429,249,29870,2,0,L|428:166,1,75
339,121,30213,2,0,L|338:204,1,75,8|0,0:0|0:0,0:0:0:0:
245,87,30556,6,0,P|187:70|89:97,1,150,4|8,0:0|0:0,0:0:0:0:
33,159,31070,1,0,0:0:0:0:
101,229,31242,2,0,P|149:237|182:228,1,75
253,174,31585,2,0,P|301:166|334:175,1,75,8|0,0:0|0:0,0:0:0:0:
405,228,31927,2,0,L|411:315,1,75
306,348,32270,2,0,L|312:261,1,75,8|0,0:0|0:0,0:0:0:0:
218,304,32613,2,0,L|214:358,2,37.5,8|8|0,0:0|0:0|0:0,0:0:0:0:
134,252,32956,1,0,0:0:0:0:
48,319,33127,1,8,0:0:0:0:
48,319,33213,1,8,0:0:0:0:
48,319,33299,6,0,L|43:165,1,150,12|8,0:3|0:0,0:0:0:0:
96,86,33813,1,0,0:0:0:0:
164,156,33985,2,0,P|203:145|254:145,1,75
319,195,34327,2,0,L|314:281,1,75,8|0,0:0|0:0,0:0:0:0:
416,213,34670,2,0,L|403:46,1,150,0|8,0:0|0:0,0:0:0:0:
318,111,35185,1,0,0:0:0:0:
232,64,35356,2,0,P|176:59|144:67,1,75
89,132,35699,2,0,L|100:214,1,75,8|0,0:0|0:0,0:0:0:0:
59,314,36042,6,0,P|109:284|213:307,1,150,4|8,0:0|0:0,0:0:0:0:
273,355,36556,1,0,0:0:0:0:
343,288,36727,2,0,P|352:243|345:191,1,75
266,164,37070,2,0,L|179:169,1,75,8|0,0:0|0:0,0:0:0:0:
93,165,37413,2,0,P|135:88|190:70,1,150,0|8,0:0|0:0,0:0:0:0:
288,76,37927,1,0,0:0:0:0:
362,139,38099,2,0,P|417:142|448:131,1,75
450,39,38442,2,0,P|395:36|364:47,1,75,8|0,0:0|0:0,0:0:0:0:
288,76,38785,6,0,B|189:93|189:93|125:86,1,150,6|2,0:0|0:0,0:0:0:0:
33,250,39470,2,0,B|132:233|132:233|196:240,1,150,2|2,0:0|0:0,0:0:0:0:
367,311,40156,2,0,P|386:253|372:152,1,150,6|2,0:0|0:0,0:0:0:0:
191,93,40842,2,0,P|172:151|186:252,1,150,2|2,0:0|0:0,0:0:0:0:
367,311,41527,6,0,L|446:295,2,75,6|2|2,0:0|0:0|0:0,0:0:0:0:
287,252,42042,1,2,0:0:0:0:
356,183,42213,2,0,P|363:143|342:86,2,75,6|2|2,0:0|0:0|0:0,0:0:0:0:
265,145,42727,1,2,0:0:0:0:
170,118,42899,2,0,P|165:146|169:167,3,37.5,2|2|2|2,0:0|0:0|0:0|0:0,0:0:0:0:
183,200,43242,2,0,P|188:228|184:249,3,37.5,2|2|2|2,0:0|0:0|0:0|0:0,0:0:0:0:
155,273,43585,2,0,P|150:301|154:322,3,37.5,2|2|2|2,0:0|0:0|0:0|0:0,0:0:0:0:
188,340,43927,2,0,L|271:343,1,75,8|8,0:0|0:0,0:0:0:0:
360,350,44270,5,4,0:0:0:0:
111,198,55242,6,0,P|172:168|260:182,1,150,4|8,0:0|0:0,0:0:0:0:
322,236,55756,1,0,0:0:0:0:
393,172,55927,2,0,L|394:79,1,75
481,140,56270,2,0,L|480:233,1,75,8|0,0:0|0:0,0:0:0:0:
411,285,56613,1,0,0:0:0:0:
322,236,56785,1,0,0:0:0:0:
250,302,56956,1,8,0:0:0:0:
160,264,57127,2,0,B|112:249|112:249|4:263,1,150
51,171,57642,2,0,P|61:132|52:85,1,75,8|0,0:0|0:0,0:0:0:0:
164,47,57985,6,0,L|324:54,1,150,4|8,0:0|0:0,0:0:0:0:
411,60,58499,1,0,0:0:0:0:
459,144,58670,2,0,P|470:192|460:234,1,75
403,291,59013,2,0,L|296:287,1,75,8|0,0:0|0:0,0:0:0:0:
240,245,59356,2,0,P|230:288|242:334,2,75,0|0|8,0:0|0:0|0:0,0:0:0:0:
299,168,59870,2,0,P|319:98|287:15,1,150
204,63,60385,2,0,L|124:65,1,75,8|0,0:0|0:0,0:0:0:0:
48,155,60727,6,0,L|208:151,1,150,4|2,0:0|0:0,0:0:0:0:
366,250,61413,2,0,L|206:246,1,150,2|2,0:0|0:0,0:0:0:0:
378,136,62099,1,6,0:0:0:0:
437,321,62442,1,2,0:0:0:0:
256,248,62785,1,2,0:0:0:0:
75,321,63127,1,2,0:0:0:0:
134,136,63470,6,0,P|176:143|220:131,1,75,6|2,0:0|0:0,0:0:0:0:
279,70,63813,2,0,P|321:63|365:75,1,75,2|2,0:0|0:0,0:0:0:0:
441,110,64156,1,6,0:0:0:0:
441,110,64327,1,2,0:0:0:0:
366,173,64499,1,2,0:0:0:0:
435,241,64670,1,2,0:0:0:0:
360,304,64842,6,0,L|316:304,3,37.5,6|2|2|2,0:0|0:0|0:0|0:0,0:0:0:0:
277,323,65185,2,0,L|233:323,3,37.5,2|2|2|2,0:0|0:0|0:0|0:0,0:0:0:0:
195,338,65527,2,0,L|151:338,3,37.5,2|2|2|2,0:0|0:0|0:0|0:0,0:0:0:0:
111,354,65870,2,0,L|106:259,1,75,8|8,0:0|0:0,0:0:0:0:
53,177,66213,6,0,P|110:193|182:154,1,134.999995880127,4|0,0:0|0:0,0:0:0:0:
219,85,66727,1,0,0:0:0:0:
305,122,66899,2,0,B|340:111|392:117,2,67.4999979400635,8|0|0,0:0|0:0|0:0,0:0:0:0:
254,200,67413,2,0,L|264:350,1,134.999995880127
355,304,67927,2,0,L|365:349,2,33.7499989700318,8|8|0,0:0|0:0|0:0,0:0:0:0:
444,239,68270,1,8,0:0:0:0:
444,239,68442,1,0,0:0:0:0:
370,170,68613,1,0,0:0:0:0:
370,170,68785,1,0,0:0:0:0:
285,216,68956,5,0,0:0:0:0:
211,147,69127,2,0,P|184:214|214:289,1,134.999995880127
262,336,69642,2,0,B|217:356|217:356|103:346,1,134.999995880127,8|0,0:0|0:0,0:0:0:0:
76,181,70327,2,0,B|90:129|80:84|80:84|45:64,2,134.999995880127,0|0|8,0:0|0:0|0:0,0:0:0:0:
126,253,71185,1,0,0:0:0:0:
191,195,71356,2,0,P|196:147|193:102,1,67.4999979400635
271,57,71699,6,0,P|332:82|425:54,1,150,6|2,0:0|0:0,0:0:0:0:
475,248,72385,2,0,P|414:223|321:251,1,150,2|2,0:0|0:0,0:0:0:0:
153,313,73070,2,0,B|134:199|134:199|116:236,1,150,2|2,0:0|0:0,0:0:0:0:
218,61,73756,2,0,B|237:175|237:175|255:138,1,150,2|2,0:0|0:0,0:0:0:0:
65,84,74442,5,6,0:0:0:0:
114,167,74613,2,0,L|159:156,2,37.5,2|2|2,0:0|0:0|0:0,0:0:0:0:
33,222,74956,1,2,0:0:0:0:
119,267,75127,2,0,L|167:267,2,37.5,2|2|2,0:0|0:0|0:0,0:0:0:0:
43,329,75470,1,2,0:0:0:0:
43,329,75642,1,2,0:0:0:0:
132,367,75813,2,0,L|287:362,1,150,4|0,0:0|0:0,0:0:0:0:
425,229,76499,2,0,L|270:223,1,150,0|2,0:0|0:0,0:0:0:0:
275,223,77013,1,2,0:0:0:0:
188,294,77185,6,0,P|162:224|212:136,1,150,4|8,0:0|0:0,0:0:0:0:
273,110,77699,1,0,0:0:0:0:
188,60,77870,2,0,P|141:50|100:55,1,75
32,109,78213,2,0,L|39:196,1,75,8|0,0:0|0:0,0:0:0:0:
30,281,78556,2,0,P|71:254|181:269,1,150,0|8,0:0|0:0,0:0:0:0:
235,331,79070,1,0,0:0:0:0:
309,268,79242,2,0,L|394:262,1,75
392,165,79585,2,0,L|307:171,1,75,8|0,0:0|0:0,0:0:0:0:
227,128,79927,6,0,P|239:203|200:261,1,150,0|8,0:0|0:0,0:0:0:0:
135,178,80442,1,0,0:0:0:0:
159,83,80613,2,0,P|198:53|243:49,1,75
313,82,80956,1,8,0:0:0:0:
401,41,81127,1,0,0:0:0:0:
470,112,81299,2,0,L|462:265,1,150,0|8,0:0|0:0,0:0:0:0:
389,327,81813,1,0,0:0:0:0:
315,262,81985,2,0,P|272:244|167:267,1,150,0|8,0:0|0:0,0:0:0:0:
89,313,82499,1,0,0:0:0:0:
58,220,82670,6,0,L|33:135,2,75,0|0|8,0:0|0:0|0:0,0:0:0:0:
135,159,83185,2,0,P|185:133|298:138,1,150
367,168,83699,2,0,L|360:248,1,75,8|0,0:0|0:0,0:0:0:0:
358,280,83956,1,0,0:0:0:0:
358,280,84042,2,0,P|304:289|264:279,1,75
194,247,84385,1,8,0:0:0:0:
129,319,84556,2,0,P|99:247|134:173,1,150
199,121,85070,2,0,L|281:123,1,75,8|0,0:0|0:0,0:0:0:0:
349,184,85413,6,0,P|420:147|498:176,1,150,0|8,0:0|0:0,0:0:0:0:
427,245,85927,1,0,0:0:0:0:
504,305,86099,2,0,P|431:343|356:311,1,150,0|8,0:0|0:0,0:0:0:0:
165,366,86785,2,0,P|160:313|158:270,1,75
104,210,87127,1,8,0:0:0:0:
151,124,87299,1,0,0:0:0:0:
247,135,87470,2,0,L|288:127,2,37.5,8|8|0,0:0|0:0|0:0,0:0:0:0:
240,232,87813,2,0,L|329:213,1,75,8|8,0:0|0:0,0:0:0:0:
420,251,88156,6,0,P|394:213|422:87,1,150,4|8,0:0|0:0,0:0:0:0:
471,45,88670,1,0,0:0:0:0:
375,32,88842,2,0,B|267:47|267:47|214:39,1,150,0|8,0:0|0:0,0:0:0:0:
129,31,89356,1,0,0:0:0:0:
75,112,89527,2,0,P|53:175|67:266,1,150,0|8,0:0|0:0,0:0:0:0:
137,320,90042,1,0,0:0:0:0:
224,277,90213,2,0,P|245:213|231:122,1,150,0|8,0:0|0:0,0:0:0:0:
192,45,90727,1,0,0:0:0:0:
287,64,90899,6,0,B|327:70|327:70|435:55,1,150,0|8,0:0|0:0,0:0:0:0:
396,144,91413,1,0,0:0:0:0:
479,195,91585,2,0,P|423:237|322:206,1,150,0|8,0:0|0:0,0:0:0:0:
252,200,92099,1,0,0:0:0:0:
186,271,92270,2,0,B|157:230|157:230|161:117,1,150,0|8,0:0|0:0,0:0:0:0:
164,31,92785,1,0,0:0:0:0:
253,69,92956,2,0,P|297:82|406:66,1,150,0|8,0:0|0:0,0:0:0:0:
309,230,93642,5,2,0:0:0:0:
155,101,93985,1,2,0:0:0:0:
15,236,94327,1,2,0:0:0:0:
155,101,94670,1,2,0:0:0:0:
156,296,95013,1,2,0:0:0:0:
270,138,95356,1,2,0:0:0:0:
385,294,95699,1,2,0:0:0:0:
270,138,96042,1,2,0:0:0:0:
156,296,96385,6,0,P|110:303|78:295,1,75,6|2,0:0|0:0,0:0:0:0:
65,201,96727,2,0,P|111:194|143:202,1,75,2|2,0:0|0:0,0:0:0:0:
237,234,97070,2,0,L|248:152,1,75,2|2,0:0|0:0,0:0:0:0:
336,120,97413,2,0,L|325:202,1,75,2|2,0:0|0:0,0:0:0:0:
344,290,97756,2,0,P|325:294|307:294,3,37.5,2|2|2|2,0:0|0:0|0:0|0:0,0:0:0:0:
260,309,98099,2,0,P|241:313|223:313,3,37.5,2|2|2|2,0:0|0:0|0:0|0:0,0:0:0:0:
175,335,98442,2,0,P|156:339|138:339,3,37.5,2|2|2|2,0:0|0:0|0:0|0:0,0:0:0:0:
95,314,98785,2,0,L|91:217,1,75,8|8,0:0|0:0,0:0:0:0:
89,141,99127,5,4,0:0:0:0:
