osu file format v14

[General]
AudioFilename: K-On! - Touched by an angel (Asterisk DnB Remix).mp3
AudioLeadIn: 2000
PreviewTime: 77099
Countdown: 0
SampleSet: Soft
StackLeniency: 0.7
Mode: 0
LetterboxInBreaks: 0
EpilepsyWarning: 1
WidescreenStoryboard: 1

[Editor]
Bookmarks: 11356,22327,33299,44270,55242,66213,77185,88156,99127
DistanceSpacing: 1
BeatDivisor: 4
GridSize: 4
TimelineZoom: 0.8999996

[Metadata]
Title:Tenshi ni Fureta yo! (Asterisk DnB Remix)
TitleUnicode:天使にふれたよ!(Asterisk DnB Remix)
Artist:HO-KAGO TEA TIME
ArtistUnicode:放課後ティータイム
Creator:Sotarks
Version:Del's Normal
Source:K-ON!!
Tags:HTT Keion Yui Hirasawa Mio Akiyama Ritsu Tainaka Tsumugi Kotobuki Azusa Nakano Toyosaki Aki Hikasa Yoko Sato Satomi Minako Taketatsu Ayana Works3 Linada Del05 Aihuro ReFaller HB24 Touched by an Angel
BeatmapID:823767
BeatmapSetID:373858

[Difficulty]
HPDrainRate:4
CircleSize:3
OverallDifficulty:4
ApproachRate:5
SliderMultiplier:1.1
SliderTickRate:1

[Events]
//Background and Video events
0,0,"BG.jpg",0,0
//Break Periods
2,44470,53699
//Storyboard Layer 0 (Background)
//Storyboard Layer 1 (Fail)
//Storyboard Layer 2 (Pass)
//Storyboard Layer 3 (Foreground)
//Storyboard Sound Samples

[TimingPoints]
385,342.857142857143,4,2,1,70,1,0
727,-100,4,2,1,40,0,0
1756,-100,4,2,1,45,0,0
3127,-100,4,2,1,50,0,0
4499,-100,4,2,1,55,0,0
5870,-100,4,2,1,60,0,0
6213,-100,4,2,1,60,0,0
7242,-100,4,2,1,65,0,0
11356,-100,4,2,1,75,0,0
11699,-100,4,2,1,75,0,0
16842,-100,4,2,2,80,0,0
20956,-100,4,2,2,70,0,0
21985,-100,4,2,1,60,0,0
22327,-100,4,2,2,90,0,0
31927,-100,4,2,1,90,0,0
32270,-100,4,2,2,90,0,0
32442,-100,4,3,1,90,0,0
32956,-100,4,3,1,90,0,0
33127,-100,4,3,1,90,0,0
33642,-100,4,2,2,90,0,0
38785,-100,4,2,2,90,0,0
40156,-100,4,2,2,90,0,0
41527,-100,4,2,2,90,0,0
42899,-100,4,2,2,90,0,0
43927,-100,4,2,1,90,0,0
54899,-100,4,2,1,60,0,0
55242,-100,4,2,2,75,0,0
65870,-100,4,3,1,75,0,0
66213,-100,4,3,1,50,0,0
71699,-100,4,3,1,50,0,0
75727,-100,4,2,2,30,0,0
76499,-100,4,2,1,70,0,0
76842,-100,4,2,2,70,0,0
77185,-100,4,2,2,90,0,1
85413,-100,4,2,2,80,0,0
87127,-100,4,3,1,80,0,0
87470,-100,4,3,1,80,0,0
87642,-100,4,3,1,80,0,0
88156,-100,4,2,2,90,0,1
93642,-100,4,2,2,80,0,0
98785,-100,4,2,1,80,0,0

[Colours]
Combo1 : 181,255,145
Combo2 : 247,205,108
Combo3 : 255,157,157
Combo4 : 168,183,255

[HitObjects]
76,68,385,6,0,B|60:160|60:160|64:196,1,110,4|8,0:0|0:0,0:0:0:0:
96,220,899,2,0,P|162:237|219:217,1,110,0|0,0:0|0:0,0:0:0:0:
248,200,1413,1,8,0:0:0:0:
340,260,1756,2,0,P|357:198|344:151,1,110,4|8,0:0|0:0,0:0:0:0:
308,112,2270,2,0,B|276:100|276:100|184:108,1,110,0|0,0:0|0:0,0:0:0:0:
148,124,2785,1,8,0:0:0:0:
52,72,3127,6,0,P|38:142|57:188,1,110,2|8,0:0|0:0,0:0:0:0:
96,208,3642,2,0,B|92:304|92:304|104:336,1,110
132,360,4155,1,8,0:0:0:0:
228,304,4499,2,0,B|233:291|233:291|229:195,1,110,4|8,0:0|0:0,0:0:0:0:
264,152,5013,2,0,P|317:164|372:150,1,110,0|0,0:0|0:0,0:0:0:0:
412,116,5527,1,8,0:0:0:0:
316,60,5870,6,0,P|263:46|209:58,1,110,0|8,0:0|0:0,0:0:0:0:
168,96,6385,2,0,P|114:107|61:94,1,110,0|0,0:0|0:0,0:0:0:0:
16,64,6898,1,8,0:0:0:0:
0,176,7242,2,0,L|0:300,1,110,0|8,0:0|0:0,0:0:0:0:
48,312,7756,2,0,P|104:300|164:320,1,110
196,348,8270,1,8,0:0:0:0:
292,296,8613,6,0,B|303:266|303:266|304:168,1,110,2|8,0:0|0:0,0:0:0:0:
280,136,9127,2,0,P|223:153|152:144,1,110,0|0,0:0|0:0,0:0:0:0:
124,124,9642,1,8,0:0:0:0:
24,172,9985,1,4,0:0:0:0:
60,276,10327,1,4,0:0:0:0:
164,236,10670,1,4,0:0:0:0:
228,328,11013,1,4,0:0:0:0:
336,300,11356,6,0,B|356:268|356:268|364:180,1,110,6|8,0:0|0:0,0:0:0:0:
336,88,12042,1,4,0:0:0:0:
248,156,12385,1,8,0:0:0:0:
172,80,12727,2,0,P|112:76|52:84,1,110,0|8,0:0|0:0,0:0:0:0:
12,180,13413,1,0,0:0:0:0:
80,264,13756,1,8,0:0:0:0:
184,232,14099,6,0,P|240:244|296:264,1,110,4|8,0:0|0:0,0:0:0:0:
380,324,14785,1,0,0:0:0:0:
444,236,15127,1,8,0:0:0:0:
353,173,15470,2,0,P|301:155|247:143,1,110,2|8,0:0|0:0,0:0:0:0:
144,116,16156,1,0,0:0:0:0:
120,224,16499,1,8,0:0:0:0:
16,192,16842,6,0,P|11:223|16:260,1,55,0|0,0:0|0:0,0:0:0:0:
38,295,17185,2,0,P|87:328|154:328,1,110,0|0,0:0|0:0,0:0:0:0:
236,284,17870,1,0,0:0:0:0:
332,336,18213,2,0,P|340:277|314:210,1,110,0|0,0:0|0:0,0:0:0:0:
288,192,18727,2,0,P|280:133|306:66,1,110
332,44,19242,1,0,0:0:0:0:
440,72,19585,6,0,P|454:124|445:178,1,110,6|2,0:0|0:0,0:0:0:0:
412,224,20099,1,2,0:0:0:0:
412,224,20270,2,0,B|321:209|321:209|288:220,1,110,6|2,0:0|0:0,0:0:0:0:
212,280,20956,2,0,B|117:289|117:289|80:280,1,110,2|2,0:0|0:0,0:0:0:0:
16,216,21642,1,2,0:0:0:0:
84,128,21985,2,0,L|144:112,1,55,8|8,0:0|0:0,0:0:0:0:
192,108,22327,6,0,B|212:120|212:120|304:132,1,110,6|8,0:0|0:0,0:0:0:0:
340,168,22842,2,0,P|337:234|328:292,1,110,0|2,0:0|0:0,0:0:0:0:
300,324,23356,1,8,0:0:0:0:
212,256,23699,2,0,P|146:246|88:268,1,110,2|8,0:0|0:0,0:0:0:0:
60,292,24213,2,0,B|46:185|46:185|56:160,1,110,0|2,0:0|0:0,0:0:0:0:
76,136,24727,1,8,0:0:0:0:
168,80,25070,6,0,P|226:79|288:100,1,110,6|8,0:0|0:0,0:0:0:0:
316,132,25585,2,0,P|368:146|423:145,1,110,2|2,0:0|0:0,0:0:0:0:
472,124,26099,1,8,0:0:0:0:
508,228,26442,2,0,B|496:326|496:326|488:348,1,110,2|8,0:0|0:0,0:0:0:0:
444,364,26956,2,0,B|426:353|426:353|316:360,1,110,0|2,0:0|0:0,0:0:0:0:
284,368,27470,1,8,0:0:0:0:
184,320,27813,6,0,P|177:259|184:200,1,110,2|8,0:0|0:0,0:0:0:0:
220,168,28328,2,0,P|277:169|332:188,1,110,2|2,0:0|0:0,0:0:0:0:
372,220,28842,1,8,0:0:0:0:
468,168,29185,2,0,B|480:80|480:80|476:48,1,110,6|8,0:0|0:0,0:0:0:0:
440,16,29699,2,0,P|379:27|308:32,1,110,0|2,0:0|0:0,0:0:0:0:
276,24,30213,1,8,0:0:0:0:
196,100,30556,6,0,P|193:158|204:224,1,110,2|8,0:0|0:0,0:0:0:0:
244,244,31071,2,0,P|305:252|356:240,1,110,2|2,0:0|0:0,0:0:0:0:
392,204,31585,1,8,0:0:0:0:
480,272,31927,2,0,P|501:220|493:157,2,110,4|12|8,0:0|0:0|0:0,0:0:0:0:
388,332,32956,2,0,L|332:328,1,55,8|8,0:0|0:0,0:0:0:0:
284,300,33299,6,0,P|227:291|174:315,1,110,4|8,0:0|0:0,0:0:0:0:
140,350,33813,2,0,B|112:362|112:362|54:358|39:306,1,110,0|2,0:0|0:0,0:0:0:0:
32,272,34328,1,8,0:0:0:0:
92,180,34671,2,0,P|150:164|212:168,1,110,2|8,0:0|0:0,0:0:0:0:
248,192,35185,2,0,P|302:192|355:177,1,110,2|2,0:0|0:0,0:0:0:0:
404,152,35699,1,8,0:0:0:0:
496,212,36042,6,0,P|514:163|497:95,1,110,6|8,0:0|0:0,0:0:0:0:
468,64,36556,2,0,P|399:41|347:60,1,110,0|2,0:0|0:0,0:0:0:0:
320,80,37071,1,8,0:0:0:0:
220,36,37413,2,0,P|166:28|116:50,1,110,2|8,0:0|0:0,0:0:0:0:
84,96,37928,2,0,B|72:200|72:200|88:224,1,110,2|2,0:0|0:0,0:0:0:0:
108,248,38442,1,8,0:0:0:0:
212,208,38785,6,0,P|269:197|332:210,1,110,6|2,0:0|0:0,0:0:0:0:
364,236,39300,2,0,B|456:252|456:252|484:236,1,110,0|0,0:0|0:0,0:0:0:0:
504,200,39814,1,2,0:0:0:0:
444,108,40157,2,0,B|362:78|362:78|324:84,1,110,6|0,0:0|0:0,0:0:0:0:
292,112,40671,2,0,B|197:120|197:120|168:108,1,110,0|0,0:0|0:0,0:0:0:0:
144,76,41185,1,2,0:0:0:0:
64,152,41527,6,0,P|54:206|62:260,1,110,6|2,0:0|0:0,0:0:0:0:
104,300,42042,2,0,P|157:308|216:304,1,110,2|2,0:0|0:0,0:0:0:0:
256,268,42556,1,2,0:0:0:0:
324,352,42899,2,0,P|359:296|364:248,1,110,6|2,0:0|0:0,0:0:0:0:
340,204,43413,1,2,0:0:0:0:
340,204,43585,2,0,L|284:192,1,55,2|0,0:0|0:0,0:0:0:0:
244,160,43927,2,0,L|190:170,1,55,8|8,0:0|0:0,0:0:0:0:
144,204,44270,5,4,0:0:0:0:
72,324,54899,5,8,0:0:0:0:
72,324,55242,6,0,B|57:228|57:228|64:208,1,110,6|8,0:0|0:0,0:0:0:0:
104,180,55756,2,0,P|165:171|222:184,1,110,2|2,0:0|0:0,0:0:0:0:
256,216,56271,1,8,0:0:0:0:
352,160,56614,2,0,P|368:225|344:287,1,110,2|8,0:0|0:0,0:0:0:0:
312,296,57128,2,0,P|248:312|188:284,1,110,2|2,0:0|0:0,0:0:0:0:
164,264,57642,1,8,0:0:0:0:
64,312,57985,6,0,P|53:265|74:198,1,110,6|8,0:0|0:0,0:0:0:0:
104,164,58499,2,0,P|162:148|228:167,1,110,2|2,0:0|0:0,0:0:0:0:
256,192,59014,1,8,0:0:0:0:
344,124,59357,2,0,B|433:104|433:104|468:116,1,110,2|8,0:0|0:0,0:0:0:0:
492,148,59871,2,0,B|485:236|485:236|476:260,1,110,0|2,0:0|0:0,0:0:0:0:
436,292,60385,1,8,0:0:0:0:
328,276,60727,6,0,B|319:255|319:255|313:167,2,110,6|2|2,0:0|0:0|0:0,0:0:0:0:
360,320,61585,2,0,P|317:312|248:328,1,110,0|0,0:0|0:0,0:0:0:0:
204,356,62099,2,0,B|108:350|108:350|92:336,1,110,6|2,0:0|0:0,0:0:0:0:
28,256,62785,1,2,0:0:0:0:
104,176,63127,1,2,0:0:0:0:
32,92,63470,6,0,P|88:64|157:78,1,110,6|2,0:0|0:0,0:0:0:0:
172,108,63985,2,0,L|192:184,1,55,2|6,0:0|0:0,0:0:0:0:
228,264,64499,1,2,0:0:0:0:
328,224,64842,2,0,P|384:207|460:216,2,110,0|0|0,0:0|0:0|0:0,0:0:0:0:
228,264,65870,2,0,L|216:336,1,55,8|8,0:0|0:0,0:0:0:0:
192,368,66213,6,0,P|126:371|68:364,1,110,6|2,0:0|0:0,0:0:0:0:
44,328,66727,2,0,L|44:268,1,55,2|8,0:0|0:0,0:0:0:0:
128,132,67413,2,0,P|188:128|255:137,1,110,2|0,0:0|0:0,0:0:0:0:
272,176,67927,2,0,L|340:184,1,55,8|0,0:0|0:0,0:0:0:0:
376,204,68270,1,8,0:0:0:0:
376,204,68442,2,0,P|374:263|364:328,1,110,2|2,0:0|0:0,0:0:0:0:
328,352,68956,6,0,P|267:360|204:348,1,110,6|2,0:0|0:0,0:0:0:0:
172,324,69470,2,0,L|160:260,1,55,2|8,0:0|0:0,0:0:0:0:
112,112,70156,2,0,P|50:102|-8:112,2,110,2|2|2,0:0|0:0|0:0,0:0:0:0:
160,144,71013,2,0,L|232:136,1,55,8|8,0:0|0:0,0:0:0:0:
256,104,71356,2,0,L|320:112,1,55,0|0,0:0|0:0,0:0:0:0:
352,148,71699,6,0,B|347:251|347:251|360:276,1,110,12|8,0:0|0:0,0:0:0:0:
404,356,72385,1,8,0:0:0:0:
488,288,72727,1,8,0:0:0:0:
432,192,73070,2,0,B|436:88|436:88|433:82,1,110,12|8,0:0|0:0,0:0:0:0:
392,48,73585,1,2,0:0:0:0:
392,48,73756,2,0,P|331:52|260:52,1,110,8|8,0:0|0:0,0:0:0:0:
172,36,74442,6,0,P|161:103|156:156,1,110,12|2,0:0|0:0,0:0:0:0:
172,196,74956,1,8,0:0:0:0:
172,196,75127,2,0,L|228:196,1,55,2|2,0:0|0:0,0:0:0:0:
280,216,75470,2,0,B|276:316|276:316|268:340,1,110,8|4,0:0|0:0,0:0:0:0:
8,256,76670,2,0,L|0:320,2,55,0|2|2,0:0|0:0|0:0,0:0:0:0:
52,220,77185,6,0,P|108:213|159:227,1,110,6|8,0:0|0:0,0:0:0:0:
204,260,77699,2,0,B|208:160|208:160|216:144,1,110,2|2,0:0|0:0,0:0:0:0:
256,116,78213,1,8,0:0:0:0:
340,184,78556,2,0,B|438:166|438:166|452:176,1,110,2|8,0:0|0:0,0:0:0:0:
480,216,79070,2,0,B|477:311|477:311|472:336,1,110,2|2,0:0|0:0,0:0:0:0:
432,360,79585,1,8,0:0:0:0:
336,304,79927,6,0,P|280:296|212:316,1,110,6|8,0:0|0:0,0:0:0:0:
176,332,80442,2,0,B|183:225|183:225|176:208,1,110,2|2,0:0|0:0,0:0:0:0:
148,180,80956,1,8,0:0:0:0:
44,212,81299,2,0,P|44:157|79:97,1,110,2|8,0:0|0:0,0:0:0:0:
112,76,81813,2,0,P|192:80|233:111,1,110,2|2,0:0|0:0,0:0:0:0:
252,136,82327,1,8,0:0:0:0:
348,84,82670,6,0,P|378:78|416:80,1,55,6|2,0:0|0:0,0:0:0:0:
448,108,83013,2,0,B|449:197|449:197|444:220,1,110,8|0,0:0|0:0,0:0:0:0:
408,260,83527,2,0,L|336:248,1,55,2|8,0:0|0:0,0:0:0:0:
264,188,84042,2,0,L|196:200,1,55,2|2,0:0|0:0,0:0:0:0:
156,180,84385,2,0,P|159:117|136:56,1,110,8|0,0:0|0:0,0:0:0:0:
96,48,84899,2,0,L|32:80,1,55,2|8,0:0|0:0,0:0:0:0:
4,172,85413,6,0,P|8:239|20:296,1,110,6|8,0:0|0:0,0:0:0:0:
124,308,86099,2,0,L|129:362,2,55,2|0|8,0:0|0:0|0:0,0:0:0:0:
216,248,86785,2,0,P|246:246|284:260,1,55,6|2,0:0|0:0,0:0:0:0:
316,280,87127,2,0,P|342:286|369:284,1,55,8|2,0:0|0:0,0:0:0:0:
420,260,87470,2,0,L|440:316,2,55,8|2|8,0:0|0:0|0:0,0:0:0:0:
360,168,88156,6,0,P|305:154|240:164,1,110,6|8,0:0|0:0,0:0:0:0:
204,188,88670,2,0,B|213:92|213:92|204:72,1,110,2|2,0:0|0:0,0:0:0:0:
172,36,89185,1,8,0:0:0:0:
80,100,89527,2,0,B|64:192|64:192|64:216,1,110,2|8,0:0|0:0,0:0:0:0:
96,252,90042,2,0,P|153:243|219:257,1,110,2|2,0:0|0:0,0:0:0:0:
252,276,90556,1,8,0:0:0:0:
336,204,90899,6,0,P|397:198|456:216,1,110,6|8,0:0|0:0,0:0:0:0:
484,248,91413,2,0,B|496:152|496:152|484:120,1,110,2|2,0:0|0:0,0:0:0:0:
460,96,91927,1,8,0:0:0:0:
368,36,92270,2,0,P|314:32|256:56,1,110,2|8,0:0|0:0,0:0:0:0:
224,92,92785,2,0,B|136:68|136:68|112:72,1,110,2|2,0:0|0:0,0:0:0:0:
64,88,93299,1,8,0:0:0:0:
0,172,93642,6,0,L|16:288,1,110,6|2,0:0|0:0,0:0:0:0:
108,340,94327,2,0,P|163:317|228:333,1,110,2|2,0:0|0:0,0:0:0:0:
312,276,95013,2,0,P|305:222|327:172,1,110,6|2,0:0|0:0,0:0:0:0:
424,124,95699,1,2,0:0:0:0:
464,228,96042,1,2,0:0:0:0:
388,308,96385,6,0,P|344:352|280:351,1,110,2|2,0:0|0:0,0:0:0:0:
192,332,97070,1,6,0:0:0:0:
220,224,97413,1,2,0:0:0:0:
148,140,97756,2,0,B|71:127|32:172|32:172|-6:150,2,165,6|2|8,0:0|0:0|0:0,0:0:0:0:
192,172,98956,1,8,0:0:0:0:
228,216,99127,5,4,0:0:0:0:
