osu file format v14

[General]
AudioFilename: K-On! - Touched by an angel (Asterisk DnB Remix).mp3
AudioLeadIn: 2000
PreviewTime: 77099
Countdown: 0
SampleSet: Soft
StackLeniency: 0.7
Mode: 0
LetterboxInBreaks: 0
EpilepsyWarning: 1
WidescreenStoryboard: 1

[Editor]
Bookmarks: 11356,22327,33299,44270,55242,66213,77185,88156,99127
DistanceSpacing: 1.3
BeatDivisor: 4
GridSize: 4
TimelineZoom: 0.8999996

[Metadata]
Title:Tenshi ni Fureta yo! (Asterisk DnB Remix)
TitleUnicode:天使にふれたよ!(Asterisk DnB Remix)
Artist:HO-KAGO TEA TIME
ArtistUnicode:放課後ティータイム
Creator:Sotarks
Version:Aihu's Hyper
Source:K-ON!!
Tags:HTT Keion Yui Hirasawa Mio Akiyama Ritsu Tainaka Tsumugi Kotobuki Azusa Nakano Toyosaki Aki Hikasa Yoko Sato Satomi Minako Taketatsu Ayana Works3 Linada Del05 Aihuro ReFaller HB24 Touched by an Angel
BeatmapID:828183
BeatmapSetID:373858

[Difficulty]
HPDrainRate:5.7
CircleSize:4
OverallDifficulty:7
ApproachRate:8
SliderMultiplier:1.4
SliderTickRate:1

[Events]
//Background and Video events
0,0,"BG.jpg",0,0
//Break Periods
2,44470,53977
//Storyboard Layer 0 (Background)
//Storyboard Layer 1 (Fail)
//Storyboard Layer 2 (Pass)
//Storyboard Layer 3 (Foreground)
//Storyboard Sound Samples

[TimingPoints]
385,342.857142857143,4,2,0,70,1,0
16842,-100,4,2,2,70,0,0
55242,-100,4,2,2,70,0,0
77185,-100,4,2,2,70,0,1
93642,-100,4,2,2,70,0,0

[Colours]
Combo1 : 181,255,145
Combo2 : 247,205,108
Combo3 : 255,157,157
Combo4 : 168,183,255

[HitObjects]
416,120,385,6,0,L|400:204,1,70,4|0,0:0|0:0,0:0:0:0:
316,212,727,2,0,L|332:128,1,70,8|0,0:0|0:0,0:0:0:0:
268,76,1070,1,2,0:0:0:0:
268,76,1242,1,0,0:0:0:0:
184,40,1413,1,8,0:0:0:0:
184,40,1585,1,0,0:0:0:0:
128,112,1756,6,0,L|160:272,1,140,2|8,0:0|0:0,0:0:0:0:
124,336,2270,1,0,0:0:0:0:
212,312,2442,2,0,P|256:316|304:304,1,70
344,251,2785,1,8,0:0:0:0:
248,236,2956,1,0,0:0:0:0:
248,236,3127,6,0,P|204:232|156:244,1,70
212,312,3470,2,0,P|252:316|296:304,1,70,8|0,0:0|0:0,0:0:0:0:
344,251,3813,1,0,0:0:0:0:
281,311,3985,1,0,0:0:0:0:
360,352,4156,2,0,P|392:296|336:252,1,140,8|2,0:0|0:0,0:0:0:0:
281,311,4670,5,0,0:0:0:0:
248,236,4842,2,0,L|188:200,1,70,8|0,0:0|0:0,0:0:0:0:
308,180,5185,2,0,L|308:88,1,70,0|0,0:0|0:0,0:0:0:0:
368,236,5527,2,0,L|428:196,1,70,8|0,0:0|0:0,0:0:0:0:
448,64,5870,5,0,0:0:0:0:
392,128,6042,1,0,0:0:0:0:
324,64,6213,2,0,B|288:88|252:80|252:80|216:100|168:84,1,140,8|0,0:0|0:0,0:0:0:0:
112,40,6727,1,0,0:0:0:0:
80,124,6899,2,0,B|80:164|80:164|96:212,1,70,8|0,0:0|0:0,0:0:0:0:
108,280,7242,6,0,P|52:224|28:272,1,140,0|8,0:0|0:0,0:0:0:0:
44,340,7756,1,0,0:0:0:0:
132,364,7927,2,0,L|216:372,1,70
284,332,8270,2,0,L|376:316,1,70,8|0,0:0|0:0,0:0:0:0:
344,192,8613,6,0,L|176:216,1,140,2|8,0:0|0:0,0:0:0:0:
88,180,9127,1,0,0:0:0:0:
128,256,9299,1,0,0:0:0:0:
156,132,9470,1,0,0:0:0:0:
80,96,9642,2,0,P|96:56|132:20,1,70,8|0,0:0|0:0,0:0:0:0:
204,32,9985,5,2,0:0:0:0:
268,200,10327,1,2,0:0:0:0:
376,52,10670,1,2,0:0:0:0:
208,128,11013,1,2,0:0:0:0:
184,276,11356,6,0,L|128:332,1,70,4|0,0:0|0:0,0:0:0:0:
104,240,11699,2,0,L|164:180,1,70,8|0,0:0|0:0,0:0:0:0:
184,276,12042,1,0,0:0:0:0:
248,212,12213,1,0,0:0:0:0:
248,212,12385,2,0,P|324:228|392:184,1,140,8|0,0:0|0:0,0:0:0:0:
336,120,12899,5,0,0:0:0:0:
264,64,13070,2,0,P|197:46|134:73,1,140,8|0,0:0|0:0,0:0:0:0:
88,152,13585,1,0,0:0:0:0:
68,240,13756,2,0,L|100:312,1,70,10|0,0:0|0:0,0:0:0:0:
204,336,14099,5,2,0:0:0:0:
292,316,14270,1,0,0:0:0:0:
356,252,14442,2,0,P|375:223|387:190,1,70,8|0,0:0|0:0,0:0:0:0:
296,184,14785,2,0,P|244:200|208:200,1,70
244,112,15127,2,0,P|214:89|189:53,1,70,8|0,0:0|0:0,0:0:0:0:
284,36,15470,6,0,P|317:26|352:28,1,70,2|0,0:0|0:0,0:0:0:0:
440,60,15813,2,0,P|463:124|443:190,1,140,8|0,0:0|0:0,0:0:0:0:
388,264,16327,1,0,0:0:0:0:
352,180,16499,1,8,0:0:0:0:
388,264,16670,1,0,0:0:0:0:
280,296,16842,6,0,P|296:352|312:380,1,70,6|0,0:0|0:0,0:0:0:0:
212,256,17185,2,0,P|204:192|208:160,1,70,10|0,0:0|0:0,0:0:0:0:
156,312,17527,2,0,P|168:372|180:396,1,70,2|0,0:0|0:0,0:0:0:0:
84,280,17870,2,0,P|80:224|92:184,1,70,10|0,0:0|0:0,0:0:0:0:
112,124,18213,5,6,0:0:0:0:
164,200,18385,1,0,0:0:0:0:
240,152,18556,1,10,0:0:0:0:
196,72,18727,1,0,0:0:0:0:
196,72,18899,2,0,P|164:44|128:28,1,70,2|0,0:0|0:0,0:0:0:0:
272,80,19242,2,0,P|348:88|424:72,1,140,10|6,0:0|0:0,0:0:0:0:
492,40,19756,5,2,0:0:0:0:
512,128,19927,1,10,0:0:0:0:
496,216,20099,1,2,0:0:0:0:
512,304,20270,1,6,0:0:0:0:
492,384,20442,1,2,0:0:0:0:
420,328,20613,2,0,L|332:336,1,70,10|2,0:0|0:0,0:0:0:0:
272,280,20956,6,0,L|224:284,3,35,2|2|2|2,0:0|0:0|0:0|0:0,0:0:0:0:
196,260,21299,2,0,L|148:264,3,35,2|2|2|2,0:0|0:0|0:0|0:0,0:0:0:0:
116,248,21642,2,0,L|72:252,3,35,2|2|2|2,0:0|0:0|0:0|0:0,0:0:0:0:
36,236,21985,1,8,0:0:0:0:
84,108,22156,1,8,0:0:0:0:
176,112,22327,6,0,P|236:124|300:72,1,140,6|8,0:0|0:0,0:0:0:0:
368,24,22842,1,0,0:0:0:0:
428,92,23013,2,0,L|460:172,1,70,2|2,0:0|0:0,0:0:0:0:
440,248,23356,1,8,0:0:0:0:
368,196,23527,1,0,0:0:0:0:
312,296,23699,6,0,P|280:316|228:320,1,70,2|0,0:0|0:0,0:0:0:0:
252,232,24042,2,0,P|248:197|232:166,1,70,8|0,0:0|0:0,0:0:0:0:
168,228,24385,2,0,L|324:180,1,140,2|8,0:0|0:0,0:0:0:0:
388,152,24899,1,0,0:0:0:0:
456,68,25070,5,6,0:0:0:0:
476,156,25242,1,0,0:0:0:0:
388,152,25413,2,0,B|352:72|352:72|300:24,1,140,8|2,0:0|0:0,0:0:0:0:
224,36,25927,1,2,0:0:0:0:
256,120,26099,2,0,L|284:183,1,70,8|0,0:0|0:0,0:0:0:0:
204,224,26442,6,0,L|148:95,1,140,2|8,0:0|0:0,0:0:0:0:
80,32,26956,1,0,0:0:0:0:
32,112,27127,2,0,P|31:146|42:179,1,70,2|2,0:0|0:0,0:0:0:0:
60,268,27470,2,0,B|71:281|103:293|103:293|114:317|114:317|146:323|168:347,1,140,8|2,0:0|0:0,0:0:0:0:
280,332,27985,5,0,0:0:0:0:
344,268,28156,1,8,0:0:0:0:
356,180,28327,1,2,0:0:0:0:
324,96,28499,2,0,L|272:40,1,70,2|2,0:0|0:0,0:0:0:0:
192,84,28842,2,0,L|228:152,1,70,8|2,0:0|0:0,0:0:0:0:
268,228,29185,5,6,0:0:0:0:
344,268,29356,1,0,0:0:0:0:
428,236,29527,1,8,0:0:0:0:
356,180,29699,1,0,0:0:0:0:
268,228,29870,2,0,B|231:230|231:230|199:222,1,70,2|2,0:0|0:0,0:0:0:0:
172,136,30213,2,0,B|208:133|208:133|240:141,1,70,8|0,0:0|0:0,0:0:0:0:
336,80,30556,6,0,P|396:58|423:115,2,140,2|8|2,0:0|0:0|0:0,0:0:0:0:
252,44,31413,1,2,0:0:0:0:
160,52,31585,2,0,P|125:53|92:42,1,70,8|0,0:0|0:0,0:0:0:0:
20,96,31927,5,4,0:0:0:0:
32,188,32099,1,0,0:0:0:0:
104,244,32270,1,12,0:0:0:0:
196,244,32442,1,0,0:0:0:0:
276,200,32613,1,8,0:0:0:0:
276,200,32699,1,0,0:0:0:0:
276,200,32785,1,0,0:0:0:0:
368,208,32956,2,0,L|399:145,1,70,8|8,0:0|0:0,0:0:0:0:
476,228,33299,6,0,L|410:351,1,140,12|8,0:0|0:0,0:0:0:0:
320,340,33813,1,0,0:0:0:0:
232,356,33985,2,0,B|204:332|204:332|156:316,1,70,2|2,0:0|0:0,0:0:0:0:
48,320,34327,2,0,B|76:344|76:344|124:360,1,70,8|0,0:0|0:0,0:0:0:0:
112,264,34670,5,2,0:0:0:0:
108,172,34842,1,0,0:0:0:0:
136,84,35013,2,0,P|162:60|191:41,1,70,8|2,0:0|0:0,0:0:0:0:
284,40,35356,1,2,0:0:0:0:
360,88,35527,1,2,0:0:0:0:
360,88,35699,2,0,P|393:142|341:178,1,140,8|6,0:0|0:0,0:0:0:0:
252,188,36213,5,0,0:0:0:0:
232,276,36385,2,0,L|276:340,1,70,8|0,0:0|0:0,0:0:0:0:
180,340,36727,2,0,L|140:282,1,70,2|2,0:0|0:0,0:0:0:0:
88,208,37070,2,0,B|96:160|96:160|88:116|88:116|100:68,1,140,8|2,0:0|0:0,0:0:0:0:
184,32,37585,5,0,0:0:0:0:
272,48,37756,1,8,0:0:0:0:
344,104,37927,1,2,0:0:0:0:
388,184,38099,2,0,P|399:216|398:251,1,70,2|2,0:0|0:0,0:0:0:0:
336,320,38442,2,0,P|268:309|229:253,1,140,8|6,0:0|0:0,0:0:0:0:
200,168,38956,6,0,L|160:108,1,70,2|8,0:0|0:0,0:0:0:0:
96,48,39299,1,0,0:0:0:0:
96,48,39385,1,0,0:0:0:0:
96,48,39470,1,2,0:0:0:0:
32,112,39642,1,2,0:0:0:0:
32,204,39813,6,0,P|60:267|112:314,1,140,8|4,0:0|0:0,0:0:0:0:
200,332,40327,1,0,0:0:0:0:
292,320,40499,2,0,P|352:308|372:300,1,70,8|0,0:0|0:0,0:0:0:0:
428,244,40842,1,2,0:0:0:0:
428,244,40927,1,0,0:0:0:0:
428,244,41013,1,0,0:0:0:0:
436,152,41185,2,0,P|437:117|422:85,1,70,8|0,0:0|0:0,0:0:0:0:
340,48,41527,6,0,P|305:46|273:61,1,70,4|0,0:0|0:0,0:0:0:0:
216,132,41870,2,0,L|112:236,1,140,8|4,0:0|0:0,0:0:0:0:
48,288,42385,1,0,0:0:0:0:
48,288,42470,1,0,0:0:0:0:
48,288,42556,1,8,0:0:0:0:
36,196,42727,1,0,0:0:0:0:
60,108,42899,6,0,L|112:48,1,70,4|0,0:0|0:0,0:0:0:0:
199,63,43242,2,0,L|215:131,1,70,8|0,0:0|0:0,0:0:0:0:
248,216,43585,1,2,0:0:0:0:
332,256,43756,1,2,0:0:0:0:
404,200,43927,1,8,0:0:0:0:
412,108,44099,1,8,0:0:0:0:
336,56,44270,5,4,0:0:0:0:
256,192,54727,5,2,0:0:0:0:
328,96,54899,1,8,0:0:0:0:
200,112,55242,6,0,P|172:148|188:264,1,140,6|8,0:0|0:0,0:0:0:0:
256,192,55756,1,2,0:0:0:0:
291,276,55927,2,0,P|325:269|360:274,1,70,2|2,0:0|0:0,0:0:0:0:
384,192,56270,1,8,0:0:0:0:
408,104,56442,1,0,0:0:0:0:
480,160,56613,6,0,P|488:200|480:252,1,70,2|0,0:0|0:0,0:0:0:0:
384,192,56956,2,0,P|320:144|324:64,1,140,8|2,0:0|0:0,0:0:0:0:
380,28,57470,1,2,0:0:0:0:
292,4,57642,1,8,0:0:0:0:
216,56,57813,1,0,0:0:0:0:
128,124,57985,6,0,B|111:139|147:187|147:187|179:223|163:251,1,140,6|8,0:0|0:0,0:0:0:0:
120,328,58499,1,2,0:0:0:0:
208,344,58670,2,0,L|276:304,1,70,2|2,0:0|0:0,0:0:0:0:
336,244,59013,2,0,P|344:188|292:92,1,140,8|2,0:0|0:0,0:0:0:0:
224,128,59527,5,0,0:0:0:0:
168,200,59699,2,0,L|76:184,1,70,8|0,0:0|0:0,0:0:0:0:
52,108,60042,1,2,0:0:0:0:
96,28,60213,1,2,0:0:0:0:
188,44,60385,2,0,L|258:44,1,70,8|0,0:0|0:0,0:0:0:0:
360,84,60727,6,0,B|388:120|392:148|392:148|380:180|332:220,1,140,6|2,0:0|0:0,0:0:0:0:
260,204,61242,1,0,0:0:0:0:
260,204,61327,1,0,0:0:0:0:
260,204,61413,2,0,B|232:168|228:140|228:140|240:108|288:68,1,140,2|2,0:0|0:0,0:0:0:0:
188,44,61927,1,0,0:0:0:0:
104,80,62099,6,0,P|83:107|54:128,1,70,6|0,0:0|0:0,0:0:0:0:
64,220,62442,2,0,L|88:252,3,35,2|0|0|0,0:0|0:0|0:0|0:0,0:0:0:0:
124,272,62785,2,0,L|160:316,3,35,2|0|0|0,0:0|0:0|0:0|0:0,0:0:0:0:
188,316,63127,2,0,L|232:364,3,35,2|0|0|0,0:0|0:0|0:0|0:0,0:0:0:0:
248,372,63470,5,6,0:0:0:0:
248,372,63642,1,2,0:0:0:0:
320,320,63813,2,0,P|360:276|388:260,1,70,2|2,0:0|0:0,0:0:0:0:
316,196,64156,2,0,P|280:188|244:164,1,70,6|2,0:0|0:0,0:0:0:0:
172,124,64499,1,2,0:0:0:0:
168,32,64670,1,2,0:0:0:0:
260,40,64842,6,0,L|308:56,3,35
336,64,65185,1,0,0:0:0:0:
368,96,65270,1,0,0:0:0:0:
384,140,65356,1,0,0:0:0:0:
380,184,65442,1,0,0:0:0:0:
364,224,65527,6,0,P|349:256|293:283,1,70
232,292,65870,1,8,0:0:0:0:
160,236,66042,1,8,0:0:0:0:
84,152,66213,6,0,B|80:104|80:104|144:28,1,140,6|2,0:0|0:0,0:0:0:0:
232,28,66727,1,2,0:0:0:0:
312,76,66899,2,0,P|340:148|300:220,1,140,8|0,0:0|0:0,0:0:0:0:
336,292,67413,2,0,B|404:272|404:272|476:296,1,140,2|0,0:0|0:0,0:0:0:0:
480,204,67927,5,8,0:0:0:0:
480,204,68013,1,0,0:0:0:0:
480,204,68099,1,0,0:0:0:0:
456,116,68270,2,0,L|356:16,1,140,8|0,0:0|0:0,0:0:0:0:
268,28,68785,1,2,0:0:0:0:
180,52,68956,6,0,B|140:80|150:127|150:127|190:167,1,140,6|2,0:0|0:0,0:0:0:0:
264,212,69470,1,2,0:0:0:0:
356,220,69642,2,0,B|368:268|368:268|360:312|360:312|376:368,1,140,8|2,0:0|0:0,0:0:0:0:
280,356,70156,1,2,0:0:0:0:
188,356,70327,6,0,P|144:324|172:236,1,140,2|2,0:0|0:0,0:0:0:0:
224,188,70842,1,2,0:0:0:0:
288,124,71013,2,0,P|313:100|344:84,1,70,8|8,0:0|0:0,0:0:0:0:
412,144,71356,2,0,P|432:68|384:0,1,140,0|12,0:0|0:0,0:0:0:0:
316,20,71870,5,0,0:0:0:0:
228,36,72042,2,0,P|204:96|139:89,1,140,8|8,0:0|0:0,0:0:0:0:
60,44,72556,1,2,0:0:0:0:
56,136,72727,1,8,0:0:0:0:
124,196,72899,1,2,0:0:0:0:
236,200,73070,6,0,L|388:164,1,140,12|8,0:0|0:0,0:0:0:0:
444,108,73585,1,2,0:0:0:0:
472,196,73756,2,0,P|500:240|476:324,1,140,8|8,0:0|0:0,0:0:0:0:
388,340,74270,1,2,0:0:0:0:
276,336,74442,6,0,L|246:272,1,70,12|2,0:0|0:0,0:0:0:0:
172,220,74785,1,2,0:0:0:0:
196,132,74956,2,0,L|156:48,1,70,8|2,0:0|0:0,0:0:0:0:
240,12,75299,1,2,0:0:0:0:
316,60,75470,1,8,0:0:0:0:
284,144,75642,1,2,0:0:0:0:
196,132,75813,1,4,0:0:0:0:
172,220,76842,5,2,0:0:0:0:
284,144,77013,1,2,0:0:0:0:
196,132,77185,6,0,P|160:128|108:156,1,70,6|0,0:0|0:0,0:0:0:0:
92,224,77527,1,8,0:0:0:0:
152,292,77699,1,2,0:0:0:0:
244,296,77870,2,0,P|312:268|344:192,1,140,2|8,0:0|0:0,0:0:0:0:
284,144,78385,1,2,0:0:0:0:
240,64,78556,6,0,B|232:24|232:24|288:-4|356:20,1,140,2|8,0:0|0:0,0:0:0:0:
400,68,79070,1,2,0:0:0:0:
416,160,79242,2,0,B|424:200|424:200|368:228|300:204,1,140,2|8,0:0|0:0,0:0:0:0:
236,212,79756,1,2,0:0:0:0:
136,260,79927,6,0,P|128:296|144:352,1,70,6|0,0:0|0:0,0:0:0:0:
224,336,80270,2,0,P|258:331|292:339,1,70,8|2,0:0|0:0,0:0:0:0:
332,256,80613,2,0,P|336:192|308:108,1,140,2|8,0:0|0:0,0:0:0:0:
232,84,81127,1,2,0:0:0:0:
140,88,81299,6,0,P|80:96|48:188,1,140,2|8,0:0|0:0,0:0:0:0:
96,236,81813,1,2,0:0:0:0:
180,276,81985,2,0,P|184:220|176:192,1,70,2|2,0:0|0:0,0:0:0:0:
260,164,82327,1,8,0:0:0:0:
344,204,82499,1,2,0:0:0:0:
396,304,82670,6,0,P|424:288|448:252,1,70,6|2,0:0|0:0,0:0:0:0:
448,168,83013,1,8,0:0:0:0:
400,92,83185,1,2,0:0:0:0:
316,56,83356,2,0,P|281:54|246:58,1,70,0|2,0:0|0:0,0:0:0:0:
120,104,83699,2,0,P|180:108|212:104,1,70,8|2,0:0|0:0,0:0:0:0:
189,107,83956,5,2,0:0:0:0:
189,107,84042,1,2,0:0:0:0:
260,164,84213,1,2,0:0:0:0:
348,140,84385,1,8,0:0:0:0:
348,140,84556,2,0,P|360:200|304:256,1,140,2|2,0:0|0:0,0:0:0:0:
220,268,85070,2,0,P|186:259|157:240,1,70,8|2,0:0|0:0,0:0:0:0:
88,180,85413,6,0,P|92:110|121:47,1,140,6|8,0:0|0:0,0:0:0:0:
212,32,85927,1,2,0:0:0:0:
300,56,86099,2,0,B|368:60|368:60|452:56,1,140,2|8,0:0|0:0,0:0:0:0:
504,120,86613,1,0,0:0:0:0:
484,232,86785,6,0,L|468:320,1,70,6|2,0:0|0:0,0:0:0:0:
392,348,87127,1,8,0:0:0:0:
304,332,87299,2,0,P|270:320|240:303,1,70,2|8,0:0|0:0,0:0:0:0:
208,272,87556,1,8,0:0:0:0:
180,236,87642,1,2,0:0:0:0:
152,148,87813,2,0,L|140:88,3,35,8|0|0|0,0:0|0:0|0:0|0:0,0:0:0:0:
140,68,88156,6,0,P|174:68|207:80,1,70,6|0,0:0|0:0,0:0:0:0:
280,136,88499,1,8,0:0:0:0:
372,128,88670,1,2,0:0:0:0:
460,112,88842,2,0,P|432:56|356:40,1,140,2|8,0:0|0:0,0:0:0:0:
372,128,89356,1,2,0:0:0:0:
388,216,89527,6,0,B|408:312|408:312|372:292,1,140,2|8,0:0|0:0,0:0:0:0:
284,260,90042,1,2,0:0:0:0:
196,288,90213,2,0,B|160:308|160:308|180:212,1,140,2|8,0:0|0:0,0:0:0:0:
228,132,90727,1,2,0:0:0:0:
328,180,90899,6,0,P|346:114|305:60,1,140,6|8,0:0|0:0,0:0:0:0:
216,52,91413,1,2,0:0:0:0:
124,60,91585,2,0,B|104:140|104:140|52:208,1,140,2|8,0:0|0:0,0:0:0:0:
24,264,92099,1,2,0:0:0:0:
116,256,92270,6,0,P|180:280|215:339,1,140,2|8,0:0|0:0,0:0:0:0:
308,352,92785,1,2,0:0:0:0:
392,320,92956,2,0,P|416:260|432:168,1,140,2|8,0:0|0:0,0:0:0:0:
416,96,93470,1,2,0:0:0:0:
332,60,93642,6,0,L|250:27,1,70,6|0,0:0|0:0,0:0:0:0:
192,88,93985,2,0,L|217:152,1,70,2|0,0:0|0:0,0:0:0:0:
128,152,94327,2,0,L|102:87,1,70,2|0,0:0|0:0,0:0:0:0:
44,156,94670,2,0,L|68:221,1,70,2|0,0:0|0:0,0:0:0:0:
128,292,95013,6,0,L|162:284,3,35,6|0|0|0,0:0|0:0|0:0|0:0,0:0:0:0:
208,276,95356,2,0,L|224:343,1,70,2|0,0:0|0:0,0:0:0:0:
292,280,95699,2,0,L|274:212,1,70,2|0,0:0|0:0,0:0:0:0:
360,240,96042,2,0,L|376:307,1,70,2|0,0:0|0:0,0:0:0:0:
444,248,96385,6,0,L|410:112,1,140,2|2,0:0|0:0,0:0:0:0:
336,56,96899,1,2,0:0:0:0:
244,52,97070,1,6,0:0:0:0:
172,108,97242,1,2,0:0:0:0:
180,200,97413,1,2,0:0:0:0:
264,236,97585,1,2,0:0:0:0:
264,236,97756,6,0,P|291:292|233:317,1,140,6|2,0:0|0:0,0:0:0:0:
144,308,98270,1,2,0:0:0:0:
52,304,98442,2,0,P|60:270|79:241,1,70,2|2,0:0|0:0,0:0:0:0:
144,176,98785,1,8,0:0:0:0:
228,140,98956,1,8,0:0:0:0:
316,160,99127,5,4,0:0:0:0:
