osu file format v8

[General]
AudioFilename: Tenshi ni Fureta yo!! (TV Size).mp3
AudioLeadIn: 0
PreviewTime: 59989
Countdown: 0
SampleSet: Soft
StackLeniency: 0.6
Mode: 0
LetterboxInBreaks: 0

[Editor]
Bookmarks: 2552,10757,27167,43577,59987,76398,96910,117423,133834,150244
DistanceSpacing: 0.85
BeatDivisor: 4
GridSize: 8

[Metadata]
Title:Tenshi ni Fureta yo!! (TV Size)
Artist:HO-KAGO TEA TIME
Creator:DJPop
Version:Insane
Source:K-ON!!
Tags:toyosaki aki hikasa youko satou satomi kotobuki minako taketatsu ayana hirasawa yui akiyama mio tainaka ritsu kotobuki tsumugi nakano asuza k-on keion hisaka yoko

[Difficulty]
HPDrainRate:5
CircleSize:4
OverallDifficulty:6
ApproachRate:7
SliderMultiplier:1.92
SliderTickRate:2

[Events]
//Background and Video events
Video,-960,"Tenshi ni Fureta yo!! (TV Size).avi"
0,0,"Tenshi ni Fureta yo!! (TV Size).png"
//Break Periods
//Storyboard Layer 0 (Background)
//Storyboard Layer 1 (Fail)
//Storyboard Layer 2 (Pass)
//Storyboard Layer 3 (Foreground)
//Storyboard Sound Samples
//Background Colour Transformations
3,100,255,255,255

[TimingPoints]
2552,512.820512820513,4,2,1,80,1,0
6782,-100,4,1,2,80,0,0
7295,-100,4,2,2,80,0,0
7680,-100,4,1,2,80,0,0
8321,-200,4,2,1,80,0,0
8577,-200,4,1,1,80,0,0
9603,-200,4,1,2,80,0,0
9859,-100,4,2,2,80,0,0
10500,-100,4,2,1,80,0,0
13962,-100,4,1,1,80,0,0
14218,-100,4,2,1,80,0,0
18064,-100,4,1,1,80,0,0
18321,-100,4,2,1,80,0,0
22167,-100,4,1,1,80,0,0
22423,-100,4,2,1,80,0,0
26269,-100,4,1,1,80,0,0
26526,-100,4,2,2,80,0,0
26910,-100,4,2,1,80,0,0
30372,-100,4,1,1,80,0,0
30628,-100,4,2,1,80,0,0
34475,-100,4,1,1,80,0,0
34731,-100,4,2,1,80,0,0
38577,-100,4,1,1,80,0,0
38834,-100,4,2,1,80,0,0
41910,-100,4,2,2,80,0,0
42167,-100,4,1,2,80,0,0
42552,-100,4,1,1,80,0,0
42680,-100,4,1,2,80,0,0
43449,-100,4,2,1,80,0,0
53449,-100,4,2,2,80,0,0
53962,-100,4,2,1,80,0,0
58577,-100,4,1,1,80,0,0
58834,-100,4,1,2,80,0,0
59346,-100,4,2,2,80,0,0
59731,-100,4,2,1,80,0,0
59987,-100,4,2,1,80,0,1
68577,-100,4,2,2,80,0,1
68834,-200,4,2,2,80,0,1
69090,-200,4,1,1,80,0,1
69346,-200,4,2,1,80,0,1
69603,-100,4,2,1,80,0,1
70628,-100,4,2,2,80,0,1
70885,-200,4,2,2,80,0,1
71141,-200,4,1,1,80,0,1
71398,-200,4,2,1,80,0,1
71654,-100,4,2,1,80,0,1
74987,-100,4,1,1,80,0,1
75244,-100,4,1,2,80,0,1
75757,-100,4,2,2,80,0,1
76013,-100,4,1,2,80,0,1
76398,-100,4,2,1,80,0,1
79346,-100,4,2,2,80,0,1
80244,-100,4,2,1,80,0,1
84987,-100,4,2,2,80,0,1
85244,-200,4,2,2,80,0,1
85500,-200,4,1,1,80,0,1
85757,-200,4,2,1,80,0,1
86013,-100,4,2,1,80,0,1
87039,-100,4,2,2,80,0,1
87552,-100,4,1,1,80,0,1
87808,-100,4,2,1,80,0,1
89603,-100,4,1,2,80,0,1
91013,-100,4,2,2,80,0,1
91910,-100,4,1,2,80,0,1
92680,-100,4,2,1,80,0,1
92808,-100,4,2,1,80,0,0
93577,-100,4,1,1,80,0,0
94475,-100,4,2,1,80,0,0
94859,-100,4,1,2,80,0,0
95500,-100,4,2,2,80,0,0
96269,-100,4,1,2,80,0,0
96782,-100,4,2,1,80,0,0
98321,-100,4,2,2,80,0,0
98962,-100,4,2,1,80,0,0
100628,-200,4,2,1,80,0,0
100885,-200,4,1,1,80,0,0
101141,-200,4,2,1,80,0,0
101398,-100,4,2,1,80,0,0
103064,-100,4,1,1,80,0,0
103962,-100,4,1,2,50,0,0
104090,-100,4,1,2,60,0,0
104346,-100,4,1,2,70,0,0
104603,-100,4,1,2,80,0,0
104987,-100,4,2,1,80,0,0
106526,-100,4,2,2,80,0,0
106782,-200,4,2,2,80,0,0
107039,-200,4,1,1,80,0,0
107295,-200,4,2,2,80,0,0
107552,-100,4,2,2,80,0,0
108834,-100,4,2,1,80,0,0
110372,-100,4,2,2,80,0,0
111013,-100,4,2,1,80,0,0
111398,-100,4,1,2,60,0,0
111910,-100,4,1,2,70,0,0
112423,-100,4,1,2,80,0,0
113321,-100,4,2,1,80,0,0
115244,-100,4,2,2,80,0,0
115500,-100,4,1,2,60,0,0
116013,-100,4,1,2,70,0,0
116526,-100,4,1,2,80,0,0
117423,-100,4,2,1,80,0,1
126013,-100,4,2,2,80,0,1
126654,-100,4,2,1,80,0,1
128064,-100,4,2,2,80,0,1
128577,-100,4,2,1,80,0,1
132423,-100,4,1,1,80,0,1
132680,-100,4,1,2,80,0,1
133193,-100,4,2,2,80,0,1
133449,-100,4,1,2,80,0,1
133705,-100,4,2,1,80,0,1
137039,-100,4,2,2,80,0,1
137680,-100,4,2,1,80,0,1
141398,-100,4,1,2,80,0,1
142039,-100,4,2,1,80,0,1
142423,-100,4,2,2,80,0,1
143064,-100,4,2,1,80,0,1
144475,-100,4,2,2,80,0,1
145116,-100,4,2,1,80,0,1
148064,-100,4,1,2,80,0,1
148321,-100,4,1,2,50,0,1
148577,-100,4,2,2,80,0,1
149603,-100,4,1,2,80,0,1
150244,-100,4,2,1,80,0,0
150244,-100,4,2,1,80,0,0
153193,-100,4,1,1,80,0,0
154218,-100,4,2,1,80,0,0
154475,-100,4,1,2,80,0,0
154987,-100,4,2,2,80,0,0
155372,-100,4,1,2,80,0,0
156013,-200,4,2,1,80,0,0
156269,-200,4,1,1,80,0,0
157295,-200,4,1,2,80,0,0
158064,-200,4,2,2,80,0,0
161141,-200,4,2,1,80,0,0

[Colours]
Combo1 : 0,255,0
Combo2 : 0,255,255
Combo3 : 255,0,255
Combo4 : 255,255,0

[HitObjects]
256,352,2552,5,4
176,336,2808,1,0
104,296,3064,1,8
64,224,3321,2,0,B|23:150|48:80|96:56,1,192
176,32,4090,1,8
232,88,4346,2,0,B|273:162|248:232|200:256,1,192
264,304,5116,5,8
336,344,5372,1,0
408,304,5628,2,0,C|440:304,3,31.6666666666667
336,264,6141,1,8
336,248,6269,1,8
336,232,6398,1,0
408,192,6654,5,4
480,152,6910,1,4
480,72,7167,1,8
408,32,7423,1,4
256,104,7936,1,4
176,104,8193,1,2
128,32,8449,6,0,B|80:32|32:64|47:104|32:144|80:176|128:176,1,240,4|0
176,104,9987,1,0
256,104,10244,1,12
472,224,10757,6,0,B|456:320|363:374|248:352|248:352,2,288,4|0|8
480,144,12552,1,0
456,64,12808,5,0
384,32,13064,1,0
312,64,13321,1,0
288,144,13577,2,0,B|288:264|168:264|168:264,1,192,0|4
200,176,14346,1,8
120,200,14603,1,0
40,224,14859,6,0,B|56:320|149:374|264:352|264:352,2,288,0|0|8
32,144,16654,1,0
56,64,16910,5,0
128,32,17166,1,0
200,64,17423,1,0
224,144,17679,2,0,B|224:264|344:264|344:264,1,192,0|4
312,176,18448,1,8
392,200,18705,1,0
472,224,18962,5,0
472,144,19218,2,0,B|440:80|398:68|352:72|312:96|312:96,2,192
472,224,20500,2,0,C|472:320,1,96,8|0
392,352,21013,5,0
312,352,21269,2,0,L|312:312|321:296|303:264|321:232|312:216|312:176,2,192,0|0|4
232,352,22552,1,8
192,280,22808,1,0
168,280,22936,1,0
144,280,23064,5,0
96,352,23321,1,0
32,304,23577,1,0
72,232,23834,1,0
32,160,24090,1,0
104,128,24346,1,0
144,200,24603,1,8
184,128,24859,1,0
144,56,25116,6,0,B|235:10|328:56,1,192
400,96,25885,2,0,B|480:136|480:210|480:256,1,192,0|4
480,336,26654,1,12
32,336,27167,6,0,B|32:288|32:214|72:152,1,192,4|0
152,167,27936,2,0,B|112:229|112:303|112:352,1,192
192,336,28705,1,8
264,304,28962,1,0
336,272,29218,5,0
280,208,29475,1,0
224,144,29731,1,0
168,80,29987,2,0,B|192:40|248:16|304:40|328:80,1,192,0|4
400,128,30757,1,8
400,48,31013,1,0
480,48,31269,6,0,B|480:96|480:170|440:232,1,192,0|0
359,216,32038,2,0,B|399:154|399:80|400:32,1,192
320,48,32808,1,8
248,80,33065,1,0
176,112,33321,5,0
232,176,33578,1,0
288,240,33834,1,0
344,304,34090,2,0,B|320:344|264:368|208:344|184:304,1,192,0|4
112,256,34860,1,8
112,336,35116,1,0
32,336,35372,5,0
32,256,35628,2,0,C|32:64,2,192
112,256,36910,1,8
112,176,37167,1,0
112,152,37295,1,0
112,128,37423,5,0
192,96,37680,2,0,C|192:288,2,192,0|0|4
248,32,38962,1,8
304,96,39218,1,0
304,120,39346,1,0
304,144,39475,5,0
376,184,39731,1,0
304,232,39987,1,0
376,280,40244,1,0
336,352,40500,1,0
416,352,40757,1,0
456,280,41013,1,8
456,200,41269,1,0
456,120,41526,6,0,B|449:61|480:32,2,96,0|8|12
376,96,42295,1,8
352,80,42423,1,8
328,64,42552,2,0,B|288:36|240:32,1,96,0|4
160,32,43064,1,8
136,32,43193,1,4
112,32,43321,1,2
32,32,43577,6,0,B|33:152|152:152|152:152,1,192,4|8
153,231,44346,2,0,B|152:232|33:232|32:352,1,192
112,352,45116,1,8
192,352,45372,2,0,B|248:360|288:328|288:264|232:232,1,192
312,208,46141,5,8
392,231,46398,2,0,B|336:264|336:328|376:360|432:352,1,192
480,288,47167,1,8
480,208,47423,1,0
480,184,47552,1,0
480,160,47680,5,0
480,80,47936,2,0,C|392:40,1,96,0|8
392,120,48449,1,0
320,80,48705,2,0,C|232:40,1,96
160,80,49218,2,0,C|72:40,1,96,8|0
40,120,49731,6,0,B|-6:213|40:304,2,192,0|8|0
104,166,51013,2,0,B|84:216|104:258,1,96,2|8
171,212,51526,1,0
200,288,51782,6,0,B|276:352|376:352,1,192,4|8
456,352,52552,1,0
456,272,52808,2,0,B|324:280|264:232,1,192,0|8
328,176,53577,1,0
408,176,53834,6,0,B|448:160|500:112|448:48|408:32,1,192,4|8
328,32,54603,1,0
304,32,54731,1,0
280,32,54859,2,0,B|159:32|168:152,1,192,0|8
168,232,55628,1,0
248,200,55885,5,4
248,280,56141,1,0
208,352,56398,1,8
128,352,56654,1,0
88,280,56910,1,0
88,200,57167,1,0
128,128,57423,1,8
208,128,57680,1,0
168,56,57936,6,0,B|216:16|256:27|304:16|344:56,1,192,0|12
408,112,58705,1,0
416,136,58834,1,8
424,160,58962,1,8
432,184,59090,1,8
440,208,59218,2,0,C|472:312,1,96,4|12
152,352,59987,6,0,B|36:348|32:232,1,192,4|8
104,192,60757,1,0
32,152,61013,2,0,B|36:36|152:32,1,192,0|8
192,104,61782,1,0
232,32,62039,6,0,B|348:36|352:152,1,192,0|8
280,192,62808,1,0
352,232,63064,2,0,C|352:328,2,96,0|0|8
432,216,63834,1,0
480,152,64090,6,0,B|476:36|360:32,1,192,0|8
320,104,64860,1,0
280,32,65116,2,0,B|164:36|160:152,1,192,0|8
232,192,65885,1,0
160,232,66142,6,0,B|164:348|280:352,1,192,0|8
320,280,66911,1,0
360,352,67167,2,0,C|424:352,2,48,0|8|0
400,280,67680,1,8
440,208,67936,1,0
360,208,68193,5,4
280,208,68449,1,0
200,208,68705,1,8
200,208,68962,2,0,C|200:304,1,96,4|0
136,352,69731,1,8
72,304,69987,1,0
72,280,70116,1,0
72,256,70244,5,4
72,176,70500,1,0
136,128,70757,1,8
136,128,71013,2,0,B|136:32,1,96,4|0
216,32,71782,1,8
296,32,72039,1,0
376,32,72295,6,0,B|488:32|480:160,1,192,4|8
472,240,73064,1,0
432,312,73321,2,0,B|402:359|344:352,1,96
304,280,73834,2,0,B|334:233|392:240,2,96,8|0|0
248,344,74603,5,0
168,344,74859,1,12
200,272,75116,1,0
176,264,75244,1,8
152,256,75372,1,8
184,184,75628,1,4
104,184,75885,1,12
144,112,76141,1,8
168,104,76269,1,8
192,96,76398,6,0,C|400:32,1,192,4|8
456,40,77167,1,0
408,112,77423,2,0,C|304:144,2,96,0|0|8
480,160,78193,1,0
408,208,78449,6,0,C|224:264,1,192,0|8
176,192,79218,1,0
128,120,79475,2,0,C|24:152,1,96
36,235,79987,2,0,C|128:264,1,96,12|0
80,336,80500,6,0,B|195:375|256:304,1,192,4|8
312,240,81269,1,0
392,256,81526,2,0,C|392:352,2,96,0|0|8
472,240,82295,1,0
472,160,82552,6,0,B|448:128|432:112|392:112|352:112|336:128|312:160,1,192,0|8
240,208,83321,1,0
240,128,83577,2,0,C|240:32,1,96
160,64,84090,1,8
160,88,84218,1,8
160,112,84346,1,0
160,192,84603,5,4
88,152,84859,1,0
40,216,85116,1,8
112,256,85372,2,0,B|152:344,1,96,4|0
232,344,86141,1,8
264,264,86398,1,0
288,256,86526,1,0
312,264,86654,5,4
344,344,86910,1,0
424,344,87167,1,8
456,264,87423,2,0,B|502:171|456:80,1,192,4|0
400,144,88193,1,8
328,104,88449,1,0
256,72,88705,6,0,B|169:23|72:32,2,192,4|8|4
232,152,89987,1,2
288,216,90244,1,8
272,240,90372,1,4
256,264,90500,1,2
256,352,90757,5,6
256,352,91269,1,4
256,32,91782,1,0
256,112,92039,2,0,C|232:152,1,48,8|8
256,112,92295,2,0,C|280:152,2,48
176,112,92808,6,0,B|128:102|82:112,2,96,4|0|8
176,272,93834,2,0,B|128:282|82:272,2,96,0|2|8
128,192,94603,1,4
384,112,95116,6,0,C|384:176,2,48,8|8|8
384,32,95628,1,4
384,352,96141,1,0
384,272,96398,2,0,C|384:208,2,48,8|4|2
304,272,96910,5,4
248,328,97167,1,0
168,352,97423,1,8
88,328,97680,2,0,B|40:302|32:256,1,96
32,176,98193,1,0
48,96,98449,1,8
104,32,98705,1,4
408,32,99218,5,0
464,96,99475,1,8
480,176,99731,2,0,B|475:225|448:264,1,96
392,328,100244,1,0
312,352,100500,1,8
232,352,100757,2,0,C|136:352,1,96,4|0
72,296,101526,5,8
136,240,101782,2,0,C|232:240,1,96
256,160,102295,1,0
184,120,102552,1,8
112,160,102808,1,4
440,48,103321,5,0
440,128,103577,1,8
440,208,103834,2,0,C|480:232,1,48,0|8
440,248,104090,2,0,C|480:272,1,48,8|8
440,288,104346,2,0,C|480:312,1,48,8|8
440,328,104603,2,0,C|480:352,2,48,8|4|2
352,352,105116,6,0,C|160:352,1,192,4|8
128,272,105885,1,0
208,272,106141,2,0,C|304:272,1,96,4|0
384,272,106654,1,8
352,192,106910,2,0,C|256:192,1,96,4|0
176,192,107680,5,8
208,272,107936,1,0
128,272,108193,1,4
160,352,108449,1,0
80,352,108705,2,0,B|45:321|32:272,1,96,8|0
64,192,109218,6,0,L|64:144|46:128|81:96|64:80|64:32,2,192,4|8|0
128,248,110500,1,0
184,184,110757,2,0,C|184:88,1,96,12|0
256,32,111269,5,12
320,32,111526,1,10
392,48,111782,1,10
448,112,112039,1,10
472,208,112295,1,12
432,304,112552,1,12
328,352,112808,1,12
200,352,113064,1,8
200,352,113193,1,8
200,352,113321,6,0,C|104:352,2,96,4|0|8
200,264,114090,2,0,C|104:264,1,96,0|8
200,176,114603,1,0
288,176,114859,1,10
288,152,114987,1,0
288,128,115116,2,0,C|288:32,1,96,0|4
200,32,115628,5,8
104,56,115885,1,8
56,152,116141,1,8
64,264,116398,1,8
168,328,116654,1,8
304,352,116910,1,8
328,344,117039,1,8
352,336,117167,1,8
376,328,117295,1,8
400,320,117423,6,0,B|502:288|480:168,1,192,4|8
464,88,118193,1,0
392,48,118449,2,0,C|392:144,2,96,0|0|8
320,88,119218,1,0
280,160,119475,6,0,C|224:344,1,192,0|8
152,296,120244,1,0
80,248,120500,2,0,C|40:344,2,96,0|0|8
112,168,121269,1,0
120,144,121398,1,0
128,120,121526,6,0,B|164:21|280:32,1,192,0|8
360,40,122295,1,0
432,80,122552,2,0,C|480:80,2,48,0|8|0
360,120,123064,1,8
288,160,123321,1,0
360,200,123577,6,0,B|470:244|480:336,1,192,0|8
400,352,124346,1,0
392,328,124475,1,8
376,312,124603,2,0,B|328:272|288:272,1,96
208,272,125116,1,8
240,352,125372,1,0
160,352,125628,6,0,C|64:352,1,96,4|0
32,272,126141,2,0,C|128:272,1,96,8|4
304,112,126910,1,0
272,32,127167,1,8
352,32,127423,1,0
352,32,127552,1,0
352,32,127680,6,0,C|448:32,1,96,4|0
480,112,128193,2,0,C|384:112,1,96,8|4
256,304,128834,2,0,C|256:352,1,48,8|0
256,304,129218,1,8
256,304,129475,1,0
336,336,129731,6,0,C|432:336,1,96,4|0
472,264,130244,1,8
472,184,130500,1,0
432,112,130757,2,0,C|336:112,1,96
288,176,131269,2,0,C|288:272,1,96,8|0
208,272,131782,5,4
136,320,132039,1,0
64,272,132295,1,8
88,192,132552,1,0
112,200,132680,1,8
144,208,132808,1,8
168,200,132936,1,8
192,192,133064,1,2
184,112,133321,2,0,B|142:143|96:112,1,96,4|0
136,32,133834,6,0,C|40:32,2,96,4|0|8
216,32,134603,1,0
216,32,134859,2,0,C|312:32,1,96
392,32,135372,1,8
472,32,135628,1,0
424,104,135885,6,0,C|328:104,2,96,0|0|8
472,176,136654,1,0
472,176,136910,2,0,C|472:272,1,96
424,344,137423,1,12
376,272,137680,1,0
328,344,137936,6,0,C|232:344,1,96,4|0
152,344,138449,1,8
208,280,138705,1,0
128,280,138962,2,0,C|32:280,1,96
104,216,139475,1,8
184,216,139731,1,0
224,144,139987,6,0,C|320:144,1,96
400,144,140500,1,8
352,208,140757,2,0,C|304:208,2,48,0|8|0
432,208,141269,1,0
480,144,141526,2,0,C|480:96,1,48,8|8
480,96,141782,2,0,C|480:48,1,48,8|8
480,48,142039,5,4
400,32,142295,1,0
320,48,142552,1,8
240,32,142808,1,4
120,152,143193,1,8
120,152,143321,2,0,C|32:192,1,96,0|8
32,272,143834,1,0
32,304,143962,1,0
32,336,144090,5,4
112,352,144346,1,0
192,336,144603,1,8
272,352,144859,1,4
440,192,145244,2,0,C|480:168,1,48,8|0
440,192,145500,2,0,C|400:216,1,48,8|8
400,128,145885,1,8
384,104,146013,1,8
368,80,146141,6,0,B|312:12|192:32,1,192,4|8
112,56,146910,1,0
56,120,147167,2,0,B|22:159|32:208,1,96
40,232,147552,1,0
48,256,147680,1,8
104,320,147936,6,0,C|144:344,2,48,0|8|8
32,352,148449,1,2
32,352,148705,1,12
480,352,149218,2,0,C|392:312,1,96
448,248,149731,1,8
456,224,149859,1,4
464,200,149987,1,4
472,176,150116,1,2
480,152,150244,5,4
480,72,150500,1,0
408,32,150757,1,8
336,72,151013,2,0,B|288:104|281:152|288:200|336:232,1,192
256,256,151782,1,8
176,232,152039,2,0,B|224:199|231:151|224:103|176:71,1,192
104,32,152808,5,8
32,72,153064,1,0
104,112,153321,1,0
64,184,153577,2,0,C|24:208,1,48,0|8
64,184,153834,2,0,C|104:208,1,48,8|4
64,184,154090,1,2
64,264,154346,5,4
120,328,154603,1,4
192,288,154859,1,8
248,352,155116,1,4
320,96,155628,1,4
320,96,155885,1,2
320,96,156141,2,0,B|368:120|384:160|388:192|384:224|368:264|320:288,1,240,4|0
256,192,157680,5,2
256,192,157936,1,2
256,192,158193,1,4
256,192,158321,12,4,161141
