osu file format v9

[General]
AudioFilename: Singing!.mp3
AudioLeadIn: 0
PreviewTime: 58971
Countdown: 0
SampleSet: Normal
StackLeniency: 0.7
Mode: 0
LetterboxInBreaks: 1
EpilepsyWarning: 1

[Editor]
DistanceSpacing: 0.8
BeatDivisor: 4
GridSize: 4

[Metadata]
Title:Singing!
Artist:HO-KAGO TEA TIME
Creator:SkyDevil
Version:Singing
Source:K-ON!!
Tags:houkago htt yoko hikasa hisaka aki toyosaki satomi sato minako kotobuki ayana taketatsu yui hirasawa mio akiyama ritsu tainaka mugi kotobuki azusa nakano keion keionbu bu movie black_cherry_ita Byakugan249 Kurisuchianu Lizsig sherrie__fay

[Difficulty]
HPDrainRate:7
CircleSize:4
OverallDifficulty:8
ApproachRate:8
SliderMultiplier:1.9
SliderTickRate:2

[Events]
//Background and Video events
0,0,"k_on_group_wallpaper_by_diaboliku.png"
//Break Periods
//Storyboard Layer 0 (Background)
Sprite,Background,Centre,"Black.png",320,240 M,0,22298,,318,240 S,0,22298,,4.7312 F,0,22298,23631,0,0.3968001 F,0,23631,31629,0.3968001,0.4264932 F,0,31629,32628,0.4264932,0.7336932 F,0,32628,32920,0.7336932,0.7144547 F,0,32920,32962,0.7144547,0
Sprite,Background,Centre,"rsz_k_on_group_wallpaper_by_diaboliku.png",320,240 M,0,43625,,320,240 S,0,43625,,0.8016 F,0,43625,44958,0,0.6944 F,0,44958,54289,0.6944,0.7555999 F,0,54289,55622,0.7555999,0
//Storyboard Layer 1 (Fail)
//Storyboard Layer 2 (Pass)
//Storyboard Layer 3 (Foreground)
Sprite,Foreground,Centre,"sb1.png",320,240 S,0,22298,,0.3536003 F,0,22298,22964,0.1071999,1 M,0,22298,31629,205,433,435,433 F,0,22964,31629,1 F,0,31629,32295,1,0
Sprite,Foreground,Centre,"sb2.png",320,240 S,0,22298,,0.4623998 M,0,22298,31629,432,58,208,58 F,0,27297,27963,0,1 F,0,27963,31629,1 F,0,31629,31962,1,0
Sprite,Foreground,Centre,"sb3.png",320,240 S,0,32628,,0.4880004 F,0,32628,33295,0.08800019,1 M,0,32628,42959,421,440,417,229 F,0,33295,37794,1 F,0,37794,38293,1,0 F,0,38293,,0
Sprite,Foreground,Centre,"sb4.png",320,240 S,0,32628,,0.3920001 F,0,32628,37960,0 M,0,32628,42959,183,67,180,277 F,0,37960,38627,0,1 F,0,38627,42626,1 F,0,42626,42959,1,0
Sprite,Foreground,Centre,"sb5.png",320,240 S,0,43292,,0.5264 F,0,43292,43959,0,1 M,0,43292,46291,369,450,467,398 F,0,43959,48291,1 M,0,46291,53623,467,398,172,272 F,0,48291,53623,1 F,0,53623,53956,1,0.01359985 M,0,53623,54289,172,272,192,253 F,0,53956,54289,0.01359985,0
Sprite,Foreground,Centre,"sb6.png",320,240 S,0,48624,,0.4687996 F,0,48624,49290,0,1 M,0,48624,50957,433,19,460,101 F,0,49290,53623,1 M,0,50957,54289,460,101,419,231 F,0,53623,54289,1,0
Sprite,Foreground,Centre,"sb7.png",320,240 S,0,53956,,0.4943999 F,0,53956,54622,0,1 M,0,53956,58954,320,94,323,229 F,0,54622,58288,1 F,0,58288,58954,1,0
Sprite,Foreground,Centre,"sb8.png",320,240 S,0,58954,,0.4432003 F,0,58954,59954,0,1 M,0,58954,69618,221,389,391,386 F,0,59954,68952,1 F,0,68952,69618,1,0
Sprite,Foreground,Centre,"sb9.png",320,240 S,0,64286,,0.4560002 F,0,64286,64953,0,1 M,0,64286,69618,442,106,368,106 F,0,64953,68952,1 F,0,68952,69618,1,0
Sprite,Foreground,Centre,"sb11.png",320,240 S,0,69618,,0.5008 F,0,69618,70285,0,1 M,0,69618,80282,188,229,364,232 F,0,70285,79615,1 F,0,79615,80282,1,0
Sprite,Foreground,Centre,"sb12.png",320,240 S,0,69618,,0.5199999 F,0,69618,76283,0 M,0,69618,80282,422,280,296,278 F,0,76283,76949,0,1 F,0,76949,79615,1 F,0,79615,80282,1,0
Sprite,Foreground,Centre,"White.png",320,240 S,0,32962,,1 F,0,32962,33295,1,0 F,0,58954,59621,0,1 F,0,59621,60954,1,0 F,0,78282,79615,1,0
//Storyboard Sound Samples
//Background Colour Transformations
3,100,0,0,0

[TimingPoints]
971,333.333333333333,4,1,1,100,1,0
10970,-100,4,1,1,40,0,0
11137,-100,4,1,1,55,0,0
11304,-100,4,1,1,70,0,0
11470,-100,4,1,1,85,0,0
11637,-100,4,1,1,100,0,0
22304,-100,4,2,1,70,0,0
31637,-100,4,2,1,80,0,0
32637,-100,4,2,1,85,0,0
42637,-100,4,1,1,80,0,0
59637,-100,4,1,1,100,0,1
69637,-100,4,1,1,100,0,0
78304,-100,4,1,1,100,0,1
81637,-100,4,1,1,75,0,1
82137,-100,4,1,1,50,0,1
82804,-100,4,1,1,30,0,1
83637,-100,4,1,1,25,0,0

[Colours]
Combo1 : 255,183,34
Combo2 : 186,28,80
Combo3 : 70,47,179
Combo4 : 241,241,44
Combo5 : 255,9,255
Sliderborder : 255,255,255

[HitObjects]
52,64,10970,6,0,B|88:120,7,47.5
88,120,11637,2,0,B|136:208|240:232,1,190,0|8
328,196,12137,1,0
400,128,12304,2,0,B|440:96|496:84,1,95
396,256,12637,2,0,B|408:308|380:360,1,95,8|0
256,28,13137,1,0
116,256,13471,2,0,B|104:308|132:360,1,95,0|0
260,296,13804,2,0,B|268:248|256:196,1,95,0|8
96,268,14137,2,0,B|84:320|112:372,1,95,0|0
256,88,14637,5,8
432,268,14971,2,0,B|472:216|472:156,1,95
400,96,15304,2,0,B|376:144|368:200,1,95,8|0
260,356,15804,1,0
112,96,16137,2,8,B|136:144|141:185,1,95,0|0
80,268,16471,2,0,B|40:216|41:182,1,95,0|8
24,96,16804,1,0
80,20,16971,6,0,B|184:8|276:56,1,190,4|8
344,96,17471,1,0
404,168,17637,2,0,B|412:236|460:272,1,95
396,344,17971,2,0,B|376:292|332:260,1,95,8|0
256,192,18304,1,0
170,267,18471,2,0,B|136:292|116:344,1,95,0|8
71,254,18804,2,0,B|100:236|108:168,1,95
92,84,19137,1,0
168,36,19304,2,0,B|252:100|352:32,1,190,8|0
256,340,19970,5,8
168,36,20304,1,0
400,192,20637,1,8
128,192,20970,1,0
344,36,21304,1,8
256,340,21637,2,0,B|228:304|176:288,1,95
256,340,21970,2,0,B|284:304|336:288,1,95,8|0
256,236,22304,6,0,B|184:164|192:44,1,190,4|8
408,120,22970,2,0,B|480:192|472:312,1,190,0|8
372,328,23470,1,0
256,340,23637,1,0
140,328,23804,1,0
36,296,23970,2,0,B|40:244|90:212,1,95,8|0
212,112,24304,2,0,B|208:164|158:196,1,95
256,32,24637,5,8
300,112,24804,1,0
344,192,24970,2,0,B|256:248|160:188,1,190,0|8
212,112,25470,1,0
256,32,25637,2,0,B|160:32|72:88,1,190,0|8
256,32,26137,2,0,B|352:32|440:88,1,190,0|0
480,168,26637,1,8
392,192,26804,2,0,B|256:120|96:200,1,285,0|8
256,352,27637,5,0
392,192,27970,2,0,B|348:96|268:40,1,190,8|0
80,72,28637,2,0,B|36:96|12:136,1,95,8|0
116,204,28970,2,0,B|92:256|96:312,1,95
256,248,29304,2,0,B|264:304|296:344,1,95,8|0
460,36,29970,5,8
460,164,30304,2,0,B|356:140|324:16,1,190,0|8
212,40,30804,2,0,B|216:92|244:136,1,95
288,204,31137,2,0,B|320:236|392:264,1,95,0|8
456,280,31470,1,0
372,348,31637,5,2
360,324,31720,1,0
344,308,31804,1,0
324,292,31887,1,0
300,280,31970,1,2
272,268,32054,1,0
244,264,32137,1,0
216,264,32220,1,0
188,268,32304,1,2
164,276,32387,1,0
136,284,32470,1,0
108,288,32554,1,0
80,288,32637,2,0,B|56:288,8,23.75,2|0|0|0|0|0|0|0|4
20,64,33304,6,0,B|112:20|208:68,1,190,10|0
256,136,33804,1,0
352,112,33970,2,0,B|372:72|412:40,1,95,10|0
328,200,34304,2,0,B|340:248|328:312,1,95,0|0
256,136,34637,2,0,B|208:124|172:76,1,95,10|0
196,348,35304,6,0,B|164:260|56:208,1,190,10|0
316,348,35970,2,0,B|348:260|456:208,1,190,10|0
396,132,36470,1,0
324,64,36637,1,10
228,32,36804,2,0,B|124:52|40:136,1,190
48,204,37304,2,10,B|96:192|144:188,1,95,10|0
264,196,37637,2,0,B|320:204|352:229,1,95
468,260,37970,6,10,B|452:144|372:96,1,190,10|4
134,99,38637,2,10,B|60:144|44:260,1,190,10|0
376,344,39304,2,0,B|344:296|296:276,1,95,10|0
136,344,39637,2,0,B|168:296|216:276,1,95,0|0
256,204,39971,2,0,B|256:104,1,95,10|0
168,312,40637,6,0,B|256:380|360:304,1,190,10|0
256,252,41137,1,0
216,176,41304,2,0,B|176:144|112:132,1,95,10|0
296,176,41637,2,0,B|336:144|400:132,1,95
256,112,41971,2,0,B|256:12,1,95,10|4
256,356,42470,5,0
256,356,42637,1,0
200,168,42971,1,0
200,136,43054,1,0
212,108,43137,1,0
232,80,43221,1,0
256,56,43304,1,0
280,80,43387,1,0
300,108,43471,1,0
312,136,43554,1,0
312,168,43637,6,0,B|332:216|376:248,1,95,4|0
200,168,43971,2,8,B|180:216|136:248,1,95,0|0
168,352,44304,2,0,B|256:288|364:360,1,190,8|0
436,304,44804,1,0
480,216,44971,2,0,B|492:108|400:36,1,190,0|0
32,216,45637,2,0,B|20:108|112:36,1,190,8|0
256,48,46137,6,0,B|212:88|196:132,1,95
256,48,46471,2,0,B|300:88|316:132,1,95,0|0
340,352,46971,2,0,B|256:268|156:364,1,190,8|0
56,48,47637,6,0,B|100:36|152:48,2,95,0|0|0
256,192,48304,1,8
456,48,48637,2,0,B|412:36|360:48,2,95,0|0|4
340,192,49304,2,0,B|252:260|164:192,1,190,0|8
423,270,49971,2,0,B|320:276|256:356,1,190
93,272,50637,2,0,B|196:277|260:357,1,190,0|8
256,192,51304,1,0
168,64,51637,2,0,B|256:-4|344:64,1,190,0|0
400,132,52137,5,0
456,200,52304,2,0,B|408:220|396:284,1,95,8|0
344,348,52637,2,0,B|256:280|164:352,1,190
113,271,53137,2,0,B|104:220|56:200,1,95,0|0
4,140,53471,2,0,B|28:92|76:80,1,95,0|8
160,44,53804,1,0
256,24,53971,6,0,B|340:104|256:192,1,190,0|4
20,168,54637,2,0,B|48:208|44:260,1,95
44,340,54971,2,0,B|120:280|224:268,1,190,8|0
468,340,55637,2,0,B|392:280|288:268,1,190,0|0
256,192,56137,1,0
168,136,56304,2,0,B|256:64|352:140,1,190,8|0
256,352,56971,5,0
164,44,57304,1,8
396,216,57637,1,8
108,216,57970,1,8
332,44,58304,1,8
332,44,58470,1,4
256,352,58971,5,0
256,336,59054,1,0
256,320,59137,1,0
256,304,59221,1,0
256,288,59304,1,0
256,272,59387,1,0
256,256,59471,1,0
256,240,59554,1,0
256,224,59637,6,0,B|212:140|96:112,1,190,4|8
212,56,60137,2,0,B|256:88|304:56,1,95
400,112,60471,1,0
472,196,60637,2,0,B|456:304|356:368,1,190,8|0
256,312,61137,1,0
135,354,61304,2,0,B|56:304|40:196,1,190,8|0
256,192,61971,6,0,B|320:108|204:104|264:4,1,190,8|0
340,72,62471,1,0
416,132,62637,2,0,B|488:220|416:312,1,190,8|0
96,132,63304,2,0,B|24:220|96:312,1,190,8|0
256,32,63971,5,8
148,352,64304,1,0
172,252,64471,1,0
256,188,64637,1,8
340,252,64804,1,0
364,352,64971,2,0,B|408:264|508:232,1,190,4|8
148,352,65637,2,0,B|104:264|4:232,1,190,0|8
52,160,66137,6,0,B|88:124|80:56,1,95,0|0
156,36,66471,2,0,B|176:88|216:112,1,95,0|8
299,110,66804,2,0,B|336:88|356:36,1,95,0|0
430,72,67137,2,0,B|424:124|460:160,1,95,0|8
172,344,67637,6,0,B|256:268|348:344,1,190,0|8
343,43,68304,2,0,B|256:116|172:40,1,190,0|8
172,344,68971,1,0
344,44,69304,1,8
256,348,69637,6,0,B|212:324|188:276,1,95
256,348,69971,2,0,B|300:324|324:276,1,95,8|0
256,188,70304,2,0,B|208:100|256:0,1,190,4|8
344,44,70804,1,0
432,96,70971,6,0,B|452:144|432:192,1,95
256,348,71304,2,0,B|236:300|256:252,1,95,8|0
432,96,71637,1,4
84,268,71971,1,8
256,32,72304,6,0,B|276:84|328:100,1,95
256,32,72637,2,0,B|236:84|184:100,1,95,8|0
256,192,72971,2,0,B|360:196|436:272,1,190,4|8
344,316,73471,1,0
256,352,73637,2,0,B|220:312|176:304,1,95,4|0
84,268,73971,2,0,B|120:232|132:176,1,95,8|4
256,32,74470,1,4
396,179,74804,2,0,B|396:224|428:268,2,95,4|0|0
256,32,75470,5,0
184,84,75637,2,0,B|92:140|84:244,1,190,0|8
328,84,76304,2,0,B|420:140|428:244,1,190,0|8
176,352,76971,1,4
256,32,77304,1,12
336,352,77637,2,0,B|240:252|156:376,1,190,0|8
256,228,78137,1,0
256,136,78304,6,0,B|188:64|92:40,1,190,4|8
40,116,78804,2,0,B|80:144|100:200,1,95
128,284,79137,2,0,B|156:244|216:224,1,95,0|8
308,228,79470,2,0,B|356:244|384:284,1,95,0|0
415,190,79804,2,0,B|432:144|472:116,1,95,0|8
404,64,80137,1,0
336,20,80304,2,0,B|256:104|160:12,1,190,0|8
256,340,80970,5,0
168,20,81304,1,8
400,192,81637,1,0
112,192,81970,1,8
336,20,82304,1,0
256,340,82637,2,0,B|228:296|172:284,1,95,8|0
256,340,82970,2,0,B|284:296|340:284,1,95
256,236,83304,2,0,B|296:144|220:144|256:52,1,190,8|4
