osu file format v9

[General]
AudioFilename: Singing!.mp3
AudioLeadIn: 0
PreviewTime: 58971
Countdown: 0
SampleSet: Normal
StackLeniency: 0.7
Mode: 0
LetterboxInBreaks: 1
EpilepsyWarning: 1

[Editor]
Bookmarks: 21637
DistanceSpacing: 1
BeatDivisor: 4
GridSize: 4

[Metadata]
Title:Singing!
Artist:HO-KAGO TEA TIME
Creator:SkyDevil
Version:Lizsig's Insane
Source:K-ON!!
Tags:houkago htt yoko hikasa hisaka aki toyosaki satomi sato minako kotobuki ayana taketatsu yui hirasawa mio akiyama ritsu tainaka mugi kotobuki azusa nakano keion keionbu bu movie black_cherry_ita Byakugan249 Kurisuchianu Lizsig sherrie__fay

[Difficulty]
HPDrainRate:6
CircleSize:4
OverallDifficulty:7
ApproachRate:8
SliderMultiplier:1.8
SliderTickRate:2

[Events]
//Background and Video events
0,0,"k_on_group_wallpaper_by_diaboliku.png"
//Break Periods
//Storyboard Layer 0 (Background)
Sprite,Background,Centre,"Black.png",320,240 M,0,22298,,318,240 S,0,22298,,4.7312 F,0,22298,23631,0,0.3968001 F,0,23631,27963,0.3968001,0.4128829 F,0,27963,31629,0.4128829,0.4264932 F,0,31629,32628,0.4264932,0.7336932 F,0,32628,32920,0.7336932,0.7144547 F,0,32920,32962,0.7144547,0
Sprite,Background,Centre,"rsz_k_on_group_wallpaper_by_diaboliku.png",320,240 M,0,43625,,320,240 S,0,43625,,0.8016 F,0,43625,44958,0,0.6944 F,0,44958,54289,0.6944,0.7555999 F,0,54289,55622,0.7555999,0
//Storyboard Layer 1 (Fail)
//Storyboard Layer 2 (Pass)
//Storyboard Layer 3 (Foreground)
Sprite,Foreground,Centre,"sb2.png",320,240 S,0,22298,,0.4623998 M,0,22298,31629,432,58,208,58 F,0,27297,27963,0,1 F,0,27963,31629,1 F,0,31629,31962,1,0
Sprite,Foreground,Centre,"sb1.png",320,240 S,0,22298,,0.3536003 F,0,22298,22964,0.1071999,1 M,0,22298,31629,205,433,435,433 F,0,22964,31629,1 F,0,31629,32295,1,0
Sprite,Foreground,Centre,"sb3.png",320,240 S,0,32628,,0.4880004 F,0,32628,33295,0.08800019,1 M,0,32628,42959,421,440,417,229 F,0,33295,37794,1 F,0,37794,38293,1,0 F,0,38293,,0
Sprite,Foreground,Centre,"sb4.png",320,240 S,0,32628,,0.3920001 F,0,32628,37960,0 M,0,32628,42959,183,67,180,277 F,0,37960,38627,0,1 F,0,38627,42626,1 F,0,42626,42959,1,0
Sprite,Foreground,Centre,"sb5.png",320,240 S,0,43292,,0.5264 F,0,43292,43959,0,1 M,0,43292,46291,369,450,467,398 F,0,43959,48291,1 M,0,46291,53623,467,398,172,272 F,0,48291,53623,1 F,0,53623,53956,1,0.01359985 M,0,53623,54289,172,272,192,253 F,0,53956,54289,0.01359985,0
Sprite,Foreground,Centre,"sb6.png",320,240 S,0,48624,,0.4687996 F,0,48624,49290,0,1 M,0,48624,50957,433,19,460,101 F,0,49290,53623,1 M,0,50957,54289,460,101,419,231 F,0,53623,54289,1,0
Sprite,Foreground,Centre,"sb7.png",320,240 S,0,53956,,0.4943999 F,0,53956,54622,0,1 M,0,53956,58954,320,94,323,229 F,0,54622,58288,1 F,0,58288,58954,1,0
Sprite,Foreground,Centre,"sb8.png",320,240 S,0,58954,,0.4432003 F,0,58954,59954,0,1 M,0,58954,69618,221,389,391,386 F,0,59954,68952,1 F,0,68952,69618,1,0
Sprite,Foreground,Centre,"sb9.png",320,240 S,0,64286,,0.4560002 F,0,64286,64953,0,1 M,0,64286,69618,442,106,368,106 F,0,64953,68952,1 F,0,68952,69618,1,0
Sprite,Foreground,Centre,"sb11.png",320,240 S,0,69618,,0.5008 F,0,69618,70285,0,1 M,0,69618,80282,188,229,364,232 F,0,70285,79615,1 F,0,79615,80282,1,0
Sprite,Foreground,Centre,"sb12.png",320,240 S,0,69618,,0.5199999 F,0,69618,76283,0 M,0,69618,80282,422,280,296,278 F,0,76283,76949,0,1 F,0,76949,79615,1 F,0,79615,80282,1,0
Sprite,Foreground,Centre,"White.png",320,240 S,0,32962,,1 F,0,32962,33295,1,0 F,0,58954,59621,0,1 F,0,59621,60954,1,0 F,0,78282,79615,1,0
//Storyboard Sound Samples
//Background Colour Transformations
3,100,0,0,0

[TimingPoints]
971,333.333333333333,4,1,1,80,1,0
21637,-133.333333333333,4,2,1,80,0,0
22304,-100,4,2,1,80,0,0
32637,-100,4,2,1,90,0,0
42137,-100,4,1,1,80,0,0
42471,-100,4,1,1,60,0,0
42804,-100,4,1,1,40,0,0
43137,-100,4,1,1,20,0,0
43471,-133.333333333333,4,1,1,70,0,0
58470,-133.333333333333,4,1,1,50,0,0
58971,-133.333333333333,4,1,1,60,0,0
59637,-100,4,1,1,90,0,1
64304,-100,4,1,1,60,0,1
64970,-100,4,1,1,90,0,1
69637,-100,4,1,1,90,0,0
78304,-100,4,1,1,90,0,1
81637,-100,4,1,1,75,0,1
82137,-100,4,1,1,60,0,1
82804,-100,4,1,1,45,0,1
83637,-100,4,1,1,30,0,0

[Colours]
Combo1 : 255,183,34
Combo2 : 186,28,80
Combo3 : 70,47,179
Combo4 : 241,241,44
Combo5 : 255,9,255
Sliderborder : 255,255,255

[HitObjects]
208,184,11137,2,0,B|160:188|124:156,1,90,0|0
40,128,11470,1,0
56,216,11637,2,0,B|132:280|240:276,1,180,4|8
288,216,12137,1,0
352,280,12304,2,0,B|320:324|324:375,1,90
288,216,12637,5,8
328,136,12804,2,0,B|376:144|416:128,1,90
416,232,13137,2,0,B|463:224|487:176,1,90,0|8
496,88,13470,1,0
352,280,13637,2,0,B|304:287|280:335,1,90
216,152,13970,2,0,B|160:224|200:328,1,180,8|0
88,224,14470,5,0
104,136,14637,2,0,B|152:120|168:72,1,90,8|0
344,32,14970,2,0,B|296:48|282:93,1,90
216,152,15304,1,8
256,232,15470,1,0
296,312,15637,1,0
296,312,15804,2,0,B|384:272|432:192,1,180
464,280,16304,2,0,B|428:316|408:364,1,90
360,148,16637,2,0,B|396:112|411:74,1,90,8|0
272,140,16970,6,0,B|216:104|140:152|144:216,1,180,4|8
88,284,17470,1,0
176,300,17637,2,0,B|228:300|264:248,2,90,0|0|8
88,284,18137,2,0,B|36:284|10:322,1,90
52,200,18470,2,0,B|96:180|104:132,1,90,0|8
200,200,18804,2,0,B|204:152|188:104,1,90
128,44,19137,1,0
128,44,19304,1,8
292,116,19637,6,0,B|340:196|432:228,1,180,0|8
428,228,20137,1,0
296,256,20304,2,0,B|248:176|156:144,1,180,0|8
32,188,20804,2,0,B|28:100|104:28,1,180
40,320,21470,1,0
40,320,21637,6,0,B|90:382|158:382,1,134.999995976687,0|8
152,240,22304,6,0,B|248:256|336:200,1,180,4|8
376,136,22804,1,0
344,48,22971,2,0,B|296:64|288:112,1,90
376,136,23304,1,8
200,104,23471,2,0,B|192:160|240:192,1,90
296,248,23804,1,0
332,332,23970,2,0,B|284:344|236:320,1,90,8|0
296,248,24304,1,0
72,192,24637,6,0,B|168:184|240:104,1,180,8|0
296,56,25137,1,0
360,120,25304,2,0,B|404:144|416:192,1,90,8|0
414,328,25637,2,0,B|370:304|360:260,1,90,0|0
304,188,25971,2,0,B|256:180|220:212,1,90,8|0
192,296,26304,1,0
280,272,26470,1,0
136,224,26637,2,0,B|136:176|176:140,1,90,8|0
236,80,26971,1,0
360,304,27304,6,0,B|312:312|280:272,1,90,8|0
336,200,27637,2,0,B|280:272|176:264,1,180,0|8
176,264,28137,1,0
92,304,28304,2,0,B|116:348|164:352,1,90
176,264,28637,1,8
252,224,28804,2,0,B|228:180|180:176,1,90
100,216,29137,5,0
256,308,29304,2,0,B|304:304|344:260,1,90,8|0
424,252,29637,2,0,B|412:208|368:184,1,90
432,120,29971,2,0,B|356:72|252:88,1,180,8|0
248,96,30637,1,8
240,104,30971,1,0
232,112,31304,1,8
120,256,31637,6,0,B|136:272|160:272,3,45,2|0|0|0
160,320,31971,2,0,B|181:325|202:313,3,45,2|0|0|0
232,352,32304,2,0,B|253:346|265:325,3,45,2|0|0|0
304,344,32637,6,0,B|360:288|400:192,1,180,2|6
392,104,33137,1,0
320,152,33304,2,0,B|280:184|224:176,1,90,8|0
216,88,33637,2,0,B|168:103|148:143,1,90,2|0
168,232,33971,1,8
168,324,34137,2,0,B|256:332|344:292,1,180
424,184,34637,1,10
344,292,34804,1,0
424,184,34971,1,2
268,92,35304,6,0,B|236:128|176:140,1,90,8|0
244,212,35637,2,0,B|172:236|108:180,1,135,2|0
88,152,35971,1,8
56,236,36137,1,0
124,292,36304,2,0,B|164:324|168:372,1,90,2|0
228,300,36637,1,8
228,300,36804,1,0
244,212,36971,2,0,B|204:180|200:132,1,90,2|0
308,52,37304,1,10
200,136,37471,1,0
308,52,37637,1,2
376,220,37971,6,0,B|400:260|444:288,1,90,12|0
356,328,38304,2,0,B|300:284|220:304,1,135,2|0
184,316,38637,2,0,B|220:284|220:236,1,90,8|0
80,172,38971,2,0,B|44:204|44:252,1,90,2|0
132,244,39304,1,8
164,160,39471,2,0,B|252:168|332:96,1,180
440,176,39970,1,10
328,100,40137,1,0
440,176,40304,1,2
360,336,40637,6,0,B|280:288|184:280,1,180,8|2
112,236,41137,1,0
196,200,41304,2,0,B|240:180|272:124,1,90,8|0
124,152,41637,2,0,B|96:104|48:100,1,90,2|0
36,188,41970,1,8
256,192,42137,12,0,43304
80,272,43637,6,0,B|148:292|212:256,1,134.999995976687,4|8
264,208,44137,1,0
296,144,44304,1,0
296,144,44637,6,0,B|352:96|432:120,1,134.999995976687,8|0
464,176,45137,1,0
496,240,45304,1,8
352,280,45637,1,0
296,144,45970,2,0,B|288:104|256:88,1,67.4999979883433,8|0
224,152,46304,6,0,B|224:200|288:232|328:208,1,134.999995976687,0|8
260,88,46970,2,0,B|220:64|160:92|152:136,1,134.999995976687,0|8
184,264,47637,1,0
60,316,47970,1,8
180,376,48304,1,0
304,336,48637,6,0,B|372:356|440:316,1,134.999995976687,8|0
436,320,49137,1,0
488,272,49304,1,8
444,144,49637,2,0,B|376:124|308:164,1,134.999995976687,0|8
316,160,50137,1,0
252,196,50304,1,0
220,64,50637,5,8
88,93,50970,2,0,B|120:109|120:149,1,67.4999979883433
252,196,51304,2,0,B|212:193|188:173,1,67.5000025749208,8|0
132,221,51637,2,0,B|140:293|200:336,1,135.000005149842,0|8
252,196,52304,2,0,B|308:148|384:140,1,135.000005149842,0|8
420,284,52970,2,0,B|364:332|288:340,1,135.000005149842,0|8
156,380,53637,1,0
244,264,53970,6,0,B|172:240|156:160,1,134.999995976687,8|0
184,104,54470,1,0
312,240,54637,1,8
312,240,54970,2,0,B|368:189|446:215,1,134.999995976687,0|8
488,264,55470,1,0
304,312,55637,1,0
256,192,55970,1,8
256,192,56304,1,0
256,192,56637,1,8
144,216,56970,5,0
368,168,57304,1,8
104,112,57637,1,8
408,272,57970,1,8
256,192,58304,1,8
256,192,58470,1,12
96,208,58970,5,0
96,208,59304,1,0
96,208,59637,2,0,B|136:296|240:320,1,180,4|8
312,272,60137,1,0
392,224,60304,2,0,B|440:224|472:272,1,90
312,272,60637,2,0,B|296:224|312:184,1,90,8|0
224,192,60970,2,0,B|220:96|304:40,1,180,0|8
304,40,61470,1,0
408,96,61637,6,0,B|416:152|464:184,1,90
416,256,61970,2,0,B|376:224|333:224,1,90,8|0
264,288,62304,2,0,B|224:312|176:312,1,90
96,344,62637,2,0,B|192:296|208:208,1,180,8|0
224,120,63137,1,0
200,32,63304,5,8
256,104,63470,1,0
304,176,63637,2,0,B|344:208|400:208,1,90
352,288,63970,2,0,B|400:304|440:288,1,90,8|0
464,152,64304,5,0
456,144,64637,1,0
448,136,64970,2,0,B|384:136|384:136|352:160|352:160|272:160,1,180,4|8
192,120,65470,1,0
192,208,65637,2,0,B|176:256|132:272,1,90
52,232,65970,2,0,B|68:184|112:168,1,90,8|0
272,168,66304,2,0,B|312:192|360:192,1,90
360,104,66637,2,0,B|356:204|424:272,1,180,8|0
420,268,67137,5,0
372,344,67304,2,0,B|344:308|292:304,1,90,8|0
300,212,67637,2,0,B|252:212|216:248,1,90
66,225,67970,2,0,B|114:225|148:192,1,90,8|0
196,116,68304,5,0
196,116,68470,1,0
284,116,68637,2,0,B|376:120|456:188,1,180,8|0
480,268,69137,1,0
500,356,69304,1,8
232,320,69637,6,0,B|176:352|96:320|88:256,1,180,0|8
112,176,70137,1,0
192,224,70304,2,0,B|192:159|260:106|319:131,1,180,4|8
400,168,70804,1,0
328,216,70970,6,0,B|360:272|448:272|480:216,1,180,0|8
400,168,71470,1,0
320,128,71637,2,0,B|272:132|248:176,1,90,4|0
176,128,71970,2,0,B|160:176|176:224,1,90,8|0
216,296,72304,6,0,B|160:232|56:200,1,180,0|8
0,136,72804,1,0
88,112,72970,2,0,B|128:136|176:128,1,90,4|0
232,200,73304,2,0,B|328:200|416:104,1,180,8|0
432,48,73804,1,0
432,48,73970,1,8
416,232,74137,2,0,B|320:232|232:328,1,180,0|0
200,368,74637,1,8
200,368,74804,1,0
128,312,74970,6,0,B|200:240|216:144,1,180,0|8
352,64,75470,1,0
288,112,75637,2,0,B|288:160|328:200,1,90,4|0
352,64,75970,2,0,B|376:104|424:120,1,90,8|0
456,248,76304,6,0,B|376:312|272:312,1,180,0|8
232,248,76804,1,0
200,328,76970,2,0,B|152:312|128:272,1,90,4|0
232,248,77304,2,0,B|198:210|197:163,1,90,8|0
152,88,77637,6,0,B|112:176|32:224,1,180,0|8
112,272,78137,1,0
176,208,78304,2,0,B|256:152|344:144,1,180,4|8
432,168,78804,1,0
360,224,78971,2,0,B|328:268|332:319,1,90
416,288,79304,5,8
248,288,79471,2,0,B|244:248|276:204,1,90
192,168,79804,2,0,B|216:128|260:113,1,90,0|8
344,144,80137,1,0
432,168,80304,2,0,B|476:153|500:113,1,90
344,144,80637,2,0,B|336:232|392:344,1,180,8|0
296,360,81137,5,0
248,288,81304,2,0,B|224:248|176:232,1,90,8|0
160,144,81637,2,0,B|112:160|98:205,1,90
104,296,81971,1,8
104,296,82137,2,0,B|138:334|200:352,1,90
248,288,82471,2,0,B|336:296|424:256,1,180
444,168,82971,2,0,B|492:184|508:228,1,90
360,192,83304,2,0,B|352:140|384:104,1,90,8|0
432,32,83637,1,4
