osu file format v9

[General]
AudioFilename: Singing!.mp3
AudioLeadIn: 0
PreviewTime: 58971
Countdown: 0
SampleSet: Normal
StackLeniency: 0.7
Mode: 0
LetterboxInBreaks: 1
EpilepsyWarning: 1

[Editor]
DistanceSpacing: 0.8
BeatDivisor: 4
GridSize: 8

[Metadata]
Title:Singing!
Artist:HO-KAGO TEA TIME
Creator:SkyDevil
Version:Hard
Source:K-ON!!
Tags:houkago htt yoko hikasa hisaka aki toyosaki satomi sato minako kotobuki ayana taketatsu yui hirasawa mio akiyama ritsu tainaka mugi kotobuki azusa nakano keion keionbu bu movie black_cherry_ita Byakugan249 Kurisuchianu Lizsig sherrie__fay

[Difficulty]
HPDrainRate:5
CircleSize:4
OverallDifficulty:5
ApproachRate:7
SliderMultiplier:1.6
SliderTickRate:2

[Events]
//Background and Video events
0,0,"k_on_group_wallpaper_by_diaboliku.png"
//Break Periods
//Storyboard Layer 0 (Background)
Sprite,Background,Centre,"Black.png",320,240 S,0,22298,,4.7312 F,0,22298,23631,0,0.3968001 M,0,22298,28471,318,240,291,243 F,0,23631,31629,0.3968001,0.4264932 F,0,31629,32628,0.4264932,0.7336932 F,0,32628,32920,0.7336932,0.7144547 F,0,32920,32962,0.7144547,0
Sprite,Background,Centre,"rsz_k_on_group_wallpaper_by_diaboliku.png",320,240 M,0,43625,,320,240 S,0,43625,,0.8016 F,0,43625,44958,0,0.6944 F,0,44958,54289,0.6944,0.7555999 F,0,54289,55622,0.7555999,0
//Storyboard Layer 1 (Fail)
//Storyboard Layer 2 (Pass)
//Storyboard Layer 3 (Foreground)
Sprite,Foreground,Centre,"sb1.png",320,240 S,0,22298,,0.3536003 F,0,22298,22964,0.1071999,1 M,0,22298,31629,205,433,435,433 F,0,22964,31629,1 F,0,31629,32295,1,0
Sprite,Foreground,Centre,"sb2.png",320,240 S,0,22298,,0.4623998 M,0,22298,31629,432,58,208,58 F,0,27297,27963,0,1 F,0,27963,31629,1 F,0,31629,31962,1,0
Sprite,Foreground,Centre,"sb3.png",320,240 S,0,32628,,0.4880004 F,0,32628,33295,0.08800019,1 M,0,32628,42959,421,440,417,229 F,0,33295,37794,1 F,0,37794,38293,1,0 F,0,38293,,0
Sprite,Foreground,Centre,"sb5.png",320,240 S,0,43292,,0.5264 F,0,43292,43959,0,1 M,0,43292,46291,369,450,467,398 F,0,43959,48291,1 M,0,46291,53623,467,398,172,272 F,0,48291,53623,1 F,0,53623,53956,1,0.01359985 M,0,53623,54289,172,272,192,253 F,0,53956,54289,0.01359985,0
Sprite,Foreground,Centre,"sb6.png",320,240 S,0,48624,,0.4687996 F,0,48624,49290,0,1 M,0,48624,50957,433,19,460,101 F,0,49290,53623,1 M,0,50957,54289,460,101,419,231 F,0,53623,54289,1,0
Sprite,Foreground,Centre,"sb7.png",320,240 S,0,53956,,0.4943999 F,0,53956,54622,0,1 M,0,53956,58954,320,94,323,229 F,0,54622,58288,1 F,0,58288,58954,1,0
Sprite,Foreground,Centre,"sb8.png",320,240 S,0,58954,,0.4432003 F,0,58954,59954,0,1 M,0,58954,69618,221,389,391,386 F,0,59954,68952,1 F,0,68952,69618,1,0
Sprite,Foreground,Centre,"sb9.png",320,240 S,0,64286,,0.4560002 F,0,64286,64953,0,1 M,0,64286,69618,442,106,368,106 F,0,64953,68952,1 F,0,68952,69618,1,0
Sprite,Foreground,Centre,"sb11.png",320,240 S,0,69618,,0.5008 F,0,69618,70285,0,1 M,0,69618,80282,188,229,364,232 F,0,70285,79615,1 F,0,79615,80282,1,0
Sprite,Foreground,Centre,"sb12.png",320,240 S,0,69618,,0.5199999 F,0,69618,76283,0 M,0,69618,80282,422,280,296,278 F,0,76283,76949,0,1 F,0,76949,79615,1 F,0,79615,80282,1,0
Sprite,Foreground,Centre,"White.png",320,240 S,0,32962,,1 F,0,32962,33295,1,0 F,0,58954,59621,0,1 F,0,59621,60954,1,0 F,0,78282,79615,1,0
Sprite,Foreground,Centre,"sb4.png",320,240 S,0,32628,,0.3920001 F,0,32628,37960,0 M,0,32628,42959,183,67,180,277 F,0,37960,38627,0,1 F,0,38627,42626,1 F,0,42626,42959,1,0
//Storyboard Sound Samples
//Background Colour Transformations
3,100,0,0,0

[TimingPoints]
971,333.333333333333,4,1,1,75,1,0
22304,-100,4,2,1,70,0,0
31637,-100,4,2,1,5,0,0
32637,-100,4,2,1,65,0,0
42971,-100,4,1,1,70,0,0
59637,-100,4,1,1,70,0,1
69637,-100,4,1,1,70,0,0
78304,-100,4,1,1,70,0,1
81637,-100,4,1,1,65,0,1
82304,-100,4,1,1,50,0,1
82971,-100,4,1,1,30,0,1
83637,-100,4,1,1,25,0,0

[Colours]
Combo1 : 255,183,34
Combo2 : 186,28,80
Combo3 : 70,47,179
Combo4 : 241,241,44
Combo5 : 255,9,255
Sliderborder : 255,255,255

[HitObjects]
84,128,11137,5,0
128,208,11304,1,0
176,128,11471,1,0
224,208,11637,2,0,B|400:208,1,160,4|8
472,288,12304,2,0,B|280:288,1,160,0|8
232,288,12804,1,0
88,248,13137,5,0
144,112,13471,1,0
192,40,13637,1,0
240,112,13804,1,0
288,40,13971,1,8
344,112,14137,1,0
400,40,14304,6,0,B|456:104|456:104|456:208,1,160,0|8
400,344,14971,2,0,B|343:280|343:280|343:176,1,160,0|8
343,205,15471,1,0
256,352,15804,6,0,B|256:264,1,80,0|8
216,128,16304,2,0,B|304:128,3,80,0|0|8|8
336,56,16971,2,0,B|256:40|256:40|176:56,1,160,4|8
176,208,17637,2,0,B|252:223|252:223|332:207,1,160,0|8
332,207,18137,1,0
416,328,18471,5,0
256,352,18804,1,0
168,336,18971,2,0,B|96:288|96:288|96:208,1,160,0|8
208,104,19637,5,0
256,32,19804,1,0
304,104,19970,1,8
216,224,20304,2,0,B|304:224,3,80,0|0|8|0
256,368,21137,1,0
408,312,21470,1,0
408,312,21637,1,0
480,168,21970,1,8
448,32,22304,6,0,B|360:40|296:104,1,160,4|8
64,32,22970,2,0,B|152:40|216:104,1,160,0|8
256,176,23470,1,0
176,312,23804,1,0
256,336,23970,1,8
336,312,24137,1,0
416,192,24637,6,0,B|344:152|320:64,1,160,8|0
96,192,25304,2,0,B|168:152|192:64,1,160,8|0
256,192,25970,1,8
256,192,26137,1,0
216,352,26470,2,0,B|304:352,2,80,0|8|0
472,192,27304,5,8
456,72,27637,2,0,B|376:96|328:184,1,160,0|8
176,171,28304,2,0,B|136:96|56:72,1,160,0|8
56,72,28804,1,0
256,32,29137,1,0
256,32,29304,1,8
256,32,29470,1,0
256,328,29970,6,0,B|208:256|120:232,1,160,8|0
256,328,30637,2,0,B|304:256|392:232,1,160,8|0
256,112,31304,1,8
256,112,31470,1,0
256,192,31637,12,10,32637
72,192,32970,6,0,B|128:192|128:192|160:232|160:232|216:232,1,160,4|10
440,192,33637,2,0,B|384:192|384:192|352:232|352:232|296:232,1,160,0|10
256,160,34137,1,0
176,56,34470,1,0
256,40,34637,1,10
336,56,34804,1,0
88,288,35304,6,0,B|168:288|168:288|208:360,1,160,10|0
424,288,35970,2,0,B|344:288|344:288|304:360,1,160,10|0
216,192,36637,1,10
296,192,36804,1,0
216,64,37137,2,0,B|304:64,2,80,0|10|0
256,336,37970,5,10
296,192,38304,2,0,B|352:128|352:128|432:128,1,160,4|10
216,192,38970,2,0,B|160:128|160:128|80:128,1,160,0|10
85,128,39471,1,0
256,32,39804,1,0
256,32,39971,1,10
256,32,40137,1,0
256,264,40637,5,10
96,208,40971,2,0,B|96:288|96:288|168:352,1,160,0|10
356,341,41637,2,0,B|416:288|416:288|416:208,1,160,0|10
360,152,42137,1,4
256,48,42470,5,0
256,48,42637,1,8
256,192,42804,12,4,43637
256,48,44304,5,8
144,192,44637,1,0
368,192,44971,2,0,B|304:240|304:240|304:320,1,160
144,192,45637,2,0,B|208:240|208:240|208:320,1,160,8|0
256,160,46304,1,0
472,192,46804,1,0
472,192,46971,2,0,B|384:192|384:192|320:256,1,160,8|0
360,368,47637,2,0,B|448:368|448:368|512:304,1,160,0|0
472,192,48304,1,8
408,72,48637,5,0
280,24,48971,2,0,B|200:24|200:24|144:96,1,160,0|0
136,208,49637,2,0,B|224:208|224:208|280:144,1,160,8|0
376,240,50304,1,0
272,336,50637,2,0,B|224:281|224:281|136:281,1,160,0|8
8,248,51304,1,0
256,192,51637,12,0,52971
152,24,53304,5,0
264,144,53637,1,8
448,144,53971,1,0
360,272,54304,2,0,B|280:272|280:272|216:344,1,160,4|0
112,216,54971,2,0,B|152:216|152:216|184:184,2,80,8|0|0
24,104,55637,2,0,B|72:32|72:32|160:32,1,160,0|0
256,120,56304,1,8
256,120,56471,1,0
256,120,56637,1,0
420,33,56971,5,0
468,177,57304,1,8
344,88,57637,1,8
497,88,57971,1,8
373,177,58304,1,8
373,177,58471,1,4
256,192,58637,12,4,59637
256,360,59971,5,8
208,184,60637,2,0,B|166:116|166:116|86:116,1,160,8|0
56,256,61304,2,0,B|96:328|96:328|176:328,1,160,8|0
338,328,61971,2,0,B|416:328|416:328|456:256,1,160,8|0
426,116,62637,2,0,B|346:116|346:116|304:184,1,160,8|0
256,112,63137,1,0
208,184,63304,2,0,B|166:116|166:116|86:116,1,160,8|0
96,352,64304,5,0
256,304,64637,1,8
416,352,64971,2,0,B|456:352|456:352|496:312,1,80
464,248,65304,2,0,B|424:248|424:248|392:280,1,80,8|0
395,276,65637,1,0
256,240,65971,5,8
116,276,66304,2,0,B|88:248|88:248|48:248,1,80,8|0
27,323,66637,2,0,B|56:352|56:352|96:352,1,80,8|0
176,328,66971,1,0
256,360,67137,1,0
336,328,67304,1,8
416,352,67471,2,0,B|456:352|456:352|484:323,1,80,0|0
480,168,67971,5,8
336,192,68304,1,0
32,168,68637,1,8
176,192,68971,1,0
32,40,69637,5,0
80,104,69804,1,0
128,40,69971,1,8
184,104,70137,1,0
232,40,70304,2,0,B|312:40|312:40|376:112,1,160,4|8
480,192,70971,5,0
384,192,71137,1,0
432,272,71304,1,8
480,352,71471,1,0
384,352,71637,2,0,B|304:352|304:352|240:288,1,160,4|8
256,48,72304,5,0
184,120,72471,1,0
256,192,72637,1,8
328,120,72804,1,0
256,192,72971,12,4,74304
256,56,74971,5,0
200,136,75137,1,0
112,192,75304,1,8
256,328,75637,2,0,B|312:272|312:272|400:272,1,160,4|8
256,56,76304,5,0
312,136,76471,1,0
400,192,76637,1,8
256,328,76971,2,0,B|200:272|200:272|112:272,1,160,4|12
256,192,77637,5,0
208,40,78137,1,0
304,40,78304,2,0,B|328:72|328:72|376:72,1,80,4|0
456,72,78637,2,0,B|456:152|456:152|392:208,1,160,8|0
328,280,79137,1,0
256,352,79304,2,0,B|224:328|224:328|224:288,1,80,8|0
64,192,79804,5,0
224,96,80137,2,0,B|224:56|224:56|256:32,1,80,0|0
344,32,80470,2,0,B|376:56|376:56|376:96,1,80,0|8
304,144,80804,1,0
376,192,80970,6,0,B|376:272|376:272|304:336,1,160,0|8
136,192,81637,2,0,B|136:272|136:272|208:336,1,160,0|8
195,325,82137,1,0
256,192,82470,1,0
216,48,82804,2,0,B|136:48,2,80
296,48,83304,2,0,B|376:48,2,80,8|0|4
