osu file format v9

[General]
AudioFilename: Singing!.mp3
AudioLeadIn: 0
PreviewTime: 58971
Countdown: 0
SampleSet: Normal
StackLeniency: 0.7
Mode: 0
LetterboxInBreaks: 1
EpilepsyWarning: 1

[Editor]
DistanceSpacing: 0.6
BeatDivisor: 4
GridSize: 4

[Metadata]
Title:Singing!
Artist:HO-KAGO TEA TIME
Creator:SkyDevil
Version:BCI's Easy
Source:K-ON!!
Tags:houkago htt yoko hikasa hisaka aki toyosaki satomi sato minako kotobuki ayana taketatsu yui hirasawa mio akiyama ritsu tainaka mugi kotobuki azusa nakano keion keionbu bu movie black_cherry_ita Byakugan249 Kurisuchianu Lizsig sherrie__fay

[Difficulty]
HPDrainRate:2
CircleSize:3
OverallDifficulty:1
ApproachRate:2
SliderMultiplier:0.8
SliderTickRate:1

[Events]
//Background and Video events
0,0,"k_on_group_wallpaper_by_diaboliku.png"
//Break Periods
//Storyboard Layer 0 (Background)
Sprite,Background,Centre,"Black.png",320,240 M,0,22298,,318,240 S,0,22298,,4.7312 F,0,22298,23631,0,0.3968001 F,0,23631,31629,0.3968001,0.4264932 F,0,31629,32628,0.4264932,0.7336932 F,0,32628,32920,0.7336932,0.7144547 F,0,32920,32962,0.7144547,0
Sprite,Background,Centre,"rsz_k_on_group_wallpaper_by_diaboliku.png",320,240 M,0,43625,,320,240 S,0,43625,,0.8016 F,0,43625,44958,0,0.6944 F,0,44958,54289,0.6944,0.7555999 F,0,54289,55622,0.7555999,0
//Storyboard Layer 1 (Fail)
//Storyboard Layer 2 (Pass)
//Storyboard Layer 3 (Foreground)
Sprite,Foreground,Centre,"sb1.png",320,240 S,0,22298,,0.3536003 F,0,22298,22964,0.1071999,1 M,0,22298,31629,205,433,435,433 F,0,22964,31629,1 F,0,31629,32295,1,0
Sprite,Foreground,Centre,"sb2.png",320,240 S,0,22298,,0.4623998 M,0,22298,31629,432,58,208,58 F,0,27297,27963,0,1 F,0,27963,31629,1 F,0,31629,31962,1,0
Sprite,Foreground,Centre,"sb3.png",320,240 S,0,32628,,0.4880004 F,0,32628,33295,0.08800019,1 M,0,32628,42959,421,440,417,229 F,0,33295,37794,1 F,0,37794,38293,1,0 F,0,38293,,0
Sprite,Foreground,Centre,"sb4.png",320,240 S,0,32628,,0.3920001 F,0,32628,37960,0 M,0,32628,42959,183,67,180,277 F,0,37960,38627,0,1 F,0,38627,42626,1 F,0,42626,42959,1,0
Sprite,Foreground,Centre,"sb5.png",320,240 S,0,43292,,0.5264 F,0,43292,43959,0,1 M,0,43292,46291,369,450,467,398 F,0,43959,48291,1 M,0,46291,53623,467,398,172,272 F,0,48291,53623,1 F,0,53623,53956,1,0.01359985 M,0,53623,54289,172,272,192,253 F,0,53956,54289,0.01359985,0
Sprite,Foreground,Centre,"sb6.png",320,240 S,0,48624,,0.4687996 F,0,48624,49290,0,1 M,0,48624,50957,433,19,460,101 F,0,49290,53623,1 M,0,50957,54289,460,101,419,231 F,0,53623,54289,1,0
Sprite,Foreground,Centre,"sb7.png",320,240 S,0,53956,,0.4943999 F,0,53956,54622,0,1 M,0,53956,58954,320,94,323,229 F,0,54622,58288,1 F,0,58288,58954,1,0
Sprite,Foreground,Centre,"sb8.png",320,240 S,0,58954,,0.4432003 F,0,58954,59954,0,1 M,0,58954,69618,221,389,391,386 F,0,59954,68952,1 F,0,68952,69618,1,0
Sprite,Foreground,Centre,"sb9.png",320,240 S,0,64286,,0.4560002 F,0,64286,64953,0,1 M,0,64286,69618,442,106,368,106 F,0,64953,68952,1 F,0,68952,69618,1,0
Sprite,Foreground,Centre,"sb11.png",320,240 S,0,69618,,0.5008 F,0,69618,70285,0,1 M,0,69618,80282,188,229,364,232 F,0,70285,79615,1 F,0,79615,80282,1,0
Sprite,Foreground,Centre,"sb12.png",320,240 S,0,69618,,0.5199999 F,0,69618,76283,0 M,0,69618,80282,422,280,296,278 F,0,76283,76949,0,1 F,0,76949,79615,1 F,0,79615,80282,1,0
Sprite,Foreground,Centre,"White.png",320,240 S,0,32962,,1 F,0,32962,33295,1,0 F,0,58954,59621,0,1 F,0,59621,60954,1,0 F,0,78282,79615,1,0
//Storyboard Sound Samples
//Background Colour Transformations
3,100,0,0,0

[TimingPoints]
971,333.333333333333,4,1,1,70,1,0
22304,-100,4,2,1,45,0,0
31637,-100,4,2,1,30,0,0
32971,-100,4,2,1,65,0,0
43637,-100,4,1,1,60,0,0
59637,-100,4,1,1,70,0,1
69637,-100,4,1,1,70,0,0
78304,-100,4,1,1,70,0,1
81304,-100,4,1,1,65,0,1
81971,-100,4,1,1,50,0,1
82804,-100,4,1,1,25,0,1
83637,-100,4,2,1,15,0,0

[Colours]
Combo1 : 255,183,34
Combo2 : 186,28,80
Combo3 : 70,47,179
Combo4 : 241,241,44
Combo5 : 255,9,255
SliderBorder : 255,255,255

[HitObjects]
184,216,11637,2,0,B|242:182|271:249|339:211,1,160,4|8
288,128,12971,1,0
216,64,13637,1,8
144,128,14304,5,0
144,128,14971,2,0,B|144:216|144:216|96:272,1,160,8|8
32,200,16304,1,8
32,200,16971,5,4
72,112,17637,2,0,B|120:96|152:112,2,80,8|0|0
116,196,18971,1,8
220,236,19637,6,0,B|224:336|320:380|432:328|412:208,1,320,8|0
320,244,21637,2,0,B|316:180|276:148|276:148|276:80,1,160,0|2
144,48,22970,5,8
188,152,23637,2,0,B|165:174|165:174|159:191|159:191|131:219,2,80,0|8|0
292,108,24970,6,0,B|348:168|340:256,1,160,2|8
396,352,26304,2,0,B|300:384|252:304,1,160,2|8
148,284,27637,6,0,B|148:243|148:243|148:195|168:175|215:175|215:175|236:175,1,160,8|8
248,64,28970,2,0,B|296:64|328:96,2,80,8|0|8
224,172,30304,6,0,B|224:276|312:292|344:324|344:324|376:292|456:276|456:156,1,400,8|0
436,120,32304,2,0,B|396:96|356:104,2,80,8|0|4
372,212,33637,5,8
364,268,33970,2,0,B|244:292|244:292|116:268,1,240,0|8
104,160,35637,2,0,B|24:200|8:288,2,160,8|8|8
176,248,37637,1,8
280,284,38304,6,0,B|280:316|332:340|332:340|384:316|384:276,1,160,8|8
340,180,39637,2,0,B|260:156|182:180,1,160,8|8
256,192,40971,12,8,43637
192,240,44637,6,0,B|232:208|280:208,2,80,0|8|0
280,308,45971,2,0,B|240:340|192:340,2,80,0|8|0
192,240,47304,6,0,B|120:264|120:264|40:240,1,160
36,184,48304,2,0,B|44:144|92:120,2,80,8|0|8
108,268,49637,5,8
152,300,49971,2,0,B|276:372|392:300,1,240,0|8
316,216,51637,6,0,B|260:128,2,80,8|0|8
388,128,52971,2,0,B|348:56,2,80,0|0|8
464,212,54304,6,0,B|400:272|316:208|316:208|240:276|168:216,1,320,8|8
232,124,56304,1,0
256,192,56971,12,12,59637
200,308,60637,6,0,B|240:300|284:312,1,80
336,216,61637,2,0,B|355:180|339:140,2,80,8|0|8
248,148,62971,1,8
140,184,63637,2,0,B|116:264|116:264|140:352,1,160,8|8
192,336,64637,2,0,B|240:312|256:272,1,80,0|8
344,220,65637,5,8
344,220,66304,1,8
416,136,66971,2,0,B|384:104|328:112,2,80,8|0|8
344,220,68304,5,8
248,276,68971,2,0,B|168:348|80:260,2,160,8|8|8
256,164,70971,6,0,B|232:116|256:68,2,80,8|0|8
356,116,72304,1,8
324,224,72971,2,0,B|264:164|172:304|100:216,1,240,2|0
76,172,74304,2,0,B|20:156|12:108,2,80,8|0|8
176,220,75637,5,8
264,260,76304,2,0,B|296:128|112:72|80:232,1,320,8|8
176,220,78304,6,0,B|152:380|368:384|364:236,1,320,10|10
320,172,80304,1,8
256,100,80970,1,8
256,192,81637,12,4,83637
