osu file format v9

[General]
AudioFilename: Singing!.mp3
AudioLeadIn: 0
PreviewTime: 58971
Countdown: 0
SampleSet: Normal
StackLeniency: 0.7
Mode: 0
LetterboxInBreaks: 1
EpilepsyWarning: 1

[Editor]
DistanceSpacing: 1
BeatDivisor: 4
GridSize: 4

[Metadata]
Title:Singing!
Artist:HO-KAGO TEA TIME
Creator:SkyDevil
Version:249's Normal
Source:K-ON!!
Tags:houkago htt yoko hikasa hisaka aki toyosaki satomi sato minako kotobuki ayana taketatsu yui hirasawa mio akiyama ritsu tainaka mugi kotobuki azusa nakano keion keionbu bu movie black_cherry_ita Byakugan249 Kurisuchianu Lizsig sherrie__fay

[Difficulty]
HPDrainRate:3
CircleSize:3
OverallDifficulty:3
ApproachRate:4
SliderMultiplier:1
SliderTickRate:1

[Events]
//Background and Video events
0,0,"k_on_group_wallpaper_by_diaboliku.png"
//Break Periods
//Storyboard Layer 0 (Background)
Sprite,Background,Centre,"Black.png",320,240 M,0,22298,,318,240 S,0,22298,,4.7312 F,0,22298,23631,0,0.3968001 F,0,23631,31629,0.3968001,0.4264932 F,0,31629,32628,0.4264932,0.7336932 F,0,32628,32920,0.7336932,0.7144547 F,0,32920,32962,0.7144547,0
Sprite,Background,Centre,"rsz_k_on_group_wallpaper_by_diaboliku.png",320,240 M,0,43625,,320,240 S,0,43625,,0.8016 F,0,43625,44958,0,0.6944 F,0,44958,54289,0.6944,0.7555999 F,0,54289,55622,0.7555999,0
//Storyboard Layer 1 (Fail)
//Storyboard Layer 2 (Pass)
//Storyboard Layer 3 (Foreground)
Sprite,Foreground,Centre,"sb1.png",320,240 S,0,22298,,0.3536003 F,0,22298,22964,0.1071999,1 M,0,22298,31629,205,433,435,433 F,0,22964,31629,1 F,0,31629,32295,1,0
Sprite,Foreground,Centre,"sb2.png",320,240 S,0,22298,,0.4623998 M,0,22298,31629,432,58,208,58 F,0,27297,27963,0,1 F,0,27963,31629,1 F,0,31629,31962,1,0
Sprite,Foreground,Centre,"sb3.png",320,240 S,0,32628,,0.4880004 F,0,32628,33295,0.08800019,1 M,0,32628,42959,421,440,417,229 F,0,33295,37794,1 F,0,37794,38293,1,0 F,0,38293,,0
Sprite,Foreground,Centre,"sb4.png",320,240 S,0,32628,,0.3920001 F,0,32628,37960,0 M,0,32628,42959,183,67,180,277 F,0,37960,38627,0,1 F,0,38627,42626,1 F,0,42626,42959,1,0
Sprite,Foreground,Centre,"sb5.png",320,240 S,0,43292,,0.5264 F,0,43292,43959,0,1 M,0,43292,46291,369,450,467,398 F,0,43959,48291,1 M,0,46291,53623,467,398,172,272 F,0,48291,53623,1 F,0,53623,53956,1,0.01359985 M,0,53623,54289,172,272,192,253 F,0,53956,54289,0.01359985,0
Sprite,Foreground,Centre,"sb6.png",320,240 S,0,48624,,0.4687996 F,0,48624,49290,0,1 M,0,48624,50957,433,19,460,101 F,0,49290,53623,1 M,0,50957,54289,460,101,419,231 F,0,53623,54289,1,0
Sprite,Foreground,Centre,"sb7.png",320,240 S,0,53956,,0.4943999 F,0,53956,54622,0,1 M,0,53956,58954,320,94,323,229 F,0,54622,58288,1 F,0,58288,58954,1,0
Sprite,Foreground,Centre,"sb8.png",320,240 S,0,58954,,0.4432003 F,0,58954,59954,0,1 M,0,58954,69618,221,389,391,386 F,0,59954,68952,1 F,0,68952,69618,1,0
Sprite,Foreground,Centre,"sb9.png",320,240 S,0,64286,,0.4560002 F,0,64286,64953,0,1 M,0,64286,69618,442,106,368,106 F,0,64953,68952,1 F,0,68952,69618,1,0
Sprite,Foreground,Centre,"sb11.png",320,240 S,0,69618,,0.5008 F,0,69618,70285,0,1 M,0,69618,80282,188,229,364,232 F,0,70285,79615,1 F,0,79615,80282,1,0
Sprite,Foreground,Centre,"sb12.png",320,240 S,0,69618,,0.5199999 F,0,69618,76283,0 M,0,69618,80282,422,280,296,278 F,0,76283,76949,0,1 F,0,76949,79615,1 F,0,79615,80282,1,0
Sprite,Foreground,Centre,"White.png",320,240 S,0,32962,,1 F,0,32962,33295,1,0 F,0,58954,59621,0,1 F,0,59621,60954,1,0 F,0,78282,79615,1,0
//Storyboard Sound Samples
//Background Colour Transformations
3,100,0,0,0

[TimingPoints]
971,333.333333333333,4,1,1,70,1,0
22304,-100,4,2,1,70,0,0
38304,-100,4,1,1,70,0,0
38637,-100,4,2,1,70,0,0
43304,-100,4,1,1,70,0,0
43637,-100,4,1,1,60,0,0
59637,-100,4,1,1,75,0,1
59721,-100,4,1,1,75,0,0
78304,-100,4,1,1,75,0,1
78387,-100,4,1,1,75,0,0
81304,-100,4,1,1,65,0,0
81971,-100,4,1,1,50,0,0
82637,-100,4,1,1,25,0,0
83637,-100,4,1,1,15,0,0

[Colours]
Combo1 : 255,183,34
Combo2 : 186,28,80
Combo3 : 70,47,179
Combo4 : 241,241,44
Combo5 : 255,9,255
Sliderborder : 255,255,255

[HitObjects]
208,104,10971,2,0,B|176:208|216:320,1,200,0|4
312,280,11971,1,8
408,256,12304,2,0,B|456:224|456:160,2,100,0|8|0
348,176,13304,1,8
412,96,13637,2,0,B|368:52|268:52|216:112,1,200
200,196,14637,5,8
100,196,14971,2,0,B|68:136|68:60|168:28,1,200
252,56,15971,1,8
352,68,16304,2,0,B|380:120|380:192|332:272,1,200,0|4
260,320,17304,5,8
160,324,17637,1,0
104,240,17971,1,8
204,240,18304,2,0,B|240:204|296:184,1,100,0|8
384,156,18971,2,0,B|448:144|476:88,1,100,0|8
388,44,19637,5,0
292,76,19970,1,8
232,156,20304,1,0
332,156,20637,1,8
432,156,20970,2,0,B|400:280|272:244,1,200
184,244,21970,5,8
92,204,22304,1,4
176,152,22637,2,0,B|220:108|272:104,2,100,2|0|2
92,204,23637,2,0,B|84:316|188:380,1,200
264,320,24637,5,2
344,260,24970,1,0
344,160,25304,1,2
264,104,25637,2,0,B|320:64|380:64,1,100,0|2
355,65,26137,1,0
448,104,26470,2,0,B|484:160|456:228,1,100,0|0
336,280,27304,5,2
248,324,27637,1,0
208,232,27970,1,2
300,196,28304,1,0
216,144,28637,2,0,B|160:108|160:32,1,100,2|0
212,48,29137,1,0
264,48,29304,1,2
312,48,29470,2,0,B|396:64|444:136,1,150,0|2
412,224,30304,6,0,B|299:186|212:329|339:406|468:313|359:186|248:225,1,400
172,280,31970,1,2
92,220,32304,1,0
168,156,32637,2,0,B|208:112|272:112,1,100,2|4
244,212,33304,5,8
248,312,33637,2,0,B|300:304|335:265,1,100,0|8
396,188,34304,2,0,B|416:136|372:72,1,100,0|8
300,144,34970,1,0
204,112,35304,5,8
108,88,35637,2,0,B|101:142|133:182,1,100,0|8
228,208,36304,2,0,B|288:196|300:136,1,100,0|8
304,96,36804,1,0
396,128,37137,2,0,B|408:184|356:236,1,100
300,356,37970,5,8
252,268,38304,1,4
180,196,38637,1,8
252,124,38970,1,0
304,36,39304,1,8
336,76,39471,2,0,B|372:136|333:220,1,150,0|8
312,264,40137,1,0
172,328,40637,5,8
96,264,40971,1,0
20,200,41304,1,8
96,136,41637,1,0
172,72,41971,1,8
172,72,42137,2,0,B|248:96|284:180,1,150,0|8
96,264,43304,5,0
156,184,43637,2,0,B|204:232|204:336|136:376,1,200,4|8
52,352,44637,1,0
8,264,44971,1,0
52,172,45304,1,0
92,80,45637,2,0,B|140:44|220:48,1,100,8|0
188,148,46304,2,0,B|256:220|400:200,1,200,0|8
328,112,47304,5,0
240,68,47637,1,0
140,60,47971,1,0
188,148,48304,1,8
140,236,48637,1,0
140,236,48971,6,0,B|256:332|448:300,1,300,4|0
408,204,50304,1,0
344,128,50637,1,0
252,92,50971,1,8
160,128,51304,1,0
68,92,51637,6,0,B|60:188|144:276,1,200,0|8
228,320,52637,1,0
316,272,52971,2,0,B|420:220|436:84,1,200,0|8
336,80,53971,5,0
236,80,54304,1,4
164,152,54637,1,0
244,216,54971,1,8
344,216,55304,1,0
420,152,55637,5,0
344,216,55971,1,0
296,304,56304,2,0,B|348:324|412:296,1,100,8|0
256,192,56971,12,0,58971
160,152,59637,6,0,B|256:112|364:152,1,200,4|8
308,236,60637,1,0
212,264,60971,1,0
116,236,61304,1,0
16,236,61637,2,0,B|20:180|68:144,1,100,8|0
136,84,62304,6,0,B|188:48|256:52,1,100
216,152,62971,2,0,B|280:152|324:100,1,100,8|0
307,117,63637,1,0
448,260,64304,6,0,B|404:296|344:296,1,100,8|0
364,196,64971,2,0,B|252:196|196:312,1,200,4|8
304,296,65971,1,0
204,296,66304,1,0
116,252,66637,1,0
32,196,66971,2,0,B|4:252|36:328,1,100,8|0
116,252,67637,5,0
204,208,67971,1,0
116,164,68304,1,8
204,112,68637,1,0
288,164,68971,2,0,B|404:164,1,100
367,264,69637,6,0,B|320:324|233:313,1,150,8|0
184,308,70304,1,4
168,124,70971,6,0,B|215:64|302:75,1,150,8|0
352,80,71637,1,0
368,264,72304,6,0,B|321:324|234:313,1,150,8|0
184,308,72971,1,0
256,192,73137,12,0,74971
256,192,75637,5,4
256,192,76304,1,0
256,192,76971,1,4
256,192,77637,2,0,B|320:264|448:268,1,200,0|4
392,176,78637,5,8
316,108,78970,1,0
256,192,79304,1,8
204,108,79637,2,0,B|144:132|128:188,1,100,0|8
192,256,80304,2,0,B|188:316|128:352,1,100,0|8
92,256,80970,5,0
64,160,81304,1,8
144,104,81637,1,0
220,160,81970,1,8
192,256,82304,1,0
288,228,82637,2,0,B|344:224|412:192,2,100,8|0|8
288,228,83637,1,4
