osu file format v7

[General]
AudioFilename: Pure Pure Heart (TV Size).mp3
AudioLeadIn: 0
PreviewTime: 59602
Countdown: 0
SampleSet: Soft
StackLeniency: 0.4
Mode: 0
LetterboxInBreaks: 0

[Editor]
Bookmarks: 6615,12849,19083,25317,31550,37784,44018,50252,59602,65836,72070,78304,84537,90771,97005,103239,109472
DistanceSpacing: 0.75
BeatDivisor: 4
GridSize: 32

[Metadata]
Title:Pure Pure Heart (TV Size)
Artist:HO-KAGO TEA TIME
Creator:DJPop
Version:Normal
Source:K-ON!!
Tags:toyosaki aki hikasa youko satou satomi kotobuki minako taketatsu ayana hirasawa yui akiyama mio tainaka ritsu kotobuki tsumugi nakano asuza k-on keion hisaka yoko

[Difficulty]
HPDrainRate:2
CircleSize:4
OverallDifficulty:4
SliderMultiplier:1.28
SliderTickRate:2

[Events]
//Background and Video events
Video,-945,"Pure Pure Heart (TV Size).avi"
0,0,"Pure Pure Heart (TV Size).png"
//Break Periods
//Storyboard Layer 0 (Background)
//Storyboard Layer 1 (Fail)
//Storyboard Layer 2 (Pass)
//Storyboard Layer 3 (Foreground)
//Storyboard Sound Samples
//Background Colour Transformations
3,100,0,0,0

[TimingPoints]
382,389.61038961039,4,2,1,80,1,0
33401,-100,4,1,2,80,0,0
33596,-100,4,2,1,80,0,0
36518,-100,4,1,2,80,0,0
36713,-100,4,2,1,80,0,0
39635,-100,4,1,1,80,0,0
39830,-100,4,2,1,80,0,0
43433,-100,4,1,1,80,0,0
43823,-100,4,2,1,80,0,0
45966,-100,4,1,1,80,0,0
46063,-100,4,2,1,80,0,0
52200,-100,4,1,1,80,0,0
52297,-100,4,2,1,80,0,0
58044,-100,4,2,2,80,0,0
59602,-100,4,2,2,80,0,1
59992,-100,4,2,1,80,0,1
71193,-100,4,1,1,80,0,1
71778,-100,4,2,2,80,0,1
72069,-100,4,2,2,80,0,0
72070,-100,4,2,2,80,0,1
72265,-100,4,2,1,80,0,1
83563,-100,4,1,1,80,0,1
84343,-100,4,2,2,80,0,1
84537,-100,4,2,2,80,0,0
84732,-100,4,2,1,80,0,0
107719,-100,4,1,1,80,0,0
109180,-100,4,2,2,80,0,0
109472,-100,4,2,2,80,0,1
113563,-100,4,1,1,0,0,0

[Colours]
Combo1 : 0,255,0
Combo2 : 0,255,255
Combo3 : 255,0,255
Combo4 : 255,255,0

[HitObjects]
256,64,6615,6,0,C|256:192,1,128,4|8
144,352,7784,1,8
32,192,8563,1,8
144,32,9343,1,8
256,192,10122,5,8
368,352,10901,1,8
480,192,11680,1,8
368,32,12459,1,8
240,32,12849,6,0,C|112:32,1,128,4|8
32,256,14018,1,8
256,160,14797,1,8
480,272,15576,1,8
256,352,16356,5,8
96,192,17135,1,8
256,32,17914,1,8
416,192,18693,1,8
320,192,19083,5,4
224,192,19472,2,0,C|96:192,1,128,8|0
48,272,20252,1,8
96,352,20641,6,0,C|224:352,3,128,0|8|0|8
320,352,22200,5,0
400,304,22589,2,0,C|400:176,1,128,8|0
480,128,23369,1,8
480,32,23758,6,0,C|352:32,3,128,0|8|0|8
304,112,25317,5,0
256,32,25706,2,0,C|128:32,1,128,8|0
32,32,26485,1,8
32,128,26875,6,0,C|32:256,3,128,0|8|0|8
160,96,28823,6,0,B|176:48|208:16|255:18|304:16|336:48|352:96,1,256,8|8
351,287,30382,6,0,B|335:335|303:367|256:365|207:367|175:335|160:288,1,256,8|8
112,192,31550,5,4
208,192,31940,1,8
304,192,32330,1,0
400,192,32719,1,8
352,112,33109,6,0,C|160:112,2,192,0|0|8
400,192,34667,5,0
304,192,35057,1,8
208,192,35446,1,0
112,192,35836,1,8
160,272,36226,6,0,C|352:272,2,192,0|0|8
88,336,37784,5,0
88,240,38174,1,8
88,144,38563,1,0
88,48,38953,1,8
176,96,39343,6,0,C|176:288,2,192,0|0|8
352,96,41291,6,0,B|384:104|408:128|424:144|444:192|424:240|408:256|384:280|352:288,1,256,8|8
160,288,42849,2,0,B|128:280|104:256|88:240|68:192|88:144|104:128|128:104|160:96,1,256,12|8
256,64,44018,5,4
256,64,44407,1,4
256,64,44797,1,4
256,64,45187,1,4
384,128,45771,6,0,B|352:176|320:224|256:223|192:224|160:176|128:128,1,320,0|8
56,192,47135,5,0
96,280,47524,1,8
176,336,47914,1,0
272,352,48304,1,8
368,352,48693,6,0,C|480:288,3,128,0|8|0|8
480,192,50252,5,4
480,192,50641,1,4
480,192,51031,1,4
480,192,51420,1,4
416,64,52005,6,0,C|96:64,1,320,0|8
32,120,53369,5,4
112,168,53758,1,8
192,216,54148,2,0,C|320:216,1,128,0|8
400,160,54927,5,0
448,240,55317,1,8
400,320,55706,2,0,C|272:320,1,128,0|8
176,288,56485,5,12
128,208,56875,1,8
80,128,57265,1,8
32,48,57654,1,8
256,192,58044,12,4,59602
384,32,60382,5,2
480,192,61161,1,2
384,352,61940,1,2
288,192,62719,5,2
192,352,63498,1,2
32,256,64278,1,2
128,96,65057,1,2
224,256,65836,5,4
384,352,66615,1,2
480,192,67394,1,2
320,96,68174,1,2
160,96,68953,6,0,C|32:96,1,128,4|10
32,192,69732,2,0,C|160:192,1,128,2|10
160,288,70511,6,0,C|32:288,4,128,4|8|8|8|4
256,320,72459,5,10
448,352,73239,1,10
480,160,74018,1,10
288,96,74797,1,10
224,288,75576,5,10
40,224,76356,1,10
40,32,77135,1,10
224,64,77914,2,0,C|224:192,1,128,10|4
128,224,78693,5,10
256,352,79472,1,10
384,224,80252,1,10
320,32,81031,2,0,C|192:32,1,128,10|4
160,128,81810,5,10
352,128,82589,1,10
320,224,82979,2,0,C|192:224,1,128,12|12
192,320,83758,2,0,C|320:320,1,128,8|8
416,288,84537,5,4
448,192,84927,1,8
352,32,85706,1,8
160,32,86486,1,8
64,192,87265,1,8
160,352,88044,5,8
352,352,88823,1,8
448,192,89602,1,8
256,192,90382,1,8
160,192,90771,5,4
64,192,91161,1,8
160,32,91940,1,8
256,192,92719,1,8
352,32,93498,1,8
448,192,94278,5,8
352,352,95057,1,8
256,192,95836,1,12
160,352,96615,1,8
64,352,97005,6,0,B|48:336|32:320|34:294|32:272|48:256|64:240,3,128,4|10|10|10
63,143,98563,2,0,B|48:128|32:112|34:90|32:64|48:48|64:32,3,128,10|10|10|10
160,32,100122,2,0,B|175:47|191:63|213:61|239:63|255:47|271:31,3,128,10|10|10|10
368,32,101680,2,0,B|384:47|400:63|422:61|448:63|464:47|480:32,3,128,10|10|10|14
448,128,103239,6,0,B|463:143|479:159|477:181|479:207|463:223|447:239,3,128,12|10|10|10
352,208,104797,2,0,B|336:192|320:176|298:178|272:176|256:192|240:208,3,128,10|10|10|12
144,240,106356,2,0,B|159:255|175:271|173:293|175:319|159:335|143:351,3,128,12|10|10|10
64,288,107914,2,0,C|32:344,6,64,8|8|8|8|8|4|2
32,192,109472,5,4
256,192,109570,12,0,113563
