osu file format v7

[General]
AudioFilename: Pure Pure Heart (TV Size).mp3
AudioLeadIn: 0
PreviewTime: 59602
Countdown: 0
SampleSet: Soft
StackLeniency: 0.4
Mode: 0
LetterboxInBreaks: 0

[Editor]
Bookmarks: 6615,12849,19083,25317,31550,37784,44018,50252,59602,65836,72070,78304,84537,90771,97005,103239,109472
DistanceSpacing: 1
BeatDivisor: 4
GridSize: 32

[Metadata]
Title:Pure Pure Heart (TV Size)
Artist:HO-KAGO TEA TIME
Creator:DJPop
Version:Insane
Source:K-ON!!
Tags:toyosaki aki hikasa youko satou satomi kotobuki minako taketatsu ayana hirasawa yui akiyama mio tainaka ritsu kotobuki tsumugi nakano asuza k-on keion hisaka yoko

[Difficulty]
HPDrainRate:5
CircleSize:5
OverallDifficulty:8
SliderMultiplier:1.92
SliderTickRate:2

[Events]
//Background and Video events
Video,-945,"Pure Pure Heart (TV Size).avi"
0,0,"Pure Pure Heart (TV Size).png"
//Break Periods
//Storyboard Layer 0 (Background)
//Storyboard Layer 1 (Fail)
//Storyboard Layer 2 (Pass)
//Storyboard Layer 3 (Foreground)
//Storyboard Sound Samples
//Background Colour Transformations
3,100,0,0,0

[TimingPoints]
382,389.61038961039,4,2,1,80,1,0
43336,-100,4,2,2,80,0,0
43726,-100,4,1,1,80,0,0
43920,-100,4,2,2,80,0,0
45576,-100,4,2,1,80,0,0
49765,-100,4,2,2,80,0,0
51907,-100,4,2,1,80,0,0
57946,-100,4,2,2,80,0,0
58920,-100,4,1,1,80,0,0
59310,-100,4,2,2,80,0,0
59602,-100,4,2,2,80,0,1
59894,-100,4,2,1,80,0,1
71388,-100,4,2,2,80,0,1
71778,-100,4,1,1,80,0,1
72069,-100,4,2,2,80,0,0
72070,-100,4,2,1,80,0,1
72265,-100,4,2,1,80,0,1
83563,-100,4,2,2,80,0,1
84537,-100,4,2,2,80,0,0
84830,-100,4,2,1,80,0,0
107817,-100,4,1,1,80,0,0
109375,-100,4,2,2,80,0,0
109472,-100,4,2,2,80,0,1
113563,-100,4,1,1,0,0,0

[Colours]
Combo1 : 0,255,0
Combo2 : 0,255,255
Combo3 : 255,0,255
Combo4 : 255,255,0

[HitObjects]
256,192,6615,5,4
160,32,7005,2,0,B|128:64|96:68|64:64|32:32,2,144,8|8|0
192,96,7784,1,8
256,96,7979,1,0
288,32,8174,5,0
448,160,8563,2,0,B|480:128|484:97|480:64|448:32,2,144,8|8|0
416,224,9343,1,8
448,288,9537,1,0
480,352,9732,5,0
288,352,10122,2,0,B|256:320|224:316|192:320|160:352,2,144,8|8|0
320,288,10901,1,8
352,224,11096,1,0
384,160,11291,5,0
192,160,11680,2,0,B|160:128|156:96|160:64|192:32,2,144,8|8|0
128,192,12459,1,8
96,256,12654,1,0
32,288,12849,5,4
224,320,13239,2,0,B|256:352|290:356|320:352|352:320,1,144,8|8
448,224,13823,2,0,C|448:128,1,96,0|8
416,64,14213,1,0
480,32,14407,5,0
288,64,14797,2,0,B|256:32|225:28|192:32|160:64,1,144,8|8
32,128,15382,2,0,C|32:224,1,96,0|8
32,288,15771,1,0
32,352,15966,5,0
224,320,16356,2,0,B|192:288|188:255|192:224|224:192,1,144,8|8
368,208,16940,2,0,C|368:304,1,96,0|8
304,288,17330,1,0
304,224,17524,5,0
448,352,17914,2,0,B|480:320|484:288|480:256|448:224,1,144,8|8
352,128,18498,1,0
336,112,18596,1,8
320,96,18693,1,8
304,80,18791,1,8
288,64,18888,1,8
224,32,19083,5,4
160,32,19278,1,0
96,32,19472,2,0,B|80:32|48:48|32:80|48:112|80:128|96:128,1,144,8|8
95,127,19862,1,0
160,128,20057,1,0
224,160,20252,1,8
160,192,20446,1,0
96,192,20641,6,0,B|48:208|32:224|20:256|32:288|48:304|96:320,1,192,0|8
160,320,21226,2,0,C|352:320,1,192
416,319,21810,2,0,B|464:304|480:288|492:256|480:224|464:208|416:192,1,192,8|0
352,192,22394,5,0
288,192,22589,2,0,B|248:184|224:160|200:136|159:128,1,144,8|0
160,128,22979,1,0
96,128,23174,1,0
32,96,23369,1,8
96,64,23563,1,0
160,32,23758,6,0,B|192:32|224:16|248:48|248:56|248:64|272:96|304:80|337:80,1,192,0|8
400,80,24343,2,0,B|432:80|499:100|488:160|480:192|480:224,1,192
480,288,24927,2,0,B|480:304|464:352|417:377|368:352|352:304|352:288,1,192,8|0
352,224,25511,5,0
288,224,25706,2,0,B|237:233|200:256|160:288,1,144,8|0
160,287,26096,1,0
96,320,26291,1,0
32,352,26485,1,8
32,288,26680,1,0
32,224,26875,6,0,C|32:32,1,192,0|8
96,32,27459,2,0,B|96:64|88:96|86:160|160:160|192:160,1,192
256,160,28044,1,8
320,159,28239,2,0,B|352:160|426:160|424:96|416:64|416:32,1,192
480,32,28823,6,0,C|480:224,1,192,8|0
480,288,29407,1,0
480,352,29602,1,8
416,320,29797,2,0,B|400:288|368:272|336:269|304:272|272:288|256:320,1,192
192,352,30382,5,8
192,288,30576,1,0
128,320,30771,2,0,B|96:320|24:322|24:256|32:224|32:192,1,192,0|8
160,32,31550,5,4
96,64,31745,1,0
160,96,31940,1,8
288,96,32232,1,0
288,96,32330,1,0
320,32,32524,1,0
352,96,32719,1,8
320,160,32914,1,0
256,160,33109,6,0,B|240:160|208:168|192:200|182:224|192:248|208:280|240:288|256:288,1,192,0|8
256,224,33693,2,0,B|272:224|304:232|320:264|330:288|320:312|304:344|272:352|256:352,1,192
192,352,34278,1,8
384,352,34667,5,0
448,320,34862,1,0
480,256,35057,2,0,B|464:256|432:248|416:216|406:192|416:168|432:136|464:128|480:128,1,192,8|0
448,64,35641,1,0
384,32,35836,1,8
320,64,36031,1,0
256,32,36226,6,0,C|64:32,1,192,0|8
32,96,36810,2,0,C|224:96,1,192
192,160,37394,1,8
32,288,37784,5,0
32,224,37979,1,0
32,160,38174,1,8
160,224,38466,1,0
160,224,38563,1,0
96,256,38758,1,0
160,288,38953,1,8
96,320,39148,1,0
160,352,39343,6,0,B|199:352|256:368|288:304|304:256,1,192,0|8
336,191,39927,2,0,B|352:144|384:80|441:96|480:96,1,192
480,160,40511,1,8
480,224,40706,2,0,C|480:320,1,96
416,352,41096,5,0
352,320,41291,2,0,C|216:184,2,192,8|0|8
416,288,42265,2,0,C|416:192,1,96
352,160,42654,5,0
416,128,42849,1,12
352,96,43044,1,0
416,64,43239,1,0
352,32,43433,1,8
336,32,43531,1,8
320,32,43628,1,8
304,32,43726,1,4
288,32,43823,1,2
256,96,44018,5,4
256,288,44407,1,4
32,288,44797,1,4
32,96,45187,1,4
160,32,45479,1,8
160,32,45576,5,0
96,48,45771,2,0,C|96:144,1,96,0|8
160,160,46161,1,0
160,224,46356,1,0
96,240,46550,2,0,C|96:336,1,96,0|8
160,352,46940,6,0,C|352:352,1,192
416,352,47524,1,8
480,160,47914,1,0
416,192,48109,1,0
352,224,48304,1,8
288,256,48498,1,0
224,256,48693,5,0
160,224,48888,1,0
96,192,49083,1,8
32,160,49278,1,0
160,32,49667,1,0
176,32,49765,1,8
192,32,49862,1,8
208,32,49959,1,8
224,32,50057,1,8
240,32,50154,1,8
256,32,50252,5,4
416,192,50641,1,4
256,352,51031,1,4
96,192,51420,1,4
256,192,51713,1,8
256,192,51810,5,4
304,144,52005,1,0
352,96,52200,1,8
400,48,52394,1,0
448,96,52589,1,0
496,144,52784,2,0,C|496:240,1,96,0|8
448,288,53174,6,0,C|352:288,1,96,0|4
320,352,53563,1,0
256,352,53758,1,8
224,288,53953,1,0
160,288,54148,1,0
128,352,54343,2,0,C|32:352,1,96,0|8
32,288,54732,6,0,C|32:96,1,192
64,32,55317,1,8
96,96,55511,1,0
128,32,55706,1,0
160,96,55901,2,0,B|171:150|224:160,1,96,0|8
288,160,56291,1,0
288,224,56485,6,0,C|384:224,1,96,12|0
384,128,56875,2,0,C|384:224,1,96,8|0
480,224,57265,2,0,C|384:224,1,96,8|0
384,320,57654,2,0,C|384:224,1,96,8|0
288,224,58044,5,12
288,160,58239,1,8
272,144,58336,1,8
256,128,58433,1,8
240,112,58531,1,8
224,96,58628,1,8
208,80,58726,1,8
192,64,58823,1,8
176,48,58920,1,4
160,32,59018,1,2
112,80,59213,1,2
64,32,59407,1,8
48,48,59505,1,8
32,64,59602,6,0,B|32:96|5:192|96:192|128:192,1,192,4|10
192,192,60187,1,0
127,192,60382,2,0,B|96:192|5:192|32:288|32:320,1,192,2|10
96,352,60966,1,0
160,320,61161,6,0,C|352:320,1,192,2|10
416,352,61745,1,0
480,320,61940,1,2
480,256,62135,1,0
416,224,62330,1,10
416,160,62524,1,0
480,128,62719,6,0,B|448:88|418:58|376:40|336:32|320:32,1,192,2|10
256,32,63304,1,0
191,32,63498,2,0,B|176:32|136:40|94:58|64:88|32:128,1,192,2|10
80,176,64083,1,0
32,224,64278,6,0,B|32:256|5:352|96:352|128:352,1,192,2|10
160,288,64862,1,0
224,256,65057,1,2
288,288,65252,1,0
320,352,65446,1,10
480,256,65836,6,0,C|296:200,1,192,4|10
256,144,66420,1,0
215,87,66615,2,0,C|32:32,1,192,2|10
32,96,67200,1,0
96,128,67394,6,0,B|144:144|160:160|172:192|160:224|144:240|96:256,1,192,2|10
32,288,67979,1,0
96,320,68174,1,2
160,352,68369,1,0
224,320,68563,1,10
288,288,68758,1,0
288,224,68953,6,0,C|288:32,1,192,4|10
480,32,69732,2,0,C|480:224,1,192,2|10
384,32,70511,6,0,C|384:224,1,192,2|10
384,288,71096,1,0
384,352,71291,1,10
320,352,71485,1,8
304,352,71583,1,8
288,352,71680,1,8
272,352,71778,1,4
256,352,71875,1,2
240,352,71972,1,2
224,352,72070,5,4
32,352,72459,1,10
96,320,72654,1,0
160,288,72849,1,2
32,128,73239,1,10
96,160,73433,1,0
160,192,73628,5,2
32,32,74018,1,10
96,32,74213,1,0
160,32,74407,1,2
224,32,74602,1,0
288,32,74797,1,10
480,32,75187,5,2
352,192,75576,1,10
416,160,75771,1,0
480,128,75966,1,2
352,288,76356,1,10
416,320,76550,1,0
480,352,76745,5,2
288,352,77135,1,10
256,288,77330,1,0
192,256,77524,1,2
128,288,77719,1,0
64,256,77914,1,10
32,192,78109,1,0
64,128,78304,5,4
224,32,78693,1,10
288,64,78888,1,0
320,128,79083,1,2
480,32,79472,1,10
416,64,79667,1,0
384,128,79862,5,2
288,288,80252,1,10
320,352,80446,1,0
352,288,80641,1,2
384,224,80836,1,0
416,288,81031,1,10
448,352,81226,1,0
480,288,81420,5,4
384,128,81810,1,10
320,128,82005,1,0
256,128,82200,1,2
64,128,82589,1,10
160,288,82979,5,12
352,288,83369,1,12
256,128,83758,1,8
240,112,83856,1,8
224,96,83953,1,8
208,80,84050,1,8
192,64,84148,1,8
288,32,84343,1,8
304,48,84440,1,8
320,64,84537,6,0,B|384:128|416:160|470:160|480:160,1,192,4|8
480,32,85219,1,8
480,160,85511,2,0,C|480:256,1,96,0|8
448,320,85901,1,0
384,352,86096,6,0,C|192:352,1,192,0|8
64,352,86778,1,8
192,352,87070,2,0,C|192:256,1,96,0|8
160,192,87459,1,0
96,160,87654,6,0,B|48:144|32:128|20:96|32:64|48:48|96:32,1,192,0|8
240,32,88336,1,8
384,32,88628,2,0,C|480:32,1,96,0|8
480,96,89018,1,0
480,160,89213,6,0,B|448:160|397:142|352:112|320:64,1,192,0|8
192,128,89894,1,8
320,192,90187,2,0,C|320:288,1,96,0|8
320,352,90576,1,0
256,352,90771,5,4
64,352,91161,1,8
192,288,91453,1,8
64,224,91745,1,0
128,224,91940,1,8
192,224,92135,1,0
256,224,92330,5,0
256,32,92719,1,8
192,160,93011,1,8
128,32,93304,1,0
64,64,93498,1,8
64,128,93693,1,0
128,160,93888,5,0
320,160,94278,1,8
384,32,94570,1,8
448,160,94862,1,0
480,224,95057,1,8
480,288,95252,1,0
448,352,95446,5,0
256,352,95836,1,12
384,288,96128,1,0
256,224,96420,1,8
224,288,96615,1,8
160,288,96810,1,8
144,288,96907,1,8
128,288,97005,6,0,C|32:288,1,96,4|0
128,224,97394,2,0,C|32:224,1,96,10|0
128,160,97784,2,0,C|32:160,1,96,10|0
128,96,98174,2,0,C|32:96,1,96,10|0
128,32,98563,6,0,B|183:44|192:96,1,96,10|0
192,160,98952,2,0,B|202:213|256:224,1,96,10|0
288,160,99342,2,0,B|341:170|352:224,1,96,10|0
352,288,99732,2,0,B|362:341|416:352,1,96,10|0
480,352,100122,6,0,C|480:256,1,96,10|0
480,256,100511,2,0,C|392:216,1,96,10|0
392,216,100901,2,0,C|392:120,1,96,10|0
392,120,101291,2,0,C|480:80,1,96,10|0
416,32,101680,6,0,C|320:32,1,96,10|0
320,32,102069,2,0,C|224:32,1,96,10|0
224,32,102459,2,0,C|128:32,1,96,10|0
128,32,102849,2,0,C|32:32,1,96,12|0
32,96,103239,5,12
32,160,103433,1,0
32,224,103628,2,0,C|32:320,1,96,10|0
96,352,104018,1,10
160,320,104213,1,0
224,288,104407,1,10
160,256,104602,1,0
96,224,104797,6,0,C|96:128,1,96,10|0
160,96,105187,1,10
224,64,105382,1,0
224,128,105576,2,0,C|224:224,1,96,10|0
288,256,105966,1,12
352,288,106161,1,0
384,352,106356,5,12
448,320,106550,1,0
464,304,106648,1,0
480,288,106745,1,10
448,224,106940,1,0
480,160,107135,1,10
448,96,107330,1,0
432,80,107427,1,0
416,64,107524,1,10
352,32,107719,1,0
288,32,107914,5,8
272,48,108011,1,8
256,64,108109,1,8
240,80,108206,1,8
224,96,108304,1,8
208,112,108401,1,8
192,128,108498,1,8
176,144,108596,1,8
160,160,108693,1,8
144,176,108791,1,4
128,192,108888,1,4
112,208,108985,1,2
96,224,109083,1,2
64,288,109278,5,0
32,352,109472,5,4
256,192,109570,12,0,113563
