osu file format v7

[General]
AudioFilename: Pure Pure Heart (TV Size).mp3
AudioLeadIn: 0
PreviewTime: 59602
Countdown: 0
SampleSet: Soft
StackLeniency: 0.4
Mode: 0
LetterboxInBreaks: 0

[Editor]
Bookmarks: 6615,12849,19083,25317,31550,37784,44018,50252,59602,65836,72070,78304,84537,90771,97005,103239,109472
DistanceSpacing: 1
BeatDivisor: 4
GridSize: 32

[Metadata]
Title:Pure Pure Heart (TV Size)
Artist:HO-KAGO TEA TIME
Creator:DJPop
Version:Hard
Source:K-ON!!
Tags:toyosaki aki hikasa youko satou satomi kotobuki minako taketatsu ayana hirasawa yui akiyama mio tainaka ritsu kotobuki tsumugi nakano asuza k-on keion hisaka yoko

[Difficulty]
HPDrainRate:4
CircleSize:4
OverallDifficulty:6
SliderMultiplier:1.6
SliderTickRate:2

[Events]
//Background and Video events
Video,-945,"Pure Pure Heart (TV Size).avi"
0,0,"Pure Pure Heart (TV Size).png"
//Break Periods
//Storyboard Layer 0 (Background)
//Storyboard Layer 1 (Fail)
//Storyboard Layer 2 (Pass)
//Storyboard Layer 3 (Foreground)
//Storyboard Sound Samples
//Background Colour Transformations
3,100,0,0,0

[TimingPoints]
382,389.61038961039,4,2,1,80,1,0
27946,-100,4,1,2,80,0,0
28141,-100,4,2,1,80,0,0
40414,-100,4,1,2,80,0,0
40609,-100,4,2,1,80,0,0
43433,-100,4,1,1,80,0,0
43823,-100,4,2,1,80,0,0
45966,-100,4,1,2,80,0,0
46063,-100,4,2,1,80,0,0
46745,-100,4,1,2,80,0,0
46843,-100,4,2,1,80,0,0
52979,-100,4,1,2,80,0,0
53076,-100,4,2,1,80,0,0
56096,-100,4,1,2,80,0,0
56193,-100,4,2,1,80,0,0
57946,-100,4,2,2,80,0,0
58239,-100,4,1,1,80,0,0
59407,-100,4,2,2,80,0,0
59602,-100,4,2,2,80,0,1
59797,-100,4,2,1,80,0,1
71193,-100,4,2,2,80,0,1
71778,-100,4,1,1,80,0,1
72069,-100,4,2,2,80,0,0
72070,-100,4,2,1,80,0,1
72265,-100,4,2,1,80,0,1
83563,-100,4,2,2,80,0,1
84537,-100,4,2,2,80,0,0
84732,-100,4,2,1,80,0,0
107719,-100,4,1,1,80,0,0
109180,-100,4,2,2,80,0,0
109472,-100,4,2,2,80,0,1
113563,-100,4,1,1,0,0,0

[Colours]
Combo1 : 0,255,0
Combo2 : 0,255,255
Combo3 : 255,0,255
Combo4 : 255,255,0

[HitObjects]
256,192,6615,5,4
256,32,7005,2,0,C|96:32,2,160,10|2|10
256,192,8174,5,2
416,192,8563,2,0,C|416:32,2,160,10|2|10
256,192,9732,5,2
256,352,10122,2,0,C|416:352,2,160,10|2|10
256,192,11291,5,2
96,192,11680,2,0,C|96:352,2,160,10|2|10
256,192,12849,5,4
256,32,13239,2,0,C|416:32,1,160,10|2
416,192,14018,1,10
256,192,14407,5,2
256,32,14797,2,0,C|96:32,1,160,10|2
96,192,15576,1,10
256,192,15966,5,2
256,352,16356,2,0,C|416:352,1,160,10|2
416,192,17135,1,10
256,192,17524,5,2
256,352,17914,2,0,C|96:352,1,160,10|2
96,192,18693,1,8
256,192,19083,5,4
272,128,19278,1,0
320,80,19472,2,0,B|320:48|336:32|352:16|368:34|384:16|400:32|416:48|416:80,1,160,8|0
464,128,20057,1,0
480,192,20252,1,8
480,352,20641,6,0,C|320:352,1,160,0|8
256,352,21226,2,0,C|96:352,1,160
32,352,21810,1,8
32,192,22200,5,0
88,152,22394,1,0
144,112,22589,2,0,C|304:112,1,160,8|0
360,72,23174,1,0
416,32,23369,1,8
480,192,23758,6,0,B|480:208|472:268|416:288|368:272,1,160,0|8
303,239,24343,2,0,B|256:224|200:244|192:304|192:320,1,160
256,352,24927,1,8
96,352,25317,5,0
64,288,25511,1,0
32,224,25706,2,0,C|32:64,1,160,8|0
96,32,26291,1,0
160,64,26485,1,8
320,32,26875,6,0,C|480:32,1,160,0|8
480,96,27459,2,0,C|320:96,3,160
320,160,28823,6,0,C|480:160,2,160,8|0|8
256,160,29797,1,0
400,224,30187,6,0,C|480:224,2,80,0|8|0
336,224,30771,2,0,B|320:224|250:224|224:304|224:320,1,160,0|8
192,160,31550,5,4
192,96,31745,1,0
192,32,31940,1,8
32,32,32330,1,0
32,96,32524,1,0
32,160,32719,1,8
32,320,33109,6,0,C|192:320,1,160,0|8
256,320,33693,2,0,C|416:320,1,160
480,320,34278,1,8
480,160,34667,5,0
480,96,34862,1,0
480,32,35057,1,8
320,32,35446,1,0
320,96,35641,1,0
320,160,35836,1,8
224,32,36226,6,0,C|96:128,1,160,0|8
96,192,36810,2,0,C|224:288,1,160
224,352,37394,1,8
384,352,37784,5,0
448,320,37979,1,0
480,256,38174,1,8
384,128,38563,1,0
416,64,38758,1,0
480,32,38953,1,8
320,32,39343,6,0,C|224:161,1,160,0|8
184,216,39927,2,0,C|88:344,3,160
32,304,41291,6,0,C|32:144,2,160,8|0|8
32,304,42265,1,0
118,169,42654,6,0,C|184:216,2,80,0|12|0
120,104,43239,2,0,B|164:40|224:32|256:32,1,160,0|8
256,192,44018,5,4
368,304,44407,1,4
480,192,44797,1,4
368,80,45187,1,4
160,192,45771,6,0,B|144:160|112:144|96:149|80:144|48:160|32:192,1,160,0|0
96,232,46356,1,0
32,272,46550,2,0,B|48:304|80:320|96:315|112:320|144:304|160:272,2,160
96,232,47524,1,8
256,224,47914,5,0
288,288,48109,1,0
320,352,48304,1,8
352,288,48498,1,0
384,224,48693,1,0
416,288,48888,1,0
448,352,49083,1,8
480,288,49278,2,0,C|480:128,1,160
480,64,49862,1,8
320,32,50252,5,4
240,176,50641,1,4
160,32,51031,1,4
80,176,51420,1,4
256,352,52005,5,0
192,352,52200,1,8
128,352,52394,1,0
64,352,52589,1,0
96,288,52784,2,0,B|112:256|144:240|160:245|176:240|208:256|224:288,1,160
288,288,53369,6,0,C|352:336,1,80,4|0
352,256,53758,2,0,C|416:304,1,80,8|0
416,224,54148,2,0,C|480:272,2,80,0|0|8
480,192,54732,6,0,B|480:176|496:144|490:95|448:80|416:64,1,160
352,32,55317,1,8
320,96,55511,1,0
256,64,55706,1,0
224,128,55901,2,0,B|192:112|160:92|128:64|96:32,1,160
32,64,56485,5,12
32,224,56875,1,8
192,192,57265,1,8
192,352,57654,1,8
352,320,58044,2,0,C|384:352,16,40,12|0|8|8|8|8|8|8|8|4|2|0|2|0|8|8|4
384,64,60187,5,0
384,64,60382,1,0
128,64,60966,1,0
128,64,61161,1,0
416,192,61745,5,0
352,192,61940,1,0
288,192,62135,1,0
224,192,62330,1,8
160,192,62524,1,0
96,192,62719,1,0
384,320,63304,5,0
384,320,63498,1,0
128,320,64083,1,0
128,320,64278,1,0
128,160,64667,5,8
192,160,64862,1,0
256,160,65057,1,0
320,160,65252,1,0
384,160,65446,1,8
256,64,65836,5,4
64,224,66420,5,0
128,256,66615,1,0
384,256,67200,1,0
448,224,67394,1,0
256,352,67979,5,0
256,288,68174,1,0
256,224,68369,1,0
256,160,68563,1,8
256,96,68758,1,0
256,32,68953,5,4
416,192,69343,1,8
256,352,69732,1,0
96,192,70122,1,8
256,32,70511,6,0,C|256:192,1,160,0|8
312,232,71096,1,0
256,272,71291,2,0,C|256:352,2,80,8|8|8
200,232,71875,1,2
144,192,72070,6,0,C|176:32,1,160,4|10
112,32,72654,1,0
48,35,72849,2,0,C|80:192,1,160,2|10
32,240,73433,1,0
80,288,73628,6,0,B|136:347|224:352,1,160,2|10
288,352,74213,1,0
352,352,74407,1,2
416,352,74602,1,0
480,352,74797,1,10
480,192,75187,6,0,C|480:32,1,160,2|10
416,32,75771,1,0
352,32,75966,2,0,C|352:192,1,160,2|10
288,192,76550,1,0
224,192,76745,6,0,C|224:32,1,160,2|10
160,32,77330,1,0
96,32,77524,1,2
32,64,77719,1,0
32,128,77914,1,10
96,160,78109,1,0
160,192,78304,6,0,B|131:261|64:320,1,160,4|10
128,352,78888,1,0
192,320,79083,2,0,B|226:247|288:192,1,160,2|10
352,224,79667,1,0
352,296,79862,6,0,B|368:328|400:344|416:339|432:344|464:328|480:296,1,160,2|10
480,224,80446,1,0
448,160,80641,1,2
416,96,80836,1,0
352,64,81031,1,10
288,32,81226,1,0
224,64,81420,6,0,C|96:160,1,160,4|10
32,192,82005,1,0
96,224,82200,2,0,C|224:320,1,160,2|10
384,272,82979,6,0,C|384:112,1,160,12|12
256,192,83758,2,0,C|216:192,4,40,8|8|8|8|8
256,352,84537,5,4
416,352,84927,1,10
416,192,85317,2,0,C|256:192,1,160,2|10
256,32,86096,5,2
96,32,86486,1,10
96,192,86876,2,0,C|256:192,1,160,2|10
416,192,87654,5,2
416,32,88044,1,10
256,32,88434,2,0,C|256:192,1,160,2|10
96,192,89213,5,2
96,352,89603,1,10
256,352,89993,2,0,C|256:192,1,160,2|10
256,32,90771,6,0,C|416:32,1,160,4|10
416,192,91550,1,2
256,192,91940,1,10
96,192,92330,6,0,C|96:32,1,160,2|10
256,32,93109,1,2
256,192,93499,1,10
256,352,93888,6,0,C|96:352,1,160,2|10
96,192,94667,1,2
256,192,95057,1,10
416,192,95446,6,0,C|416:352,1,160,2|12
256,352,96226,1,2
256,272,96420,1,8
256,192,96615,1,8
256,112,96810,1,8
256,32,97005,5,4
256,32,97394,1,10
112,112,97784,1,10
112,112,98174,1,10
112,272,98563,5,10
112,272,98953,1,10
256,352,99343,1,10
256,352,99732,1,10
400,272,100122,5,10
400,272,100511,1,10
400,112,100901,1,10
400,112,101291,1,10
256,32,101680,5,10
256,32,102070,1,10
256,192,102459,1,10
256,192,102849,1,12
96,192,103239,5,12
176,336,103628,1,10
96,192,104018,1,10
176,48,104407,1,10
336,48,104797,5,10
416,192,105187,1,10
336,336,105576,1,10
416,192,105966,1,12
256,192,106356,5,12
96,192,106745,1,10
256,192,107135,1,10
416,192,107524,1,10
256,192,107914,6,0,C|256:152,12,40,8|8|8|8|8|8|8|8|8|4|4|2|2
256,192,109472,5,4
256,192,109570,12,0,113563
