osu file format v7

[General]
AudioFilename: Our MAGIC.mp3
AudioLeadIn: 2500
PreviewTime: 79860
Countdown: 0
SampleSet: Normal
StackLeniency: 0.4
Mode: 0
LetterboxInBreaks: 0

[Editor]
Bookmarks: 1933,14400,23751,29985,42452,48686,61154,67387,79855,92323,104790,117258,123491
DistanceSpacing: 2
BeatDivisor: 4
GridSize: 32

[Metadata]
Title:Our MAGIC
Artist:HO-KAGO TEA TIME
Creator:DJPop
Version:Normal
Source:K-ON!!
Tags:toyosaki aki hikasa youko satou satomi kotobuki minako taketatsu ayana hirasawa yui akiyama mio tainaka ritsu kotobuki tsumugi nakano asuza k-on keion hisaka yoko [Shalon]

[Difficulty]
HPDrainRate:2
CircleSize:4
OverallDifficulty:4
SliderMultiplier:1.28
SliderTickRate:2

[Events]
//Background and Video events
0,0,"Our MAGIC.png"
//Break Periods
//Storyboard Layer 0 (Background)
//Storyboard Layer 1 (Fail)
//Storyboard Layer 2 (Pass)
//Storyboard Layer 3 (Foreground)
//Storyboard Sound Samples
//Background Colour Transformations
3,100,0,0,0

[TimingPoints]
375,389.61038961039,4,1,1,80,1,0
23946,-100,4,2,1,80,0,0
24433,-100,4,1,1,80,0,0
24725,-100,4,2,1,80,0,0
25212,-100,4,1,1,80,0,0
25504,-100,4,2,1,80,0,0
25991,-100,4,1,1,80,0,0
26284,-100,4,2,1,80,0,0
29595,-100,4,1,1,80,0,0
31933,-100,4,1,2,80,0,0
32030,-100,4,1,1,80,0,0
32712,-100,4,1,2,80,0,0
32810,-100,4,1,1,80,0,0
38167,-100,4,1,2,80,0,0
38264,-100,4,1,1,80,0,0
38946,-100,4,1,2,80,0,0
39043,-100,4,1,1,80,0,0
42258,-200,4,1,1,80,0,0
42745,-200,4,1,1,0,0,0
43524,-200,4,1,1,80,0,0
44303,-200,4,1,1,0,0,0
45082,-200,4,1,1,80,0,0
45375,-100,4,1,1,80,0,0
53654,-100,4,1,2,80,0,0
53849,-100,4,1,1,80,0,0
59887,-100,4,1,2,80,0,0
60082,-100,4,1,1,80,0,0
60959,-200,4,1,1,80,0,0
61446,-200,4,1,1,0,0,0
62225,-200,4,1,1,80,0,0
63004,-200,4,1,1,0,0,0
63784,-200,4,1,1,80,0,0
64076,-100,4,1,1,80,0,0
79855,-100,4,1,1,80,0,1
92322,-100,4,1,1,80,0,0
92323,-100,4,1,1,80,0,1
104790,-100,4,1,1,80,0,0
117745,-100,4,2,2,30,0,0
117939,-100,4,1,1,80,0,0
118524,-100,4,2,2,30,0,0
118719,-100,4,1,1,80,0,0
119303,-100,4,2,2,30,0,0
119498,-100,4,1,1,80,0,0
120082,-100,4,2,2,30,0,0
120277,-100,4,1,1,80,0,0
121641,-100,4,2,2,30,0,0
121933,-100,4,2,1,0,0,0

[Colours]
Combo1 : 140,199,143
Combo2 : 233,127,163
Combo3 : 203,183,234
Combo4 : 248,233,118

[HitObjects]
256,32,1933,5,4
136,80,2323,1,8
256,128,2712,1,0
376,80,3102,2,0,B|432:128|453:192|432:256|376:304|376:304,1,256,8|8
256,352,4271,1,0
128,352,4660,1,8
160,224,5050,5,0
32,224,5439,2,0,B|19:65|128:32|160:32|160:32,1,256,8|8
288,32,6608,2,0,C|416:32,3,128,0|8|0|8
480,144,8167,5,4
352,160,8556,1,8
448,240,8946,1,0
320,256,9336,2,0,B|288:336|225:355|160:336|128:256|128:256,2,256,8|8|8
224,176,11284,5,0
224,176,11673,1,8
224,48,12063,1,0
224,48,12452,1,8
112,112,12842,2,0,C|48:112,6,64
128,240,14400,5,4
192,352,14790,1,0
256,240,15180,1,0
320,352,15569,1,0
384,240,15959,5,0
384,240,16154,1,0
320,128,16543,2,0,B|320:96|296:64|256:46|216:64|192:96|192:128|192:128,1,192
64,168,17517,5,0
192,208,17907,1,0
320,208,18297,1,0
320,208,18491,1,0
448,168,18881,6,0,B|448:208|506:383|304:352|293:352|128:352|128:352,1,448
32,272,20634,5,4
144,208,21024,1,0
64,112,21413,1,0
176,48,21803,1,0
304,48,22193,5,0
304,48,22387,1,0
432,48,22777,2,0,B|413:156|304:176|304:176,1,192
160,160,23751,6,0,C|160:352,1,192
160,352,24530,2,0,C|352:352,1,192
352,352,25310,2,0,C|352:160,1,192
352,160,26089,2,0,C|160:160,1,192
256,192,26868,12,0,28426
448,352,29985,5,4
320,352,30375,1,8
192,352,30764,1,0
64,352,31154,1,8
129,240,31543,6,0,B|256:271|383:240|383:240,2,256
32,160,33491,5,8
64,32,33881,1,0
192,32,34271,1,8
224,160,34660,5,2
336,96,35050,2,0,C|336:32,1,64,10|2
464,32,35634,2,0,C|464:96,1,64,2|10
384,192,36219,5,4
480,272,36608,1,8
384,352,36998,1,0
288,272,37387,1,8
192,352,37777,2,0,B|29:356|32:192|32:192,2,256
192,224,39725,5,8
104,128,40115,1,0
192,32,40504,1,8
320,32,40894,2,0,C|448:32,3,128,0|8|0|8
480,160,42452,6,0,C|320:272,1,192,4|0
189,270,44011,6,0,C|32:160,1,192,4|0
32,288,45569,5,4
144,352,45959,1,8
272,352,46349,1,0
384,288,46738,1,8
416,160,47128,6,0,C|480:160,6,64
320,72,48686,5,4
192,72,49076,1,8
256,184,49465,2,0,C|256:312,1,128,0|8
128,352,50245,6,0,B|51:367|32:288|32:288,3,128,0|8|0|8
32,160,51803,5,0
160,128,52193,1,8
48,64,52582,1,0
176,32,52972,1,8
304,64,53362,6,0,B|336:40|352:32|392:15|432:32|448:40|480:64|480:64,2,192,0|0|8
392,160,54920,6,0,C|392:288,1,128,4|8
280,352,55699,1,0
152,352,56089,1,8
40,288,56478,2,0,C|40:160,3,128,0|8|0|8
160,224,58037,5,0
288,224,58426,1,8
208,128,58816,1,0
336,128,59206,1,8
256,32,59595,6,0,C|448:32,2,192,0|0|8
128,96,61154,6,0,B|89:223|192:256|192:256,1,192,4|0
320,256,62712,6,0,B|320:257|423:224|384:97,1,192,4|0
256,96,64271,5,4
256,224,64660,1,8
256,352,65050,1,0
128,352,65439,1,8
32,272,65829,6,0,B|8:129|96:32|96:32,1,256
224,32,66998,1,0
352,32,67387,6,0,B|416:32|448:32|474:97|448:160|416:160|352:160|352:160,2,256,4|0|0
240,96,69336,1,2
288,216,69725,1,2
288,216,69920,1,2
160,352,70504,6,0,B|96:352|64:352|38:287|64:224|96:224|160:224|160:224,2,256
272,288,72453,1,2
224,168,72842,1,2
224,168,73037,1,2
400,256,73621,6,0,B|450:150|416:64|344:32|344:32,1,256
256,128,74790,1,0
167,32,75180,2,0,B|168:32|96:64|62:150|112:256,2,256,0|0|4
224,32,76933,6,0,C|288:32,1,64,2|2
288,352,77712,2,0,C|224:352,1,64,2|2
128,256,78297,5,0
128,256,78686,1,0
256,256,79076,2,0,C|384:256,1,128
480,160,79855,5,12
416,48,80245,1,8
352,160,80634,1,8
288,48,81024,1,8
224,160,81413,5,8
224,160,81608,1,8
160,48,81998,2,0,B|32:32|18:113|32:170|76:185|107:163|111:188|128:224|128:256|128:256,1,320,8|8
32,352,83362,5,8
160,352,83751,1,8
160,352,83946,1,8
288,352,84336,2,0,C|480:352,1,192,8|0
448,224,85310,2,0,C|320:224,1,128
208,160,86089,5,12
96,224,86478,1,8
144,104,86868,1,8
32,168,87258,1,8
80,48,87647,5,8
80,48,87842,1,8
208,32,88232,2,0,B|224:32|312:32|376:192|464:192|480:192|480:192,1,320,8|8
480,320,89595,5,8
352,320,89985,2,0,C|296:352,4,64,8|8|8|8|0
320,192,91154,5,0
192,192,91543,2,0,C|64:192,1,128
32,64,92323,5,12
32,64,92712,1,8
160,32,93102,1,8
160,32,93491,1,8
289,64,93881,6,0,B|352:42|415:64|415:64,3,128,8|8|8|8
480,176,95439,5,8
480,176,95829,1,8
480,304,96219,1,8
480,304,96608,1,8
384,224,96998,6,0,B|346:166|272:176|272:176,1,128,8|8
336,288,97777,2,0,B|260:297|224:240|224:240,1,128,8|8
96,224,98556,6,0,C|32:336,3,128,12|8|8|8
96,160,100115,2,0,C|32:48,3,128,8|8|8|8
160,32,101673,5,8
160,32,102063,1,8
288,32,102452,1,8
288,32,102842,1,8
400,96,103232,6,0,C|464:96,4,64
288,160,104400,1,0
160,160,104790,5,4
48,224,105180,1,8
160,288,105569,2,0,C|160:352,4,64,0|0|8|0|0
272,224,106738,1,8
272,352,107128,2,0,C|400:352,1,128,0|8
480,256,107907,6,0,C|352:256,1,128,0|8
352,128,108686,1,0
480,128,109076,1,8
400,32,109465,6,0,C|272:32,1,128,0|8
144,32,110245,2,0,C|80:32,2,64,0|0|8
224,128,111024,5,4
224,128,111413,1,8
224,256,111803,2,0,C|224:320,4,64,0|0|8|0|0
112,192,112972,2,0,C|48:192,1,64,8|0
176,192,113556,2,0,C|240:192,1,64,0|8
368,192,114141,5,0
464,272,114530,1,8
368,352,114920,1,0
240,352,115310,1,8
112,351,115699,6,0,B|97:288|113:224|113:224,1,128,0|8
113,96,116478,2,0,B|176:74|239:96|239:96,1,128,0|8
352,32,117258,6,0,C|352:224,1,192,4|0
352,224,118037,2,0,C|160:224,1,192
160,224,118816,2,0,C|160:32,1,192,4|0
160,32,119595,2,0,C|352:32,1,192
320,96,120375,6,0,B|187:96|176:192|256:224|256:224|336:256|323:352|192:352|192:352,1,448,4|0
256,192,121933,12,0,123491
