osu file format v7

[General]
AudioFilename: Our MAGIC.mp3
AudioLeadIn: 2500
PreviewTime: 79860
Countdown: 0
SampleSet: Normal
StackLeniency: 0.4
Mode: 0
LetterboxInBreaks: 0

[Editor]
Bookmarks: 1933,14400,23751,29985,42452,48686,61154,67387,79855,92323,104790,117258,123491
DistanceSpacing: 1
BeatDivisor: 4
GridSize: 32

[Metadata]
Title:Our MAGIC
Artist:HO-KAGO TEA TIME
Creator:DJPop
Version:Insane
Source:K-ON!!
Tags:toyosaki aki hikasa youko satou satomi kotobuki minako taketatsu ayana hirasawa yui akiyama mio tainaka ritsu kotobuki tsumugi nakano asuza k-on keion hisaka yoko [Shalon]

[Difficulty]
HPDrainRate:5
CircleSize:5
OverallDifficulty:8
SliderMultiplier:1.92
SliderTickRate:2

[Events]
//Background and Video events
0,0,"Our MAGIC.png"
//Break Periods
//Storyboard Layer 0 (Background)
//Storyboard Layer 1 (Fail)
//Storyboard Layer 2 (Pass)
//Storyboard Layer 3 (Foreground)
//Storyboard Sound Samples
//Background Colour Transformations
3,100,0,0,0

[TimingPoints]
375,389.61038961039,4,1,1,40,1,0
764,-150,4,1,1,40,0,0
862,-150,4,2,1,40,0,0
1056,-150,4,1,1,40,0,0
1251,-150,4,2,2,20,0,0
1446,-150,4,1,1,40,0,0
1641,-150,4,2,2,20,0,0
1836,-150,4,1,1,80,0,0
2128,-100,4,1,1,80,0,0
42258,-200,4,1,1,80,0,0
43329,-200,4,2,1,60,0,0
43524,-200,4,1,1,80,0,0
44887,-200,4,2,1,80,0,0
45082,-200,4,1,1,80,0,0
45375,-150,4,1,1,80,0,0
47030,-100,4,1,1,80,0,0
60959,-200,4,1,1,80,0,0
62030,-200,4,2,1,80,0,0
62225,-200,4,1,1,80,0,0
63589,-100,4,2,1,80,0,0
63784,-200,4,1,1,80,0,0
64173,-100,4,1,1,80,0,0
79855,-100,4,1,1,80,0,1
82485,-100,4,2,2,30,0,1
82680,-100,4,1,1,80,0,1
88524,-100,4,2,2,30,0,1
88719,-100,4,1,1,80,0,1
92322,-100,4,1,1,80,0,0
92323,-100,4,1,1,80,0,1
104790,-100,4,1,1,80,0,0
124660,-100,4,2,1,0,0,0

[Colours]
Combo1 : 140,199,143
Combo2 : 233,127,163
Combo3 : 203,183,234
Combo4 : 248,233,118

[HitObjects]
256,192,375,5,0
256,192,764,2,0,C|256:256,1,64
256,320,1154,1,0
256,328,1349,1,0
256,336,1543,1,0
256,344,1738,1,0
256,352,1933,1,4
32,352,2323,5,8
64,288,2517,1,0
32,224,2712,1,0
96,192,2907,1,0
32,160,3102,1,8
64,96,3297,2,0,B|88:32|147:16|152:16|192:32|224:32|224:32,1,192
288,31,3881,6,0,B|288:32|320:32|360:16|365:16|424:32|448:96,1,192,8|0
480,160,4465,1,0
416,192,4660,1,8
480,224,4855,1,0
448,288,5050,6,0,B|432:352|385:379|336:352|320:288|320:288,1,192,0|8
128,288,5829,1,0
192,320,6024,1,0
256,288,6219,1,8
192,256,6413,1,0
192,192,6608,6,0,B|192:128|224:128|240:128|216:112|168:112|144:96|160:96|192:96|192:32|192:32,1,192,2|10
191,32,7193,1,2
264,32,7387,1,0
272,32,7485,1,0
280,32,7582,1,0
288,32,7680,1,0
296,32,7777,1,8
304,32,7875,1,0
312,32,7972,1,0
384,32,8167,1,4
480,224,8556,5,8
416,192,8751,1,0
352,160,8946,1,0
352,224,9141,1,0
288,192,9336,1,8
223,160,9530,2,0,B|128:133|33:160|33:160,1,192
80,208,10115,5,8
35,256,10310,2,0,B|129:294|223:256|223:256,1,192
288,288,10894,1,8
224,320,11089,1,0
288,352,11284,5,0
480,352,11673,2,0,C|480:160,1,192,8|0
416,128,12258,1,0
480,96,12452,1,8
416,64,12647,1,0
352,32,12842,6,0,C|304:32,1,48
336,48,13037,2,0,C|288:48,1,48
320,64,13232,2,0,C|272:64,1,48
304,80,13426,2,0,C|256:80,1,48
240,96,13621,6,0,C|288:96,1,48
224,112,13816,2,0,C|272:112,1,48
208,128,14011,2,0,C|256:128,1,48
192,144,14206,2,0,C|240:144,1,48
224,160,14400,5,4
96,352,14790,1,8
320,288,15180,1,0
448,96,15569,1,8
224,32,15959,5,0
224,32,16154,2,0,C|128:32,1,96,0|8
80,96,16543,2,0,C|272:96,1,192
224,160,17128,2,0,C|128:160,1,96,8|0
64,192,17517,5,0
256,320,17907,1,8
448,192,18297,1,0
448,192,18491,2,0,C|448:96,1,96,0|8
448,32,18881,1,0
448,32,19076,5,2
224,32,19465,1,10
288,32,19660,1,2
64,32,20050,1,2
64,32,20245,1,10
256,160,20634,5,4
480,224,21024,1,8
288,352,21413,1,0
64,288,21803,1,8
64,64,22193,5,0
64,64,22387,2,0,C|64:160,1,96,0|8
128,208,22777,2,0,C|128:16,1,192
192,64,23362,2,0,C|192:160,1,96,8|0
224,224,23751,5,0
224,224,23946,1,0
224,224,24141,1,8
224,224,24336,1,0
288,288,24530,5,0
288,288,24725,1,0
288,288,24920,1,8
288,288,25115,1,0
352,224,25310,5,0
352,224,25504,1,0
352,224,25699,1,8
352,224,25894,1,0
288,160,26089,5,0
288,160,26284,1,0
288,160,26478,1,8
288,160,26673,1,0
352,96,26868,5,0
352,96,27063,1,0
400,48,27258,5,8
400,48,27452,1,0
448,96,27647,5,0
448,96,27842,1,0
400,144,28037,5,8
400,144,28232,1,0
448,192,28426,6,0,C|496:192,1,48
432,208,28621,2,0,C|480:208,1,48
416,224,28816,2,0,C|464:224,1,48
400,240,29010,2,0,C|448:240,1,48
432,256,29206,6,0,C|384:256,1,48
416,272,29400,2,0,C|368:272,1,48
400,288,29595,2,0,C|352:288,1,48
384,304,29790,2,0,C|336:304,1,48
352,320,29985,5,4
160,320,30375,1,8
160,128,30764,1,0
352,128,31154,1,8
160,224,31543,5,0
96,224,31738,2,0,C|96:320,1,96,0|8
32,320,32128,2,0,C|32:128,1,192
96,128,32712,1,8
96,64,32907,1,0
288,32,33297,5,0
352,64,33491,1,8
320,128,33686,1,0
384,160,33881,1,0
352,224,34076,1,0
416,256,34271,1,8
384,320,34465,1,0
448,352,34660,5,2
224,352,35050,1,10
288,352,35245,1,2
64,352,35634,1,2
64,352,35829,1,10
161,192,36219,6,0,B|256:165|351:192|351:192,1,192,4|8
320,64,36900,1,0
320,64,36998,1,0
256,32,37193,1,0
192,64,37387,1,8
32,160,37777,5,0
64,224,37972,1,0
96,288,38167,1,8
161,320,38362,2,0,B|256:347|351:320|351:320,1,192
416,288,38946,1,8
448,224,39141,1,0
480,32,39530,5,0
448,96,39725,1,8
384,64,39920,1,0
352,128,40115,1,0
288,96,40310,1,0
256,160,40504,1,8
192,128,40699,1,0
160,192,40894,5,2
32,64,41284,1,10
32,64,41478,1,2
32,144,41673,1,0
32,152,41771,1,0
32,160,41868,1,0
32,168,41965,1,0
32,176,42063,1,8
128,352,42452,6,0,C|224:352,1,96,4|0
288,352,43037,2,0,C|384:352,1,96
384,352,43621,1,0
384,192,44011,6,0,C|288:192,1,96,4|0
224,192,44595,2,0,C|128:192,1,96
128,192,45180,1,0
128,32,45569,5,4
192,32,45764,2,0,C|256:32,2,64,0|8|0
224,96,46349,1,0
288,96,46543,1,0
320,32,46738,1,8
384,32,46933,1,0
416,96,47128,6,0,C|416:144,1,48
400,112,47323,2,0,C|400:160,1,48
384,128,47518,2,0,C|384:176,1,48
368,144,47712,2,0,C|368:192,1,48
352,208,47907,6,0,C|352:160,1,48
336,224,48102,2,0,C|336:176,1,48
320,240,48297,2,0,C|320:192,1,48
304,256,48492,2,0,C|304:208,1,48
288,240,48686,5,4
64,240,49076,1,8
272,352,49465,2,0,B|224:368|152:354|160:288|176:240|176:240,1,192,0|8
32,64,50245,5,0
96,32,50439,2,0,C|192:32,1,96,0|8
256,64,50829,1,0
96,160,51219,2,0,C|192:160,1,96,0|8
144,96,51608,1,0
320,64,51998,5,0
384,32,52193,1,8
448,64,52387,1,0
480,128,52582,1,0
448,192,52777,1,0
384,224,52972,1,8
320,192,53166,1,0
288,128,53362,6,0,C|192:128,1,96,2|0
128,160,53751,1,10
128,224,53946,1,2
192,256,54141,1,0
208,256,54238,1,0
224,256,54336,1,0
240,256,54433,1,0
256,256,54530,1,8
272,256,54628,1,0
288,256,54725,1,0
320,192,54920,6,0,C|448:320|448:320,1,192,4|8
256,352,55699,1,0
56,327,56089,1,8
192,128,56478,5,0
221,64,56673,1,0
291,64,56868,1,8
320,128,57063,1,0
256,352,57452,2,0,C|256:256,1,96,0|8
256,192,57842,1,0
480,192,58232,5,0
432,144,58426,1,8
432,144,58621,1,0
480,96,58816,1,0
480,96,59011,1,0
432,48,59206,1,8
432,48,59400,1,0
367,48,59595,6,0,B|320:29|273:48|273:48,2,96,2|2|10
320,112,60180,1,0
320,128,60277,1,0
320,144,60375,1,0
320,160,60472,1,0
320,176,60569,1,0
320,192,60667,1,0
320,208,60764,1,8
192,352,61154,6,0,B|150:352|112:304|112:304,1,96,4|0
112,304,61739,2,0,B|75:352|32:352|32:352,1,96
32,352,62323,1,0
32,32,62712,6,0,B|74:32|112:80|112:80,1,96,4|0
112,80,63297,2,0,B|149:32|192:32|192:32,1,96
192,32,63881,1,0
256,32,64076,1,0
320,32,64271,5,4
384,32,64465,2,0,C|480:32,1,96,0|8
480,208,64952,1,0
480,208,65050,1,0
432,256,65245,1,0
384,304,65439,1,8
336,352,65634,1,0
288,304,65829,6,0,C|288:352,1,48
272,288,66023,2,0,C|272:336,1,48
256,272,66219,2,0,C|256:320,1,48
240,256,66413,2,0,C|240:304,1,48
224,288,66608,6,0,C|224:240,1,48
208,272,66803,2,0,C|208:224,1,48
192,256,66998,2,0,C|192:208,1,48
176,240,67193,2,0,C|176:192,1,48
160,224,67387,5,4
256,32,67777,1,0
352,224,68167,2,0,B|384:256|459:274|480:224|480:160|480:160,1,192
480,96,68751,1,0
480,32,68946,5,0
416,32,69141,2,0,C|416:128,1,96,0|2
352,128,69530,2,0,C|352:32,1,96,0|2
288,32,69920,2,0,C|288:128,2,96,2|0|0
224,32,70504,5,0
34,192,70894,2,0,B|128:230|222:192|222:192,1,192
32,32,71673,1,0
64,96,71868,1,0
96,32,72063,5,0
128,96,72258,2,0,C|224:96,1,96,0|2
256,160,72647,2,0,C|352:160,1,96,0|2
384,224,73037,2,0,C|480:224,2,96,2|0|0
352,288,73621,5,0
128,288,74011,1,0
352,352,74400,1,0
128,352,74790,1,0
64,320,74985,1,0
32,256,75180,5,0
32,192,75375,2,0,B|32:160|32:112|85:113|96:80|80:32|32:32|32:32,2,192
32,256,76349,1,0
96,224,76543,1,0
96,224,76738,5,4
145,160,76933,2,0,B|189:179|239:160|239:160,1,96,2|2
272,224,77323,1,0
272,224,77517,1,0
321,288,77712,2,0,B|369:269|415:288|415:288,1,96,2|2
448,224,78102,1,0
480,160,78297,5,0
416,128,78491,1,0
480,96,78686,1,0
416,64,78881,1,0
352,32,79076,2,0,C|320:72,1,48
288,32,79271,2,0,C|256:72,1,48
224,32,79466,2,0,C|192:72,1,48
160,32,79660,2,0,C|128:72,1,48
96,32,79855,5,12
32,256,80245,1,8
224,128,80634,1,8
160,352,81024,1,8
352,224,81413,5,8
352,224,81608,1,8
448,32,81998,2,0,B|488:88|509:168|488:248|448:304|448:304,1,288,8|0
392,344,82777,2,0,B|368:360|348:372|328:360|304:344|304:344,1,96,0|8
256,288,83167,5,0
192,256,83362,1,8
160,320,83556,1,0
96,288,83751,1,8
64,352,83946,1,8
64,352,84336,1,8
32,128,84725,5,0
64,64,84920,1,0
128,32,85115,1,0
192,64,85310,1,0
197,74,85407,1,0
203,85,85504,1,0
208,96,85602,1,0
213,107,85699,1,0
219,118,85797,1,0
224,128,85894,1,0
256,192,86089,5,12
416,352,86478,1,8
192,288,86868,1,8
352,128,87258,1,8
304,352,87647,5,8
304,352,87842,1,8
80,352,88232,2,0,B|48:344|20:320|56:272|93:224|64:200|32:192|32:192,2,192,8|0|0
128,288,89206,5,8
160,224,89400,1,0
128,160,89595,1,8
160,96,89790,1,0
128,32,89985,1,8
192,32,90180,1,8
256,32,90375,1,8
320,32,90569,1,8
480,192,90959,5,0
480,116,91154,1,0
416,76,91349,1,0
352,116,91543,1,0
352,119,91641,1,0
352,122,91738,1,0
352,186,91933,1,0
352,189,92030,1,0
352,192,92128,1,0
416,256,92323,6,0,C|416:352,1,96,12|0
352,256,92712,2,0,C|352:352,1,96,8|0
288,256,93102,2,0,C|288:352,1,96,8|0
224,256,93491,2,0,C|224:352,1,96,8|0
160,256,93881,5,8
160,256,94076,2,0,C|64:256,1,96,0|8
160,192,94465,2,0,C|64:192,2,96,0|8|0
160,128,95050,1,8
160,128,95245,2,0,C|64:128,1,96,0|8
160,64,95634,5,0
224,32,95829,1,8
256,96,96024,1,0
320,64,96219,1,8
352,128,96413,1,0
416,96,96608,1,8
448,160,96803,1,0
480,224,96998,6,0,B|469:280|416:288|416:288,1,96,8|0
384,352,97387,1,8
352,288,97582,1,0
320,224,97777,2,0,B|268:232|256:288|256:288,1,96,8|0
224,352,98167,1,8
192,288,98362,1,0
160,224,98556,5,12
384,128,98946,2,0,B|480:141|480:48|480:48,1,144,8|0
448,32,99336,2,0,B|352:19|352:112|352:112,1,144,8|0
352,160,99725,1,8
288,192,99920,1,0
256,128,100115,5,8
224,64,100310,1,0
160,32,100504,1,8
160,96,100699,2,0,C|64:96,2,96,0|8|0
192,160,101284,2,0,B|183:216|128:224|128:224,1,96,8|0
64,192,101673,5,8
448,192,102063,1,8
256,352,102452,1,8
256,344,102550,1,0
256,336,102647,1,0
256,328,102745,1,0
256,320,102842,1,8
256,240,103037,1,0
256,160,103232,6,0,C|216:128,1,48
256,144,103427,2,0,C|296:112,1,48
256,128,103622,2,0,C|216:96,1,48
256,112,103816,2,0,C|296:80,1,48
256,96,104011,6,0,C|216:64,1,48
256,80,104206,2,0,C|296:48,1,48
256,64,104401,2,0,C|216:32,1,48
256,48,104595,2,0,C|296:16,1,48
256,32,104790,5,4
192,32,104985,1,0
128,32,105180,1,8
64,32,105375,1,0
32,96,105569,1,0
64,160,105764,1,0
128,160,105959,1,8
192,160,106154,6,0,C|384:160,1,192
448,160,106738,2,0,B|480:160|487:192|480:224|448:224|448:224,1,96,8|0
384,224,107128,1,0
416,288,107323,1,0
352,288,107517,1,8
384,352,107712,1,0
320,352,107907,6,0,B|288:352|288:304|256:288|241:315|224:288|192:304|192:352|160:352|160:352,1,192,0|8
32,160,108686,1,0
32,224,108881,1,0
96,256,109076,1,8
160,224,109271,1,0
160,160,109465,6,0,B|152:108|96:96|96:96,1,96,2|0
32,64,109855,1,10
96,32,110050,1,2
168,32,110245,1,0
176,32,110342,1,0
184,32,110439,1,0
192,32,110537,1,0
200,32,110634,1,8
208,32,110732,1,0
216,32,110829,1,0
288,32,111024,1,4
448,192,111413,5,8
448,256,111608,1,0
384,224,111803,1,0
384,288,111998,1,0
320,256,112193,1,8
319,320,112387,6,0,B|223:347|129:320|129:320,1,192
128,256,112972,1,8
64,288,113167,2,0,B|32:288|25:256|32:224|64:224|64:224,1,96
128,192,113556,1,0
160,128,113751,1,8
224,128,113946,1,0
192,192,114141,6,0,B|192:224|224:232|256:224|256:192|256:192,1,96
288,128,114530,1,8
464,272,114920,1,0
416,224,115115,1,0
464,176,115310,1,8
416,128,115504,1,0
448,64,115699,5,2
384,32,115894,1,2
312,32,116089,1,10
248,64,116284,1,0
232,56,116381,1,0
216,48,116478,2,2,B|176:24|149:21|120:24|80:48|80:48,1,144,2|0
56,64,116868,1,10
32,288,117258,5,4
32,304,117452,1,0
32,320,117647,1,8
32,336,117842,1,0
112,342,118037,5,0
112,322,118232,1,0
112,302,118426,1,8
112,282,118621,1,0
192,276,118816,5,4
192,300,119011,1,0
192,324,119206,1,8
192,348,119400,1,0
272,354,119595,5,0
272,326,119790,1,0
272,298,119985,1,8
272,270,120180,1,0
336,224,120375,5,4
336,224,120569,1,0
416,208,120764,5,8
416,208,120959,1,0
464,144,121154,5,0
464,144,121349,1,0
416,80,121543,5,8
416,80,121738,1,0
336,64,121933,6,0,C|296:32,1,48
304,72,122128,2,0,C|264:40,1,48
272,80,122323,2,0,C|232:48,1,48
240,88,122517,2,0,C|200:56,1,48
192,96,122712,6,0,C|152:128,1,48
208,120,122907,2,0,C|168:152,1,48
224,144,123102,2,0,C|184:176,1,48
240,168,123297,2,0,C|200:200,1,48
256,192,123491,5,0
256,192,123540,12,0,124660
