osu file format v7

[General]
AudioFilename: Our MAGIC.mp3
AudioLeadIn: 2500
PreviewTime: 79860
Countdown: 0
SampleSet: Normal
StackLeniency: 0.4
Mode: 0
LetterboxInBreaks: 0

[Editor]
Bookmarks: 1933,14400,23751,29985,42452,48686,61154,67387,79855,92323,104790,117258,123491
DistanceSpacing: 1.20000004768372
BeatDivisor: 4
GridSize: 32

[Metadata]
Title:Our MAGIC
Artist:HO-KAGO TEA TIME
Creator:DJPop
Version:Hard
Source:K-ON!!
Tags:toyosaki aki hikasa youko satou satomi kotobuki minako taketatsu ayana hirasawa yui akiyama mio tainaka ritsu kotobuki tsumugi nakano asuza k-on keion hisaka yoko [Shalon]

[Difficulty]
HPDrainRate:4
CircleSize:4
OverallDifficulty:6
SliderMultiplier:1.6
SliderTickRate:2

[Events]
//Background and Video events
0,0,"Our MAGIC.png"
//Break Periods
//Storyboard Layer 0 (Background)
//Storyboard Layer 1 (Fail)
//Storyboard Layer 2 (Pass)
//Storyboard Layer 3 (Foreground)
//Storyboard Sound Samples
//Background Colour Transformations
3,100,0,0,0

[TimingPoints]
375,389.61038961039,4,1,1,40,1,0
1251,-100,4,2,0,20,0,0
1446,-100,4,1,1,40,0,0
1641,-100,4,2,0,20,0,0
1836,-100,4,1,1,80,0,0
3102,-100,4,1,2,80,0,0
3199,-100,4,1,1,80,0,0
9336,-100,4,1,2,80,0,0
9433,-100,4,1,1,80,0,0
10115,-100,4,1,2,80,0,0
10212,-100,4,1,1,80,0,0
31933,-100,4,1,2,80,0,0
32030,-100,4,1,1,80,0,0
32712,-100,4,1,2,80,0,0
32810,-100,4,1,1,80,0,0
42258,-200,4,1,1,80,0,0
43426,-200,4,1,1,0,0,0
43524,-200,4,1,1,80,0,0
44985,-200,4,1,1,0,0,0
45082,-200,4,1,1,80,0,0
45375,-100,4,1,1,80,0,0
50634,-100,4,1,2,80,0,0
50732,-100,4,1,1,80,0,0
51413,-100,4,1,2,80,0,0
51511,-100,4,1,1,80,0,0
57647,-100,4,1,2,80,0,0
57745,-100,4,1,1,80,0,0
60959,-200,4,1,1,80,0,0
62128,-200,4,1,1,0,0,0
62225,-200,4,1,1,80,0,0
63686,-200,4,1,1,0,0,0
63784,-200,4,1,1,80,0,0
64076,-100,4,1,1,80,0,0
79855,-100,4,1,1,80,0,1
92322,-100,4,1,1,80,0,0
92323,-100,4,1,1,80,0,1
104790,-100,4,1,1,80,0,0
105959,-100,4,1,2,80,0,0
106056,-100,4,1,1,80,0,0
112193,-100,4,1,2,80,0,0
112290,-100,4,1,1,80,0,0
112972,-100,4,1,2,80,0,0
113069,-100,4,1,1,80,0,0
124660,-100,4,2,1,0,0,0

[Colours]
Combo1 : 140,199,143
Combo2 : 233,127,163
Combo3 : 203,183,234
Combo4 : 248,233,118

[HitObjects]
256,192,375,5,0
256,192,764,1,0
256,192,1154,2,0,C|304:256,1,80
256,272,1543,2,0,C|208:336,1,80
256,352,1933,1,4
416,352,2323,5,8
480,320,2517,1,0
416,288,2712,1,0
416,224,2907,2,0,B|402:161|416:112|480:96|480:96,2,160
480,256,3881,1,8
480,96,4271,5,0
448,32,4465,1,0
384,32,4660,1,8
352,96,4855,1,0
288,96,5050,2,0,B|256:96|211:112|224:64|239:16|192:32|160:32|160:32,1,160,0|8
32,128,5829,5,0
64,64,6024,1,0
96,128,6219,1,8
64,192,6413,1,0
64,256,6608,6,0,C|192:352|192:352,1,160,2|10
256,320,7193,1,2
320,352,7387,2,0,C|448:256|448:256,1,160,0|8
448,64,8167,1,4
288,96,8556,5,8
256,32,8751,1,0
224,96,8946,1,0
256,160,9141,2,0,C|256:320,3,160
96,352,10699,5,0
32,320,10894,1,8
96,288,11089,1,0
32,256,11284,1,0
32,80,11673,6,0,B|56:32|96:29|136:32|160:80|160:80,1,160,8|0
96,112,12258,1,0
48,160,12452,1,8
96,208,12647,1,0
144,160,12842,6,0,C|192:192,15,40
192,192,14400,5,4
352,96,14790,1,0
320,288,15180,1,0
480,192,15569,1,0
288,192,15959,5,0
288,192,16154,1,0
192,352,16543,2,0,B|86:367|24:320|32:224|32:224,1,240
32,32,17517,5,0
224,64,17907,1,0
192,256,18297,1,0
192,256,18491,1,0
368,336,18881,6,0,C|448:336,1,80,0|2
320,192,19465,2,0,C|240:192,1,80,2|2
368,48,20050,2,0,C|448:48,1,80,2|2
464,256,20634,5,4
304,352,21024,1,0
208,192,21413,1,0
48,288,21803,1,0
32,96,22193,5,0
32,96,22387,1,0
209,32,22777,2,0,B|288:16|329:14|368:16|447:32|447:32,1,240
480,224,23751,6,0,C|480:304,3,80
416,240,24530,2,0,C|416:320,3,80
352,256,25310,6,0,C|352:336,3,80
288,272,26089,2,0,C|288:352,3,80
216,352,26868,6,0,C|136:352,7,80
64,352,28426,6,0,C|32:304,15,40
32,304,29985,5,4
168,168,30375,1,8
32,32,30764,1,0
224,32,31154,1,8
88,168,31543,5,0
128,224,31738,2,0,B|128:240|96:256|96:288|96:296|128:288|160:280|160:288|160:320|128:336|128:352|128:352,3,160
288,360,33297,5,0
288,360,33491,2,0,C|352:312,1,80,8|0
352,248,33881,2,0,C|416:200,1,80
416,136,34271,2,0,C|480:88,1,80,8|0
480,24,34660,5,2
320,24,35050,1,10
256,24,35245,1,2
96,24,35634,1,2
32,24,35829,1,10
32,224,36219,6,0,C|160:128|160:128,1,160,4|8
256,288,36998,1,0
192,320,37193,1,0
128,352,37387,1,8
224,192,37777,5,0
256,128,37972,1,0
288,64,38167,1,8
352,32,38362,2,0,B|456:32|512:128|416:192|416:192,1,240,0|8
368,240,39141,1,0
480,352,39530,5,0
416,352,39725,2,0,B|400:368|380:373|360:368|344:352|344:352,1,80,8|0
280,352,40115,2,0,B|264:336|243:331|224:336|208:352|208:352,1,80
144,352,40504,2,0,B|128:368|108:373|88:368|72:352|72:352,1,80,8|0
32,304,40894,5,2
32,128,41284,1,10
64,64,41478,1,2
128,32,41673,2,0,C|288:32,1,160,0|8
480,136,42452,6,0,C|424:200,1,80,4|0
376,248,43037,2,0,C|296:336|296:336,1,120
32,136,44011,6,0,C|88:200,1,80,4|0
136,248,44596,2,0,C|216:336|216:336,1,120
256,72,45569,5,4
256,72,45764,1,0
256,72,45959,1,8
256,264,46349,1,0
288,200,46543,1,0
224,200,46738,1,8
256,136,46933,1,0
256,72,47128,6,0,C|256:32,15,40
256,32,48686,5,4
64,32,49076,1,8
256,32,49465,2,0,C|416:32,1,160,0|8
480,224,50245,5,0
480,224,50439,2,0,B|480:256|486:328|416:320|384:320|384:320,3,160
192,320,51998,5,0
128,352,52193,1,8
64,320,52387,1,0
32,256,52582,1,0
64,192,52777,1,0
128,160,52972,1,8
192,192,53166,1,0
224,256,53362,6,0,C|384:256,1,160,2|10
416,192,53946,1,2
384,128,54141,2,0,C|224:128,1,160,0|8
32,32,54920,6,0,C|192:32,1,160,4|8
384,32,55699,1,0
192,32,56089,1,8
96,192,56478,5,0
32,224,56673,1,0
96,256,56868,1,8
32,288,57063,2,0,B|56:336|103:339|136:336|160:288|160:288,2,160
160,160,58232,5,0
160,224,58426,1,8
224,192,58621,1,0
224,256,58816,1,0
288,224,59011,1,0
288,288,59206,1,8
352,256,59400,1,0
352,320,59595,6,0,C|432:320,3,80,2|2|10|0
480,271,60375,2,2,B|505:192|480:113|480:113,1,160,2|10
304,40,61154,6,0,C|224:32,1,80,4|0
151,32,61739,2,0,C|32:40,1,120
32,344,62712,6,0,C|112:352,1,80,4|0
184,351,63297,2,0,C|303:343,1,120
448,192,64271,5,4
384,192,64465,1,0
320,192,64660,1,8
64,192,65050,1,0
128,192,65245,1,0
192,192,65439,1,8
256,192,65634,1,0
256,256,65829,6,0,C|256:296,15,40
256,320,67387,5,4
416,192,67777,1,0
256,64,68167,2,0,C|96:64,1,160
32,96,68751,1,0
32,160,68946,5,0
96,192,69141,2,2,C|256:192,1,160,2|0
320,160,69725,1,2
320,96,69920,1,2
448,352,70504,5,0
256,352,70894,2,0,C|96:352,1,160
32,160,71673,1,0
64,96,71868,1,0
96,32,72063,5,0
160,32,72258,2,2,C|256:160|256:160|256:160,1,160,2|0
288,96,72842,1,2
320,32,73037,1,2
256,352,73621,5,0
64,288,74011,1,0
256,224,74400,1,0
448,288,74790,1,0
480,224,74985,1,0
448,160,75180,5,0
384,128,75375,2,0,B|291:128|272:32|272:32,2,160
384,320,76543,5,2
384,320,76738,1,6
128,320,77323,5,2
128,320,77517,1,2
256,32,78102,5,0
256,64,78297,1,0
256,96,78491,1,0
256,128,78686,1,0
256,160,78881,1,0
256,192,79076,2,0,C|256:352,1,160
160,192,79855,5,12
256,32,80245,1,8
352,192,80634,1,8
256,352,81024,1,8
64,352,81413,5,8
64,352,81608,1,8
64,160,81998,2,0,B|64:96|96:40|160:23|224:40|256:96|256:160|256:160,1,320,8|0
256,352,83167,5,0
320,320,83362,1,8
384,288,83556,1,0
416,352,83751,1,8
480,320,83946,1,8
480,128,84336,1,8
336,32,84725,6,0,C|416:32,2,80
256,32,85310,2,0,C|96:32,1,160
32,224,86089,5,12
192,128,86478,1,8
96,288,86868,1,8
256,192,87258,1,8
160,352,87647,5,8
160,352,87842,1,8
320,256,88232,2,0,B|320:320|320:336|328:352|352:368|368:368|400:372|432:368|448:368|472:352|480:336|480:320|480:256|480:256,1,320,8|0
480,64,89400,5,0
416,32,89595,1,8
416,96,89790,1,0
352,64,89985,1,8
352,128,90180,1,8
288,96,90375,1,8
288,160,90569,1,8
112,240,90959,6,0,C|40:200,2,80
160,192,91543,2,0,C|160:112,1,80
112,64,91933,2,0,C|40:104,1,80
96,152,92323,5,12
96,344,92712,1,8
288,344,93102,1,8
288,152,93491,1,8
480,112,93881,6,0,C|480:32,2,80,8|0|8
424,152,94465,2,0,C|424:232,3,80,0|8|0|8
480,272,95245,2,0,C|480:352,1,80,0|8
416,352,95634,5,0
352,320,95829,1,8
320,256,96024,1,0
256,224,96219,1,8
192,256,96413,1,0
160,320,96608,1,8
96,352,96803,1,0
32,352,96998,6,0,B|32:254|112:224|112:224,1,160,8|8
176,192,97582,1,0
112,160,97777,2,0,B|32:130|32:32|32:32,1,160,8|8
96,32,98362,1,0
160,32,98556,6,0,B|268:21|256:128|256:128,3,160,12|8|8|8
256,192,99920,1,0
320,224,100115,5,8
352,288,100310,1,0
384,352,100504,1,8
432,304,100699,2,0,C|496:352,4,80,0|8|0|8|0
480,256,101673,5,8
480,64,102063,1,8
295,128,102452,2,0,B|256:110|217:128|217:128,1,80,8|0
217,200,102842,2,0,B|256:218|295:200|295:200,1,80,8|0
256,280,103232,6,0,C|256:320,15,40
256,352,104790,5,4
64,352,105180,1,8
32,288,105375,1,0
64,224,105569,1,0
128,192,105764,2,0,C|288:192,2,160
64,160,106738,1,8
224,32,107128,5,0
160,32,107323,1,0
160,96,107517,1,8
224,96,107712,1,0
288,64,107907,2,0,B|336:48|367:64|401:82|446:64|446:64,1,160,0|8
480,256,108686,5,0
416,224,108881,1,0
384,288,109076,1,8
320,256,109271,1,0
288,320,109465,6,0,B|272:352|248:368|223:363|200:368|176:352|160:320|160:320,1,160,2|10
128,256,110050,1,2
80,304,110245,2,0,C|80:344,6,40,0|0|0|0|8|0|0
32,256,111024,1,4
176,128,111413,5,8
224,80,111608,1,0
176,32,111803,1,0
128,80,111998,2,0,B|32:76|32:184|32:184,3,160
224,192,113556,5,0
288,192,113751,1,8
256,248,113946,1,0
320,264,114141,2,0,B|296:312|256:310|216:312|192:264,1,160,0|8
384,352,114920,5,0
448,320,115115,1,0
416,256,115310,1,8
480,224,115504,1,0
448,160,115699,2,0,C|368:160,3,80,2|2|10|0
336,96,116478,2,2,B|368:64|408:54|448:64|480:96|480:96,1,160,2|10
280,32,117258,6,0,C|200:32,1,80,4|0
224,96,117647,2,0,C|144:96,1,80,8|0
168,160,118037,2,0,C|88:160,1,80
112,224,118426,2,0,C|32:224,1,80,8|0
48,288,118816,6,0,C|104:352,1,80,4|0
160,288,119205,2,0,C|216:224,1,80,8|0
272,288,119595,2,0,C|328:352,1,80
384,288,119984,2,0,C|440:224,1,80,8|0
480,160,120375,6,0,C|480:80,1,80,4|0
416,144,120764,2,0,C|416:64,1,80,8|0
352,128,121154,2,0,C|352:48,1,80
288,112,121543,2,0,C|288:32,1,80,8|0
224,128,121933,6,0,C|256:192,15,40
256,192,123491,5,0
256,192,123540,12,0,124660
