osu file format v7

[General]
AudioFilename: Our MAGIC.mp3
AudioLeadIn: 2500
PreviewTime: 79860
Countdown: 0
SampleSet: Normal
StackLeniency: 0.4
Mode: 0
LetterboxInBreaks: 0

[Editor]
Bookmarks: 1933,14400,23751,29985,42452,48686,61154,67387,79855,92323,104790,117258,123491
DistanceSpacing: 1.12000000476837
BeatDivisor: 4
GridSize: 32

[Metadata]
Title:Our MAGIC
Artist:HO-KAGO TEA TIME
Creator:DJPop
Version:Easy
Source:K-ON!!
Tags:toyosaki aki hikasa youko satou satomi kotobuki minako taketatsu ayana hirasawa yui akiyama mio tainaka ritsu kotobuki tsumugi nakano asuza k-on keion hisaka yoko [Shalon]

[Difficulty]
HPDrainRate:1
CircleSize:3
OverallDifficulty:2
SliderMultiplier:0.64
SliderTickRate:1

[Events]
//Background and Video events
0,0,"Our MAGIC.png"
//Break Periods
//Storyboard Layer 0 (Background)
//Storyboard Layer 1 (Fail)
//Storyboard Layer 2 (Pass)
//Storyboard Layer 3 (Foreground)
//Storyboard Sound Samples
//Background Colour Transformations
3,100,0,0,0

[TimingPoints]
375,389.61038961039,4,1,1,80,1,0
23751,-100,4,2,1,80,0,0
29985,-100,4,1,1,80,0,0
79855,-100,4,1,1,80,0,1
80147,-100,4,1,2,80,0,1
81706,-100,4,2,1,80,0,1
81900,-100,4,1,1,80,0,1
83459,-100,4,2,2,30,0,1
83654,-100,4,1,1,80,0,1
86381,-100,4,1,2,80,0,1
87939,-100,4,2,1,80,0,1
88134,-100,4,1,1,80,0,1
89693,-100,4,2,2,30,0,1
89887,-100,4,1,1,80,0,1
92322,-100,4,1,2,80,0,0
92323,-100,4,1,2,80,0,1
104790,-100,4,1,1,80,0,0
123491,-100,4,2,1,80,0,0

[Colours]
Combo1 : 140,199,143
Combo2 : 233,127,163
Combo3 : 203,183,234
Combo4 : 248,233,118

[HitObjects]
256,192,1933,5,4
112,192,2712,1,0
176,64,3491,2,0,B|192:40|232:22|272:40|288:64|288:64,1,128
416,128,5050,5,0
416,272,5829,2,0,B|416:356|336:352|336:352,1,128
192,352,7387,1,0
64,287,8167,6,0,B|42:225|64:161|64:161,1,128,4|0
128,32,9725,1,0
272,32,10504,1,0
160,128,11284,6,0,B|176:152|216:170|256:152|272:128|272:128,1,128
400,65,12842,2,0,B|415:128|399:192|399:192,1,128
480,320,14400,5,4
344,264,15180,1,0
232,352,15959,2,0,C|136:352,2,96
304,352,17517,5,0
240,224,18297,2,0,C|240:128,2,96
112,288,20245,1,0
40,288,20634,5,4
80,152,21413,1,0
208,80,22193,2,0,C|304:80,2,96
256,192,23751,12,0,26819
256,192,26868,12,4,29985
256,192,30764,5,0
353,304,31543,2,0,B|416:326|479:304|479:304,2,128
208,304,33881,1,0
72,257,34660,2,0,B|58:304|71:352|71:352,2,96,2|2|2
96,192,36219,5,4
48,56,36998,1,0
192,48,37777,2,0,B|255:26|318:48|318:48,1,128
464,56,39336,1,0
416,192,40115,1,0
328,304,40894,2,0,C|416:344,2,96,2|2|2
256,320,42452,5,4
256,64,44011,1,4
464,192,45569,6,0,C|336:192,1,128,4|0
192,192,47128,2,0,C|128:192,3,64
48,192,48686,5,4
144,304,49465,2,0,B|110:360|32:352|32:352,2,128
280,352,51803,1,0
256,208,52582,1,0
231,64,53362,2,0,B|184:45|137:64|137:64,2,96
304,80,54920,5,4
440,32,55699,1,0
480,169,56478,2,0,B|502:231|480:295|480:295,1,128
352,352,58037,1,0
208,352,58816,1,0
96,256,59595,2,0,C|56:344,2,96
64,192,61154,5,4
448,192,62712,1,4
256,32,64271,6,0,C|256:160,1,128,4|0
256,288,65829,2,0,C|256:352,3,64
328,352,67387,6,0,B|460:362|472:256|472:256,1,192,4|0
480,184,68946,2,2,B|484:137|472:88,1,96,2|2
184,32,70504,6,0,B|52:22|40:128|40:128,1,192
32,200,72063,2,2,B|28:247|40:296,1,96,2|2
256,352,73621,6,0,B|256:320|288:320|304:272|280:272|264:272|248:280|232:280|209:280|224:232|256:232|256:200|256:200,1,192
256,128,75180,2,0,C|256:32,1,96
320,192,76543,6,0,C|352:192,1,32,2|6
192,192,77323,2,0,C|160:192,1,32,2|2
256,288,78102,2,0,C|256:320,7,32
192,352,79855,6,0,C|32:240,1,192,12|8
32,168,81413,2,0,C|72:80,1,96,8|8
208,32,82777,6,0,B|186:95|208:158|208:158,2,128,0|0|8
320,352,86089,6,0,C|480:240,1,192,12|8
480,168,87647,2,0,C|440:80,1,96,8|8
304,32,89011,6,0,B|326:95|304:158|304:158,2,128,0|0|8
32,352,92323,6,0,C|32:224,1,128,12|8
104,208,93491,1,8
176,192,93881,2,0,C|176:64,1,128,8|8
248,48,95050,1,8
320,32,95439,6,0,C|384:32,3,64,8|8|8|8
440,80,96998,2,0,C|440:144,3,64,8|8|8|8
384,192,98556,6,0,B|352:240|304:258|256:240|224:192|224:192,1,192,12|8
168,144,100115,2,0,B|122:125|74:144|74:144,2,96,8|0|8
160,216,101673,5,8
96,256,102063,1,8
144,312,102452,1,8
208,272,102842,1,8
256,328,103232,6,0,C|320:328,3,64
392,328,104790,5,4
480,216,105569,1,0
480,72,106349,2,0,B|464:56|440:40|425:37|408:40|384:56|368:72|368:72,1,128
224,72,107907,2,0,B|208:88|184:104|169:107|152:104|128:88|112:72|112:72,1,128
32,192,109465,1,0
32,336,110245,2,0,B|111:349|128:272|128:272,1,128,0|4
224,160,111803,5,0
288,288,112582,2,0,B|297:342|352:352|352:352,2,96
256,224,114141,1,0
384,160,114920,1,0
256,96,115699,2,0,C|256:32,4,64,0|0|0|0|4
256,192,117306,12,4,118816
256,192,118865,12,4,120375
256,192,120423,12,0,123491
