osu file format v9

[General]
AudioFilename: Fuwa Fuwa Time.mp3
AudioLeadIn: 0
PreviewTime: 44000
Countdown: 0
SampleSet: Soft
StackLeniency: 0.7
Mode: 0
LetterboxInBreaks: 0

[Editor]
DistanceSpacing: 1
BeatDivisor: 2
GridSize: 8

[Metadata]
Title:Fuwa Fuwa Time (TV Size)
Artist:HO-KAGO TEA TIME
Creator:Index-San
Version:Normal
Source:K-ON!
Tags:Afterschool Light Fluffy HTT Aki Toyosaki Yui Hirasawa Yoko Hikasa Mio Akiyama

[Difficulty]
HPDrainRate:2
CircleSize:3
OverallDifficulty:2
ApproachRate:3
SliderMultiplier:1.05
SliderTickRate:2

[Events]
//Background and Video events
0,0,"wall.jpg"
//Break Periods
2,63009,74703
//Storyboard Layer 0 (Background)
//Storyboard Layer 1 (Fail)
//Storyboard Layer 2 (Pass)
//Storyboard Layer 3 (Foreground)
//Storyboard Sound Samples
//Background Colour Transformations
3,100,163,162,255

[TimingPoints]
1476,333.333333333333,4,2,1,55,1,0
11976,-100,4,2,1,55,0,0
23725,-100,4,2,2,55,0,0
23892,-100,4,2,1,55,0,0
27059,-100,4,2,2,55,0,0
27225,-100,4,2,1,55,0,0
34059,-100,4,2,2,55,0,0
34225,-100,4,2,1,55,0,0
37643,-100,4,2,1,55,0,0
44143,-100,4,2,1,65,0,1
45725,-100,4,2,2,65,0,1
45892,-100,4,2,1,65,0,1
55059,-100,4,2,2,65,0,1
55225,-100,4,2,1,65,0,1
62809,-100,4,2,1,65,0,0
76143,-100,4,2,1,65,0,1
79725,-100,4,2,2,65,0,1
79892,-100,4,2,1,65,0,1
84392,-100,4,2,2,65,0,1
84559,-100,4,2,1,65,0,1
94809,-100,4,2,0,65,0,0
105643,-100,4,2,1,15,0,0

[Colours]
Combo1 : 255,255,255
Combo2 : 0,128,255
Combo3 : 4,87,179
Combo4 : 243,232,1
Combo5 : 12,0,240
Combo6 : 255,150,0
Combo7 : 1,182,197
SliderBorder : 255,255,255

[HitObjects]
64,112,6810,1,4
64,112,7142,2,0,B|72:184|112:232|160:272|224:272,1,210,8|8
184,160,8143,1,0
272,104,8476,2,0,B|384:104,1,105,8|0
432,192,9142,70,8,B|469:176|477:120|477:48|421:8,2,210
352,248,10809,2,0,B|336:216|344:168|368:144,1,105,0|8
296,72,11475,2,0,B|248:112|240:176|240:176|184:128|128:128,1,210,8|4
152,240,12475,21,0
152,240,12809,2,8,B|139:280|163:344|227:360|291:344,1,210
248,248,13809,2,0,B|253:219|269:195|293:179|317:179,1,105,8|0
408,224,14476,1,8
416,120,14809,2,0,B|360:88|360:88|360:88,2,52.5,0|0|8
336,48,15476,70,8,B|231:48,1,105,0|8
304,240,16475,1,8
144,104,17142,2,8,B|104:104|72:160|104:208,1,105,8|4
104,288,17809,21,8
200,344,18143,2,8,B|224:304|224:272|184:232,1,105,0|8
242,149,18809,1,0
332,202,19143,1,8
432,160,19476,2,8,B|408:160|400:120|408:80|440:80,1,105,0|8
352,24,20143,2,8,B|304:32|280:104|296:200|352:208,1,210,8|4
408,280,21143,2,8,B|411:280|411:280|355:280,1,52.5,8|4
208,320,21809,54,0,B|144:304|120:240,1,105,4|0
216,192,22475,2,8,B|136:144,2,52.5
280,112,23142,1,8
376,64,23475,2,0,B|424:144|376:224|320:224|296:216,1,210
280,112,24475,70,8,B|472:224,1,210
416,312,25475,2,0,B|368:336,2,52.5,0|0|8
336,240,26142,2,0,B|224:176,1,105,0|8
152,240,26809,22,0,B|136:176|144:104|240:80|296:104,1,210
336,160,27809,2,0,B|376:160|408:136|416:88,1,105,8|0
336,40,28475,2,8,B|376:-8,2,52.5
232,48,29143,1,8
144,104,29475,70,8,B|96:128|72:200|88:264|128:296,1,210
264,136,30809,2,8,B|288:184|264:216|248:232|200:240,2,105,0|8|0
168,168,31809,2,8,B|120:184|120:224|120:264|128:296,1,105,4|8
200,328,32476,22,8,B|328:328,1,105,4|8
400,296,33142,2,8,B|456:344,2,52.5,8|0|4
368,200,33809,2,0,B|424:200|464:168|464:88|432:40,1,210
352,104,34809,2,8,B|260:44,1,105
272,152,35476,2,8,B|272:232,2,52.5,0|8|0
168,180,36143,2,0,B|232:276|208:340|116:388|32:340|8:276|72:180,1,420,8|4
360,56,38476,70,0,B|391:82|399:133|365:160|353:180,1,105,8|4
336,248,39142,2,0,B|384:288,2,52.5,8|0|0
240,288,39809,2,0,B|210:262|202:211|236:184|248:164,1,105,8|0
296,112,40475,1,8
192,128,40809,2,0,B|184:135|218:108|210:57|183:34,1,105,0|8
88,80,41475,1,4
88,80,41975,1,4
88,80,42475,1,4
48,176,42809,2,8,B|72:232|120:256,3,105
152,152,44143,6,0,B|144:112|160:72|192:48|208:56,2,105,4|8|0
120,248,45143,1,8
216,208,45475,2,0,B|272:192|336:208|368:280|360:320,1,210
256,304,46476,69,8
256,304,47142,2,8,B|304:272|312:184|296:128|232:88,1,210,8|8
192,40,48143,1,4
112,232,48809,22,0,B|112:352,2,105,8|0|4
184,40,50143,1,8
392,88,50809,2,0,B|408:136|408:176|392:216,1,105,8|0
312,256,51475,2,0,B|296:208|296:168|312:128,1,105,8|0
216,104,52142,2,8,B|184:160|184:248|208:296|232:336,1,210
328,344,53143,2,12,B|376:344|400:296|392:264,1,105,8|12
392,64,54143,70,0,B|392:192,1,105,4|8
296,200,54809,2,0,B|240:208|176:168|160:120|168:64,1,210
264,104,55809,2,8,B|104:248,1,210
8,280,56809,1,0
24,168,57142,22,8,B|24:56,2,105
128,192,58143,2,8,B|80:248|72:312,1,105
184,288,58810,1,4
224,80,59476,70,0,B|240:8|328:0|328:8,1,105,0|8
320,112,60143,1,2
240,184,60476,1,4
336,232,60809,2,8,B|360:272|352:336|304:368,2,105,8|4|4
248,288,61809,1,0
248,288,62142,2,0,B|136:288,1,105,4|8
144,288,62809,1,4
440,232,76143,22,0,B|440:272|440:312|440:352|440:352,2,105,4|8|0
440,128,77142,2,8,B|432:72|360:48|280:72|280:144,1,210
208,56,78143,1,0
120,120,78475,54,8,B|64:168|48:224|72:296|112:344,1,210
160,208,79475,2,0,B|104:216|56:208|16:152|40:80,1,210
248,72,80809,6,8,B|376:72,2,105,0|8|4
184,272,82143,1,8
384,296,82809,22,8,B|384:176,2,105,0|8|0
288,336,83809,1,8
288,336,84142,2,0,B|192:336|136:280|144:208,1,210
248,232,85142,2,0,B|320:136,1,105,8|4
104,104,86142,22,8,B|232:104,1,105
312,72,86809,2,0,B|336:88|360:120|352:168,1,105,4|8
376,264,87476,1,8
296,344,87809,2,0,B|272:328|248:296|256:248,1,105,8|8
256,152,88476,2,8,B|368:152,1,104.999996870756,8|8
440,88,89142,22,8,B|440:16,2,52.5
464,192,89809,1,8
360,152,90143,1,8
328,256,90476,1,8
240,192,90810,1,4
32,144,91476,38,8,B|40:72|136:64|136:72,1,105,0|8
200,88,92143,1,4
248,288,92809,2,8,B|208:328|136:320|80:288|88:192,1,210,8|4
208,128,93975,1,4
360,128,94476,2,4,B|360:240,1,104.999996870756,12|12
392,336,95143,38,8,B|280:336|272:336,1,105
192,296,95809,2,8,B|120:288|64:232|48:168|72:120,1,210
168,184,96809,6,8,B|232:96,1,105
229,100,97476,1,8
392,224,98142,6,8,B|456:136,1,105
453,140,98809,1,8
288,272,99475,86,0,B|176:272|176:272,2,105,8|4|8
248,64,100809,2,8,B|352:64|352:64,2,105
152,104,101809,2,8,B|88:96|64:184,1,105
160,216,102476,5,8
224,296,102809,1,8
320,264,103143,2,8,B|320:136|320:136,2,105
240,192,104142,2,10,B|240:128,1,52.5
128,256,104809,2,10,B|128:192,1,52.5
288,304,105476,1,4
256,192,105809,8,4,106809
