osu file format v9

[General]
AudioFilename: Fuwa Fuwa Time.mp3
AudioLeadIn: 0
PreviewTime: 44000
Countdown: 0
SampleSet: Soft
StackLeniency: 0.7
Mode: 0
LetterboxInBreaks: 0

[Editor]
DistanceSpacing: 0.8
BeatDivisor: 4
GridSize: 8

[Metadata]
Title:Fuwa Fuwa Time (TV Size)
Artist:HO-KAGO TEA TIME
Creator:Index-San
Version:Insane
Source:K-ON!
Tags:Afterschool Light Fluffy HTT Aki Toyosaki Yui Hirasawa Yoko Hikasa Mio Akiyama

[Difficulty]
HPDrainRate:7
CircleSize:4
OverallDifficulty:7
ApproachRate:8
SliderMultiplier:2
SliderTickRate:2

[Events]
//Background and Video events
0,0,"wall.jpg"
//Break Periods
2,63009,74726
//Storyboard Layer 0 (Background)
//Storyboard Layer 1 (Fail)
//Storyboard Layer 2 (Pass)
//Storyboard Layer 3 (Foreground)
//Storyboard Sound Samples
//Background Colour Transformations
3,100,163,162,255

[TimingPoints]
1476,333.333333333333,4,2,1,60,1,0
12309,-90.9090909090909,4,2,1,60,0,0
13059,-90.9090909090909,4,2,1,60,0,0
13226,-90.9090909090909,4,2,1,60,0,0
15726,-90.9090909090909,4,2,2,60,0,0
15893,-90.9090909090909,4,2,1,60,0,0
19976,-90.9090909090909,4,2,1,60,0,0
21143,-76.9230769230769,4,2,1,60,0,0
21476,-90.9090909090909,4,2,1,60,0,0
23393,-90.9090909090909,4,2,2,60,0,0
23559,-90.9090909090909,4,2,1,60,0,0
26059,-90.9090909090909,4,2,2,60,0,0
26226,-90.9090909090909,4,2,1,60,0,0
27393,-90.9090909090909,4,2,2,60,0,0
27559,-90.9090909090909,4,2,1,60,0,0
35393,-90.9090909090909,4,2,2,60,0,0
35559,-90.9090909090909,4,2,1,60,0,0
39726,-90.9090909090909,4,2,2,60,0,0
39893,-90.9090909090909,4,2,1,60,0,0
40393,-90.9090909090909,4,2,2,60,0,0
40559,-90.9090909090909,4,2,1,60,0,0
40726,-90.9090909090909,4,2,2,60,0,0
40893,-90.9090909090909,4,2,1,60,0,0
43476,-76.9230769230769,4,2,1,60,0,0
44143,-76.9230769230769,4,2,1,60,0,1
55393,-76.9230769230769,4,2,2,60,0,1
55559,-76.9230769230769,4,2,1,60,0,1
62809,-76.9230769230769,4,2,1,60,0,0
75725,-76.9230769230769,4,2,1,30,0,0
75809,-76.9230769230769,4,2,1,40,0,0
75892,-76.9230769230769,4,2,1,50,0,0
75975,-76.9230769230769,4,2,1,60,0,0
76059,-76.9230769230769,4,2,1,50,0,0
76143,-76.9230769230769,4,2,1,60,0,1
76225,-76.9230769230769,4,2,1,60,0,1
87393,-76.9230769230769,4,2,2,60,0,1
87559,-76.9230769230769,4,2,1,60,0,1
87659,-76.9230769230769,4,2,1,60,0,1
89476,-76.9230769230769,4,2,1,60,0,1
94809,-76.9230769230769,4,2,1,60,0,0
95143,-76.9230769230769,4,1,1,60,0,0
105643,-76.9230769230769,4,2,1,15,0,0

[Colours]
Combo1 : 255,255,255
Combo2 : 0,128,255
Combo3 : 4,87,179
Combo4 : 243,232,1
Combo5 : 12,0,240
Combo6 : 255,150,0
Combo7 : 1,182,197
SliderBorder : 255,255,255

[HitObjects]
280,104,6809,2,8,B|256:152|256:208|304:248|360:248|368:248,1,200,4|8
168,232,7476,2,8,B|221:235|270:263|280:324|252:373|250:375,1,200
160,336,7976,1,0
96,264,8143,2,8,B|46:242|11:199|22:138|64:102|66:100,1,200
136,168,8643,1,0
216,120,8809,2,8,B|248:80|314:70|361:110|371:165|371:168,1,200
280,192,9309,69,0
342,269,9476,2,8,B|310:309|244:319|197:279|187:224|187:221,1,200
424,248,10143,1,8
160,160,10476,1,8
352,80,10810,1,8
256,328,11143,1,8
320,272,11310,21,0
368,344,11476,1,8
432,296,11643,1,0
424,280,11726,1,0
416,264,11809,1,8
400,184,11976,1,0
376,184,12059,1,0
352,184,12143,1,12
272,144,12310,1,0
192,176,12476,70,0,B|160:199|144:223|144:263|148:270,1,109.999996721745,8|0
208,336,12809,1,0
288,296,12976,2,0,B|296:331|347:354|409:312|396:245|366:214|326:225,1,219.999993443489,0|8
236,247,13476,2,0,B|216:263|182:238|173:188|192:176,1,109.999996721745
272,144,13809,1,8
360,136,13976,2,0,B|374:71|320:8|239:22|208:80,1,219.999993443489
144,128,14476,2,4,B|106:162|118:218|176:254|239:225|258:160|207:123,2,219.999993443489,8|0|8
256,8,15476,21,0
192,72,15643,2,0,B|192:8|96:0|48:48|24:104|88:144,1,219.999993443489
80,200,16143,2,4,B|85:258|156:264|213:234|225:178|189:149,2,219.999993443489,0|8|0
120,120,16976,1,0
192,72,17143,2,0,B|226:27|296:24|344:80|344:152|280:168,1,219.999993443489,8|12
256,256,17643,70,0,B|280:304|280:360|224:384,1,109.999996721745,0|8
160,288,17976,2,0,B|144:256|144:208|172:158,1,109.999996721745,0|8
210,64,18309,2,0,B|245:63|288:83|306:110,1,109.999996721745,0|8
416,176,18643,2,0,B|416:215|392:248|351:255,1,109.999996721745,0|8
272,224,18976,2,0,B|232:230|208:263|208:302,1,109.999996721745,0|8
288,344,19309,1,0
376,336,19476,2,8,B|424:368|464:328|480:280|440:224|400:224|360:248|328:272,1,219.999993443489
168,168,20143,21,4
352,40,20476,2,8,B|345:39|385:15|425:15|465:71|449:119|409:159|361:127,1,219.999993443489
256,304,21143,6,8,B|256:168,1,129.999997675419
256,152,21476,37,4
256,128,21809,1,4
256,104,22143,1,4
256,16,22309,70,0,B|296:8|336:32|344:90,1,109.999996721745,8|4
384,144,22643,1,8
432,216,22809,2,0,B|480:248|480:304|448:344|376:360|352:304|352:256,1,219.999993443489,8|0
336,200,23309,22,0,B|341:190|358:132|293:97|242:108|206:151|220:195,1,219.999993443489
152,248,23810,1,0
216,304,23976,1,0
304,296,24143,2,0,B|320:360|376:376|448:368|472:328|472:248,1,219.999993443489,8|0
384,272,24643,69,0
392,184,24809,2,0,B|421:176|429:160|421:128|397:112|373:120,1,109.999996721745,8|0
288,96,25143,2,0,B|297:66|288:51|256:41|230:53|224:77,1,109.999996721745
160,136,25476,2,0,B|141:111|123:110|97:130|91:158|108:177,1,109.999996721745,8|0
176,240,25810,1,0
248,312,25976,22,0,B|248:342|288:374|360:326|368:286|352:230|320:224,1,219.999993443489
224,200,26476,2,0,B|216:168|232:144|264:112|312:136,1,109.999996721745
320,224,26809,2,0,B|352:256|385:246|423:226|441:190|441:142|401:102|394:115,1,219.999993443489,8|0
304,128,27309,70,0,B|350:82|320:41|294:17|235:16|204:41|209:109,1,219.999993443489,0|0
120,104,27809,2,0,B|101:79|83:78|57:98|51:126|68:145,1,109.999996721745
152,168,28143,2,0,B|162:126|207:119|253:123|275:188|247:227|182:249|170:210,1,219.999993443489,8|0
112,272,28643,1,0
192,296,28809,2,0,B|176:320|188:369|227:397|292:375|296:329|289:284|247:274,1,219.999993443489,8|0
312,208,29309,1,0
392,168,29476,22,8,B|417:102|352:48|270:61|264:136,1,219.999993443489,8|0
280,304,30143,2,8,B|347:324|396:255|378:174|302:174,1,219.999993443489,8|8
232,128,30643,2,0,B|224:96|184:72|136:88|104:144,1,109.999996721745,0|8
72,168,30976,2,0,B|80:200|120:224|168:208|200:152,1,109.999996721745,0|8
232,128,31309,2,0,B|246:117|262:85|238:45|206:37,1,109.999996721745,0|8
144,104,31643,1,4
162,194,31809,1,8
248,208,31976,1,4
328,136,32143,2,0,B|368:80|312:8|224:0|192:88|224:104,2,219.999993443489,8|8|8
392,224,32976,69,8
328,328,33143,1,8
208,328,33309,1,8
144,224,33476,1,12
392,224,33809,1,8
456,128,33976,21,0
384,32,34143,1,8
304,128,34309,1,0
240,24,34476,1,8
168,128,34643,1,0
112,32,34809,2,0,B|86:35|38:116|62:186|118:220,1,219.999993443489,8|4
184,304,35309,70,0,B|246:325|315:298|346:209|328:151,1,219.999993443489,0|0
416,184,35809,1,8
336,96,35976,1,0
248,176,36143,2,4,B|227:238|254:307|343:338|401:320,2,219.999993443489,8|4|8
336,96,36976,1,0
440,136,37143,2,8,B|464:176|448:280|344:296|288:200,1,219.999993443489,8|4
184,72,37809,2,0,B|209:27|302:0|364:96|295:183,1,219.999993443489,8|4
328,336,38476,22,4,B|296:360|232:360|200:312|192:264|232:216,1,219.999993443489
312,208,38976,1,0
400,216,39143,2,0,B|448:232|448:296|424:320|384:336,2,109.999996721745,8|0|8
360,136,39643,2,0,B|408:107|401:47|362:-3|288:11|269:59|279:108,1,219.999993443489
176,96,40143,2,0,B|128:120|112:184|144:232|192:264|256:248|304:192|280:136,2,329.999990165234,4|0|4
240,296,41476,2,0,B|347:266|392:184|400:80|320:0|224:-24|160:-16|96:0|32:80|-4:226|136:256|136:256,1,659.999980330468,8|8
208,160,42810,21,4
224,136,43143,1,4
240,112,43476,1,4
256,96,43809,1,4
440,96,44143,54,0,B|416:56|464:32|512:32|552:96|528:160|416:184,1,259.999995350838,4|8
336,176,44643,1,0
288,264,44809,2,0,B|328:240|352:288|352:336|288:376|224:352|200:240,1,259.999995350838,0|8
200,160,45309,1,0
104,176,45476,2,0,B|128:136|80:112|32:112|-8:176|16:240|128:264,2,259.999995350838,0|8|0
192,232,46309,1,0
272,152,46476,70,0,B|312:144|312:96|304:64|288:8|192:0|152:48|160:96,1,259.999995350838,8|4
144,184,46976,1,0
56,248,47143,2,0,B|48:256|8:280|8:328|48:376|88:392|160:376|184:344|176:304|152:256|136:224|136:232,1,259.999995350838,8|0
432,136,47809,2,0,B|440:128|480:104|480:56|440:8|400:-8|328:8|304:40|312:80|336:128|352:160|352:152,1,259.999995350838,8|4
248,200,48309,2,0,B|241:238|290:280|331:278|367:212|367:212,1,129.999997675419,0|8
384,152,48643,1,0
304,96,48809,22,0,B|340:77|328:5|261:0|214:13|185:54|185:113|245:121,1,259.999995350838,8|0
384,272,49476,2,0,B|434:266|446:323|426:370|383:393|316:402|289:334|320:308,1,259.999995350838,4|8
384,200,49976,2,0,B|400:168|408:112|376:64,1,129.999997675419,0|8
304,144,50309,1,0
256,72,50476,2,0,B|176:48|120:96|96:152|104:208|136:256|200:280,2,259.999995350838,8|0|8
232,176,51309,1,0
208,280,51476,2,0,B|288:304|344:256|368:200|360:144|328:96|264:72,1,259.999995350838,0|8
240,56,51976,1,0
144,24,52142,70,0,B|63:2|8:52|-13:109|-3:165|30:212|95:233,1,259.999995350838,0|8
144,224,52643,1,0
261,256,52809,2,0,B|304:272|352:256|376:176|379:125|345:91|312:80,2,259.999995350838,0|8|4
304,352,53643,21,0
408,328,53810,1,12
408,224,53976,1,0
368,128,54143,70,0,B|392:72|360:40|304:16|264:40|224:88|256:144|304:152,2,259.999995350838,4|4|8
360,232,54976,2,0,B|376:264|360:304|328:320|288:304,1,129.999997675419,0|8
240,216,55309,2,0,B|224:168|208:144|128:128|80:184|72:240|120:288,1,259.999995350838
168,344,55810,21,8
248,288,55976,1,0
168,232,56143,2,2,B|152:192|144:160|160:120|176:88,1,129.999997675419,8|0
264,72,56476,2,2,B|280:112|288:144|272:184|256:216,1,129.999997675419,8|0
88,256,56809,2,2,B|72:216|64:184|80:144|96:112,1,129.999997675419,8|0
360,32,57143,2,2,B|376:72|384:104|368:144|352:176,1,129.999997675419,8|0
232,160,57476,1,4
256,192,57643,12,0,58809
48,192,59476,70,8,B|6:157|13:19|121:-20|175:32,1,259.999995350838
470,182,60142,2,12,B|505:210|498:348|390:388|362:351,1,259.999995350838
256,192,60810,1,12
256,24,61476,21,4
256,48,61976,1,4
256,72,62476,1,4
256,280,62809,1,4
256,360,75476,69,12
256,256,75643,1,8
256,232,75726,1,8
256,208,75810,1,12
256,184,75893,1,8
256,160,75976,1,8
256,136,76059,1,8
256,112,76143,53,12
64,184,76476,1,8
168,184,76643,2,0,B|328:184,1,129.999997675419,0|0
400,168,76976,2,0,B|447:179|467:213|466:257|440:298,1,129.999997675419,0|8
376,336,77309,1,0
272,344,77476,22,0,B|223:358|167:302|167:254|191:174|263:174,1,259.999995350838,0|8
344,240,77976,1,0
432,176,78143,1,0
344,112,78309,1,0
248,72,78476,69,8
248,72,78643,2,0,B|242:36|210:20|168:30|161:75|180:101,2,129.999997675419,0|0|0
192,160,79143,2,0,B|184:175|207:214|250:209|274:182|266:147,2,129.999997675419,8|0|0
376,56,79809,22,0,B|399:-9|506:0|551:118|466:159,1,259.999995350838,8|4
472,264,80309,2,0,B|479:296|455:323|412:328|389:289|397:274,1,129.999997675419,0|8
304,224,80643,1,0
192,160,80809,38,8,B|217:116|217:60|153:28|105:52|81:108|121:164,1,259.999995350838,0|8
384,160,81476,2,4,B|344:104|368:48|416:24|480:56|480:112|448:168,1,259.999995350838,4|8
216,256,82143,2,4,B|190:299|190:355|254:387|302:363|326:307|286:251,1,259.999995350838,0|8
216,48,82809,2,0,B|183:40|156:64|151:107|190:130|216:128,1,129.999997675419,8|0
288,192,83143,2,0,B|302:199|341:176|336:133|309:109|277:117,1,129.999997675419,8|0
160,176,83476,1,0
216,296,83643,1,0
328,360,83809,54,4,B|384:384|464:336|448:176|344:192,2,259.999995350838,8|0|8
216,296,84643,1,0
200,168,84809,2,0,B|160:96|232:24|336:40|336:136,1,259.999995350838,0|8
160,304,85476,2,0,B|120:344|72:352|16:336|-32:272|0:208|24:192,1,259.999995350838,12|8
96,144,85976,1,2
184,88,86143,69,12
288,88,86309,1,2
384,168,86476,2,0,B|440:136|496:216|488:272|432:328|368:312|360:256|360:256,1,259.999995350838,8|12
288,200,86976,2,0,B|256:216|224:184|216:144|248:112,1,129.999997675419,0|8
354,116,87309,2,0,B|341:111|386:145|443:111|443:32|409:-13|312:-30|296:32,1,259.999995350838
184,88,87809,22,0,B|174:95|153:120|169:181|216:194,1,129.999997675419,8|0
312,232,88143,2,0,B|321:224|342:199|326:138|279:125,1,129.999997675419,8|0
184,88,88476,2,0,B|176:78|151:57|90:73|77:120,1,129.999997675419,8|0
24,208,88809,2,0,B|31:217|56:238|117:222|130:175,1,129.999997675419,8|0
288,56,89142,70,0,B|280:46|255:25|194:41|181:88,1,129.999997675419,8|8
256,160,89475,2,4,B|294:244|390:228|430:156|398:92,2,259.999995350838,4|6|4
288,56,90309,1,8
398,94,90476,2,4,B|460:62|532:102|548:198|464:236,1,259.999995350838,6|4
392,320,90976,2,8,B|348:337|299:298|300:265|304:253,1,129.999997675419,8|12
128,136,91476,22,4,B|88:80|112:24|160:0|224:32|224:88|192:144,2,259.999995350838
72,224,92309,1,8
168,264,92476,2,4,B|142:307|142:363|206:395|254:371|278:315|238:259,2,259.999995350838
184,144,93309,1,8
288,152,93476,70,4,B|328:96|416:96|464:128|464:248|416:288|328:288|280:224,2,389.999993026257
360,192,94809,69,4
232,296,95143,37,8
288,64,95476,1,8
232,296,95809,1,8
264,180,95976,1,0
288,64,96143,1,8
344,288,96476,1,8
184,104,96810,5,8
32,288,97143,2,8,B|56:320|88:328|128:320|144:288,2,129.999997675419,8|0|8
184,104,97810,1,8
344,288,98143,1,8
152,288,98476,1,8
240,192,98643,1,0
224,320,98809,1,8
160,208,98976,1,0
280,264,99143,1,8
392,24,99476,85,8
440,272,99810,1,8
416,144,99976,1,0
392,24,100143,1,8
152,64,100476,2,8,B|104:96|40:176|104:272|168:296|168:296,1,259.999995350838
376,296,101143,2,8,B|304:320|248:288,2,129.999997675419,8|0|8
424,80,101810,85,8
424,80,102143,1,8
424,80,102476,2,8,B|288:80,2,129.999997675419,8|0|8
184,136,103143,2,8,B|144:168|104:232|128:312|192:360|208:360,1,259.999995350838
408,200,103810,6,0,B|472:264|400:336,2,129.999997675419,8|0|0
184,136,104310,1,0
416,112,104809,6,0,B|368:96|320:144|312:208,1,129.999997675419
256,192,105476,1,4
256,192,105643,12,8,106810
