osu file format v9

[General]
AudioFilename: Fuwa Fuwa Time.mp3
AudioLeadIn: 0
PreviewTime: 44000
Countdown: 0
SampleSet: Normal
StackLeniency: 0.7
Mode: 0
LetterboxInBreaks: 0

[Editor]
DistanceSpacing: 1
BeatDivisor: 4
GridSize: 8

[Metadata]
Title:Fuwa Fuwa Time (TV Size)
Artist:HO-KAGO TEA TIME
Creator:Index-San
Version:Hard
Source:K-ON!
Tags:Afterschool Light Fluffy HTT Aki Toyosaki Yui Hirasawa Yoko Hikasa Mio Akiyama

[Difficulty]
HPDrainRate:6
CircleSize:4
OverallDifficulty:5
ApproachRate:7
SliderMultiplier:1.4
SliderTickRate:2

[Events]
//Background and Video events
0,0,"wall.jpg"
//Break Periods
2,63009,74576
//Storyboard Layer 0 (Background)
//Storyboard Layer 1 (Fail)
//Storyboard Layer 2 (Pass)
//Storyboard Layer 3 (Foreground)
//Storyboard Sound Samples
//Background Colour Transformations
3,100,163,162,255

[TimingPoints]
1476,333.333333333333,4,2,1,50,1,0
12143,-100,4,2,1,50,0,0
44143,-83.3333333333333,4,2,1,65,0,1
61143,-100,4,2,1,75,0,1
62809,-100,4,2,1,75,0,0
76143,-83.3333333333333,4,2,1,75,0,1
85975,-83.3333333333333,4,2,1,55,0,1
86142,-83.3333333333333,4,2,1,60,0,1
86309,-83.3333333333333,4,2,1,65,0,1
86475,-83.3333333333333,4,2,1,70,0,1
87809,-83.3333333333333,4,2,1,75,0,1
94809,-100,4,1,1,50,0,0
103976,-100,4,1,0,40,0,0
105643,-100,4,2,1,15,0,0

[Colours]
Combo1 : 255,255,255
Combo2 : 0,128,255
Combo3 : 4,87,179
Combo4 : 243,232,1
Combo5 : 12,0,240
Combo6 : 255,150,0
Combo7 : 1,182,197
SliderBorder : 255,255,255

[HitObjects]
256,192,6810,1,4
256,192,7143,1,8
120,240,7476,2,0,B|80:248|64:184|80:120|128:128|128:128,1,140,0|8
200,24,8143,2,0,B|240:16|256:80|240:144|192:136|192:136,2,140,0|8|0
104,128,9143,1,8
104,264,9476,70,0,B|248:264|248:264,1,140,4|8
328,152,10143,1,0
416,264,10476,2,0,B|488:216|448:128,1,140,8|0
453,141,11143,1,8
336,64,11476,2,0,B|416:64|416:64,2,70,8|0|8
280,104,11976,1,0
232,56,12143,1,4
184,104,12310,21,0
136,56,12476,2,0,B|104:104|104:144,1,70,8|0
80,184,12810,1,0
128,232,12976,2,0,B|128:280|176:312|224:312|280:272,2,140,2|2|2
198,223,13809,70,0,B|198:183|224:160,1,70,8|0
272,216,14143,2,0,B|304:208|312:144|296:96|248:96,1,140
224,160,14643,2,0,B|154:160,1,70
80,160,14976,2,0,B|80:128|80:128|80:104|80:80,1,70,0|4
216,64,15476,21,2
256,8,15643,2,0,B|296:0|312:64|296:128|248:112,3,140,2|2|2|2
216,64,16809,2,0,B|164:60|130:86|113:129|142:194,1,140,4|8
192,184,17309,2,0,B|246:227,1,70,0|4
312,200,17643,69,0
320,128,17810,2,0,B|397:62,1,70,8|0
424,128,18143,2,0,B|456:200,1,70
392,232,18476,2,0,B|352:296|352:296,1,70,8|0
288,304,18810,2,0,B|224:256,1,70
168,288,19143,2,0,B|104:240,1,70,8|0
56,200,19476,21,0
32,128,19643,1,0
88,80,19810,1,8
144,128,19976,1,0
128,200,20143,70,0,B|192:200|192:272|192:368|96:360,1,210,4|2
80,304,20809,2,0,B|8:304|8:200|72:176|96:208,1,140,4|8
112,136,21309,1,8
256,48,21642,85,4
400,136,21975,1,4
256,192,22309,2,4,B|256:272,1,70,4|8
304,312,22642,2,0,B|320:360,2,35,4|0|0
344,256,22976,2,0,B|384:248|384:200|384:144,1,70,0|8
344,144,23309,70,0,B|338:106|354:66|408:56|440:80,1,140
416,144,23809,1,8
344,144,23976,1,0
272,144,24143,2,0,B|216:136|176:160|168:216|176:256,1,140,0|8
192,288,24643,22,0,B|240:320|280:304|312:264|312:216,1,140
312,184,25143,1,8
384,184,25309,1,0
376,256,25476,2,0,B|408:264|448:248|464:208|456:160,1,140,4|8
456,96,25976,70,0,B|248:96,1,210,0|8
176,96,26643,1,0
104,96,26809,2,0,B|96:128|112:168|152:184|200:176,1,140,0|8
264,176,27309,22,0,B|304:192|320:232|304:280|256:296,1,140
216,240,27810,1,8
160,288,27976,1,0
88,288,28143,2,0,B|88:368,2,70,4|0|8
88,288,28643,2,0,B|64:272|56:224|64:176|96:160,1,140,0|0
167,160,29143,1,8
303,234,29476,69,8
240,96,29810,1,8
208,244,30143,1,4
320,144,30476,1,8
400,144,30643,1,0
320,144,30810,1,4
320,144,30976,2,0,B|240:144,1,70,0|8
176,96,31310,22,0,B|160:136|168:176,1,70,0|0
192,232,31643,2,0,B|150:250|112:224,1,70,4|8
64,192,31976,2,0,B|40:232|56:272,1,70,4|0
104,312,32310,2,0,B|144:336|176:320,1,70,4|8
232,288,32643,70,0,B|280:288|312:256,1,70,4|0
352,216,32976,2,0,B|372:186|368:128|344:104|320:120,1,70,0|8
288,136,33310,1,0
312,56,33477,2,0,B|288:32|240:40|200:72|208:128,1,140,4|8
128,112,33977,22,0,B|120:144|136:184|176:200|224:192,1,140
216,264,34477,1,8
288,264,34643,1,0
288,192,34810,2,0,B|320:200|360:184|376:144|368:96,1,140,0|8
296,112,35309,70,0,B|296:48|232:16|160:56,1,140
136,80,35810,1,8
80,128,35976,1,0
136,176,36143,22,2,B|280:176,1,140,4|8
408,128,36810,2,2,B|456:200|392:264,1,140,0|8
272,320,37476,2,2,B|215:264|263:192,1,140,0|8
160,104,38143,1,0
160,104,38310,1,0
160,104,38476,2,0,B|208:104|224:56|208:8|152:0,1,140,4|4
216,152,39143,69,8
280,208,39310,1,0
200,232,39476,1,0
264,288,39643,1,0
184,312,39810,1,8
112,336,39976,1,0
112,336,40143,2,0,B|80:304|56:264|72:224|88:192,1,140,4|8
104,136,40643,2,0,B|136:104|176:80|216:96|248:112,1,140
304,136,41143,1,8
144,176,41476,21,4
80,224,41643,1,8
104,296,41809,1,8
184,296,41976,1,8
208,224,42143,1,8
328,328,42476,69,4
448,248,42809,1,8
328,168,43143,1,8
456,96,43476,21,8
416,160,43643,1,8
376,96,43809,1,8
304,80,43976,1,8
328,16,44143,86,0,B|360:8|408:8|448:40|456:96|456:96,1,168.000004005432,4|8
512,160,44643,1,0
456,224,44809,2,0,B|464:256|464:304|432:344|376:352|376:352,1,168.000004005432,0|8
368,264,45310,1,0
344,184,45476,2,0,B|328:168|240:144|208:248|240:288,1,168.000004005432,0|8
200,336,45976,1,0
128,288,46143,2,0,B|96:280|80:216|96:168|128:144,1,168.000004005432,0|8
184,208,46642,69,0
248,264,46809,2,0,B|264:304|328:312|368:280|376:216,1,168.000004005432,0|8
304,184,47309,1,0
344,112,47476,2,8,B|320:56|216:80|224:152,1,168.000004005432,0|8
88,248,48143,2,8,B|64:280|48:368|120:392|176:376|176:376,1,168.000004005432,4|8
304,336,48809,21,8
216,192,49142,1,8
320,56,49475,1,4
416,192,49809,1,8
384,112,49976,1,0
320,56,50143,1,2
152,56,50476,1,8
32,176,50809,70,0,B|9:203|7:252|28:306|75:316|91:319,1,168.000004005432,0|8
208,184,51476,2,0,B|224:216|216:264|184:312|136:312|120:312,2,168.000004005432,0|8|0
352,312,52476,2,0,B|350:312|302:312|270:264|262:216|278:184,1,168.000004005432,8|0
408,80,53143,2,0,B|443:77|485:103|517:150|499:195|498:196,1,168.000004005432,8|4
360,296,53809,21,4
200,352,54143,1,4
240,192,54476,2,0,B|224:144|160:120,1,84.0000020027161,4|0
112,168,54809,70,0,B|96:136|104:88|136:40|184:40|200:40,1,168.000004005432,4|8
272,40,55309,1,0
360,40,55476,2,0,B|408:56|440:80|448:152|416:184|416:184,1,168.000004005432,0|8
368,240,55976,1,0
288,224,56142,2,0,B|264:248|256:336|344:368|384:352,1,168.000004005432,0|8
432,344,56642,1,0
480,272,56809,2,0,B|494:241|471:155|400:120|344:152,1,168.000004005432,0|8
256,224,57476,22,4,B|72:224,2,168.000004005432,4|12|4
208,88,58476,1,12
336,256,58809,1,4
336,88,59143,2,0,B|336:48|272:32|208:48|208:88,1,168.000004005432,8|0
208,256,59809,2,0,B|208:296|272:312|336:296|336:256,1,168.000004005432,8|4
208,128,60476,2,0,B|168:128|152:192|168:256|208:256,1,168.000004005432,8|4
424,64,61476,69,4
208,256,61976,1,4
464,352,62476,1,8
368,208,62809,1,4
256,144,75476,69,4
256,144,75809,1,4
408,56,76143,53,4
472,112,76310,1,0
472,192,76476,2,0,B|456:240|408:232,1,84.0000020027161,8|0
336,184,76810,1,0
336,184,76976,1,0
336,184,77143,2,0,B|248:120,1,84.0000020027161,8|0
184,152,77476,69,0
216,72,77643,1,0
136,88,77810,1,8
136,88,77975,2,0,B|56:64|24:168|64:240|136:232,1,168.000004005432,0|0
66,197,78475,1,8
144,168,78643,21,0
144,168,78809,2,0,B|200:160|232:192|240:248|208:288|208:288,2,168.000004005432,0|8|0
104,328,79810,1,8
128,248,79976,1,0
56,200,80143,2,0,B|24:192|-24:120|40:40|104:48,1,168.000004005432,0|8
192,152,80809,21,0
264,200,80976,1,0
328,248,81143,2,8,B|400:200,1,84.0000020027161,8|0
396,202,81476,1,4
232,232,81810,2,0,B|160:280,1,84.0000020027161,8|0
163,279,82143,1,4
248,136,82476,2,0,B|320:80,1,84.0000020027161,8|0
314,84,82810,1,4
456,208,83143,37,8
352,272,83310,1,0
400,160,83476,1,0
424,280,83643,1,0
336,200,83809,2,0,B|224:152|320:24|336:48,1,168.000004005432,8|4
488,112,84476,2,0,B|512:80|424:-32|336:64,1,168.000004005432,8|0
432,192,85143,21,8
328,328,85476,1,4
192,248,85810,1,4
224,176,85976,21,0
288,128,86143,1,12
240,64,86310,1,0
176,112,86476,1,12
152,32,86643,1,0
80,72,86809,70,2,B|40:96|0:152|40:216|104:264,1,168.000004005432,12|8
112,280,87309,1,0
200,304,87476,2,0,B|232:312|296:288|296:216|296:160,1,168.000004005432,8|8
384,208,87976,1,0
440,136,88143,2,0,B|440:88|416:40|360:16|264:40,1,168.000004005432,8|8
336,120,88643,1,0
256,80,88810,2,0,B|192:168|248:224,1,84.0000020027161,8|0
288,216,89143,69,8
384,208,89309,1,8
336,120,89476,2,4,B|312:104|256:88|200:104|176:120,2,168.000004005432,12|4|4
256,192,90309,1,0
176,120,90476,1,4
176,120,90810,1,4
424,352,91476,22,0,B|496:272|400:168,1,168.000004005432,4|8
272,256,92143,1,4
32,32,92810,1,4
168,280,93476,37,8
256,32,93976,1,4
328,216,94476,1,8
384,128,94810,1,4
384,128,95143,86,0,B|240:128,1,140,8|8
120,128,95809,1,8
216,208,96143,2,0,B|104:320,1,140,8|8
232,336,96809,5,8
352,304,97143,2,0,B|448:200,1,140,8|8
384,96,97809,1,8
264,64,98143,2,0,B|120:64,1,140,8|8
192,168,98809,1,8
72,200,99143,2,0,B|48:344,1,140,8|8
160,312,99809,85,8
272,256,100143,2,0,B|432:240,1,140,8|8
424,120,100809,1,8
304,136,101143,2,0,B|128:112,2,140,8|8|8
208,216,102143,2,0,B|128:352,2,140,8|8|8
312,152,103143,1,8
264,40,103476,2,0,B|416:40,1,140,8|8
408,176,104143,5,0
408,176,104309,1,0
152,272,104810,5,0
152,272,104976,1,0
328,312,105476,1,4
256,192,105643,12,0,106809
